  0
SECTION
  2
HEADER
  9
$ACADVER
  1
AC1009
  9
$DWGCODEPAGE
  3
ansi_932
  9
$INSBASE
 10
0.0
 20
0.0
 30
0.0
  9
$EXTMIN
 10
828.7899170562155
 20
489.3051949489529
 30
0.0
  9
$EXTMAX
 10
24228.78991705621
 20
16174.17183748648
 30
0.0
  9
$LIMMIN
 10
-347772.896647284
 20
-186178.265790916
  9
$LIMMAX
 10
492846.6133842615
 20
336738.561691453
  9
$ORTHOMODE
 70
     0
  9
$REGENMODE
 70
     1
  9
$FILLMODE
 70
     1
  9
$QTEXTMODE
 70
     0
  9
$MIRRTEXT
 70
     1
  9
$DRAGMODE
 70
     2
  9
$LTSCALE
 40
1.0
  9
$OSMODE
 70
 16383
  9
$ATTMODE
 70
     1
  9
$TEXTSIZE
 40
2.5
  9
$TRACEWID
 40
0.05
  9
$TEXTSTYLE
  7
1_100
  9
$CLAYER
  8
画層2-1
  9
$CELTYPE
  6
CONTINUOUS
  9
$CECOLOR
 62
   256
  9
$DIMSCALE
 40
100.0
  9
$DIMASZ
 40
0.6
  9
$DIMEXO
 40
3.0
  9
$DIMDLI
 40
10.0
  9
$DIMRND
 40
0.0
  9
$DIMDLE
 40
0.0
  9
$DIMEXE
 40
0.0
  9
$DIMTP
 40
0.0
  9
$DIMTM
 40
0.0
  9
$DIMTXT
 40
3.0
  9
$DIMCEN
 40
0.0
  9
$DIMTSZ
 40
0.0
  9
$DIMTOL
 70
     0
  9
$DIMLIM
 70
     0
  9
$DIMTIH
 70
     0
  9
$DIMTOH
 70
     0
  9
$DIMSE1
 70
     0
  9
$DIMSE2
 70
     0
  9
$DIMTAD
 70
     1
  9
$DIMZIN
 70
     8
  9
$DIMBLK
  1

  9
$DIMASO
 70
     1
  9
$DIMSHO
 70
     1
  9
$DIMPOST
  1

  9
$DIMAPOST
  1

  9
$DIMALT
 70
     0
  9
$DIMALTD
 70
     2
  9
$DIMALTF
 40
25.4
  9
$DIMLFAC
 40
1.0
  9
$DIMTOFL
 70
     1
  9
$DIMTVP
 40
0.0
  9
$DIMTIX
 70
     0
  9
$DIMSOXD
 70
     0
  9
$DIMSAH
 70
     1
  9
$DIMBLK1
  1
ORIGIN
  9
$DIMBLK2
  1
ORIGIN
  9
$DIMSTYLE
  2
1_100
  9
$DIMCLRD
 70
   256
  9
$DIMCLRE
 70
   256
  9
$DIMCLRT
 70
   256
  9
$DIMTFAC
 40
1.0
  9
$DIMGAP
 40
1.0
  9
$LUNITS
 70
     2
  9
$LUPREC
 70
     4
  9
$SKETCHINC
 40
0.1
  9
$FILLETRAD
 40
0.0
  9
$AUNITS
 70
     0
  9
$AUPREC
 70
     0
  9
$MENU
  1
acad
  9
$ELEVATION
 40
0.0
  9
$PELEVATION
 40
0.0
  9
$THICKNESS
 40
0.0
  9
$LIMCHECK
 70
     0
  9
$CHAMFERA
 40
0.0
  9
$CHAMFERB
 40
0.0
  9
$SKPOLY
 70
     0
  9
$TDCREATE
 40
2455209.779677662
  9
$TDUPDATE
 40
2459775.548185405
  9
$TDINDWG
 40
0.2110355093
  9
$TDUSRTIMER
 40
0.211034213
  9
$USRTIMER
 70
     1
  9
$ANGBASE
 50
0.0
  9
$ANGDIR
 70
     0
  9
$PDMODE
 70
     3
  9
$PDSIZE
 40
20.0
  9
$PLINEWID
 40
0.0
  9
$COORDS
 70
     0
  9
$SPLFRAME
 70
     0
  9
$SPLINETYPE
 70
     6
  9
$SPLINESEGS
 70
     8
  9
$ATTDIA
 70
     1
  9
$ATTREQ
 70
     1
  9
$HANDLING
 70
     1
  9
$HANDSEED
  5
27A81
  9
$SURFTAB1
 70
     6
  9
$SURFTAB2
 70
     6
  9
$SURFTYPE
 70
     6
  9
$SURFU
 70
     6
  9
$SURFV
 70
     6
  9
$UCSNAME
  2

  9
$UCSORG
 10
0.0
 20
0.0
 30
0.0
  9
$UCSXDIR
 10
1.0
 20
0.0
 30
0.0
  9
$UCSYDIR
 10
0.0
 20
1.0
 30
0.0
  9
$PUCSNAME
  2

  9
$PUCSORG
 10
0.0
 20
0.0
 30
0.0
  9
$PUCSXDIR
 10
1.0
 20
0.0
 30
0.0
  9
$PUCSYDIR
 10
0.0
 20
1.0
 30
0.0
  9
$USERI1
 70
     0
  9
$USERI2
 70
     0
  9
$USERI3
 70
     0
  9
$USERI4
 70
     0
  9
$USERI5
 70
     0
  9
$USERR1
 40
0.0
  9
$USERR2
 40
0.0
  9
$USERR3
 40
0.0
  9
$USERR4
 40
0.0
  9
$USERR5
 40
0.0
  9
$WORLDVIEW
 70
     1
  9
$SHADEDGE
 70
     3
  9
$SHADEDIF
 70
    70
  9
$TILEMODE
 70
     1
  9
$MAXACTVP
 70
    48
  9
$PLIMCHECK
 70
     0
  9
$PEXTMIN
 10
1.000000000000000E+20
 20
1.000000000000000E+20
 30
1.000000000000000E+20
  9
$PEXTMAX
 10
-1.000000000000000E+20
 20
-1.000000000000000E+20
 30
-1.000000000000000E+20
  9
$PLIMMIN
 10
-0.1479165385088583
 20
-0.1479166605341153
  9
$PLIMMAX
 10
18.86874942328986
 20
12.80486087160786
  9
$UNITMODE
 70
     0
  9
$VISRETAIN
 70
     1
  9
$PLINEGEN
 70
     0
  9
$PSLTSCALE
 70
     0
  0
ENDSEC
  0
SECTION
  2
TABLES
  0
TABLE
  2
VPORT
 70
     1
  0
VPORT
  2
*ACTIVE
 70
     0
 10
0.0
 20
0.0
 11
1.0
 21
1.0
 12
12528.78991705621
 22
8331.738516217716
 13
0.0
 23
0.0
 14
10.0
 24
10.0
 15
20.0
 25
20.0
 16
0.0
 26
0.0
 36
1.0
 17
0.0
 27
0.0
 37
0.0
 40
22153.84615384615
 41
1.06875
 42
50.0
 43
0.0
 44
0.0
 50
0.0
 51
0.0
 71
     0
 72
   100
 73
     1
 74
     1
 75
     0
 76
     0
 77
     0
 78
     0
  0
ENDTAB
  0
TABLE
  2
LTYPE
 70
     3
  0
LTYPE
  2
CONTINUOUS
 70
     0
  3
実線
 72
    65
 73
     0
 40
0.0
  0
LTYPE
  2
DASHED
 70
     0
  3
__ __ __ __ __ __ __ __ __ __ __ __ __ __ __
 72
    65
 73
     2
 40
3.0
 49
2.0
 49
-1.0
  0
LTYPE
  2
DASHDOT
 70
     0
  3
__ . __ . __ . __ . __ . __ . __ . __ . __ . __
 72
    65
 73
     4
 40
8.5
 49
6.0
 49
-1.0
 49
0.5
 49
-1.0
  0
ENDTAB
  0
TABLE
  2
LAYER
 70
    15
  0
LAYER
  2
0
 70
     0
 62
     7
  6
CONTINUOUS
  0
LAYER
  2
DEFPOINTS
 70
     0
 62
     4
  6
CONTINUOUS
  0
LAYER
  2
画層2
 70
     0
 62
    42
  6
CONTINUOUS
  0
LAYER
  2
画層1
 70
     0
 62
     7
  6
CONTINUOUS
  0
LAYER
  2
寸法
 70
     0
 62
     6
  6
CONTINUOUS
  0
LAYER
  2
通り芯
 70
     0
 62
     4
  6
CONTINUOUS
  0
LAYER
  2
画層1-1
 70
     0
 62
    82
  6
CONTINUOUS
  0
LAYER
  2
図面枠
 70
     0
 62
     7
  6
CONTINUOUS
  0
LAYER
  2
画層1-2
 70
     0
 62
     3
  6
CONTINUOUS
  0
LAYER
  2
ﾊｯﾁﾝｸﾞ
 70
     0
 62
     1
  6
CONTINUOUS
  0
LAYER
  2
ﾈｯﾄ
 70
     0
 62
   230
  6
CONTINUOUS
  0
LAYER
  2
寸法引出
 70
     0
 62
     7
  6
CONTINUOUS
  0
LAYER
  2
画層2-1
 70
     0
 62
     5
  6
CONTINUOUS
  0
LAYER
  2
画層3
 70
     0
 62
   190
  6
CONTINUOUS
  0
LAYER
  2
寸法字
 70
     0
 62
     6
  6
CONTINUOUS
  0
ENDTAB
  0
TABLE
  2
STYLE
 70
     5
  0
STYLE
  2
STANDARD
 70
     0
 40
0.0
 41
1.0
 50
0.0
 71
     0
 42
0.2
  3
txt
  4
bigfont.shx
  0
STYLE
  2
1_100
 70
     0
 40
0.0
 41
0.75
 50
0.0
 71
     0
 42
2.5
  3
romans.shx
  4
extfont2.shx
  0
STYLE
  2
STYLE1
 70
     0
 40
0.0
 41
0.75
 50
0.0
 71
     0
 42
0.2
  3
HGRSKP.TTF
  4

  0
STYLE
  2
MSP明朝
 70
     0
 40
0.0
 41
0.75
 50
0.0
 71
     0
 42
0.2
  3

  4

  0
STYLE
  2
ＭＳ_Ｐ明朝
 70
     0
 40
0.0
 41
1.0
 50
0.0
 71
     0
 42
0.2
  3
msmincho.ttc
  4

  0
ENDTAB
  0
TABLE
  2
VIEW
 70
     0
  0
ENDTAB
  0
TABLE
  2
UCS
 70
     0
  0
ENDTAB
  0
TABLE
  2
APPID
 70
    11
  0
APPID
  2
ACAD
 70
     0
  0
APPID
  2
ADE
 70
     0
  0
APPID
  2
ACAD_PSEXT
 70
     0
  0
APPID
  2
ACAD_MLEADERVER
 70
     0
  0
APPID
  2
ACAD_EXEMPT_FROM_CAD_STAND
 70
     0
  0
APPID
  2
ACAD_NAV_VCDISPLAY
 70
     0
  0
APPID
  2
IJCAD_JWWIMPORT_APPID
 70
     0
  0
APPID
  2
PLOTTRANSPARENCY
 70
     0
  0
APPID
  2
ACAECLAYERSTANDARD
 70
     0
  0
APPID
  2
ACCMTRANSPARENCY
 70
     0
  0
APPID
  2
ACADANNOTATIVE
 70
     0
  0
ENDTAB
  0
TABLE
  2
DIMSTYLE
 70
     4
  0
DIMSTYLE
  2
STANDARD
 70
     0
  3

  4

  5

  6

  7

 40
1.0
 41
0.18
 42
0.0625
 43
0.38
 44
0.18
 45
0.0
 46
0.0
 47
0.0
 48
0.0
140
0.18
141
0.09
142
0.0
143
25.4
144
1.0
145
0.0
146
1.0
147
0.09
 71
     0
 72
     0
 73
     1
 74
     1
 75
     0
 76
     0
 77
     0
 78
     0
170
     0
171
     2
172
     0
173
     0
174
     0
175
     0
176
     0
177
     0
178
     0
  0
DIMSTYLE
  2
1_100
 70
     0
  3

  4

  5

  6
ORIGIN
  7
ORIGIN
 40
100.0
 41
0.6
 42
3.0
 43
10.0
 44
0.0
 45
0.0
 46
0.0
 47
0.0
 48
0.0
140
3.0
141
0.0
142
0.0
143
25.4
144
1.0
145
0.0
146
1.0
147
1.0
 71
     0
 72
     0
 73
     0
 74
     0
 75
     0
 76
     0
 77
     1
 78
     8
170
     0
171
     2
172
     1
173
     1
174
     0
175
     0
176
   256
177
   256
178
   256
  0
DIMSTYLE
  2
1_60
 70
     0
  3

  4

  5

  6
ORIGIN
  7
ORIGIN
 40
60.0
 41
0.8
 42
3.0
 43
10.0
 44
0.0
 45
0.0
 46
0.0
 47
0.0
 48
0.0
140
3.0
141
0.0
142
0.0
143
25.4
144
1.0
145
0.0
146
1.0
147
1.0
 71
     0
 72
     0
 73
     0
 74
     0
 75
     0
 76
     0
 77
     1
 78
     8
170
     0
171
     2
172
     1
173
     1
174
     0
175
     0
176
   256
177
   256
178
   256
  0
DIMSTYLE
  2
1_50
 70
     0
  3

  4

  5

  6
ORIGIN
  7
ORIGIN
 40
50.0
 41
1.0
 42
3.0
 43
10.0
 44
0.0
 45
0.0
 46
0.0
 47
0.0
 48
0.0
140
3.0
141
0.0
142
0.0
143
25.4
144
1.0
145
0.0
146
1.0
147
1.0
 71
     0
 72
     0
 73
     0
 74
     0
 75
     0
 76
     0
 77
     1
 78
    12
170
     0
171
     2
172
     1
173
     1
174
     0
175
     0
176
   256
177
   256
178
   256
  0
ENDTAB
  0
ENDSEC
  0
SECTION
  2
BLOCKS
  0
BLOCK
  8
0
  2
$MODEL_SPACE
 70
     0
 10
0.0
 20
0.0
 30
0.0
  3
$MODEL_SPACE
  1

  0
ENDBLK
  5
1A
  8
0
  0
BLOCK
 67
     1
  8
0
  2
$PAPER_SPACE
 70
     0
 10
0.0
 20
0.0
 30
0.0
  3
$PAPER_SPACE
  1

  0
ENDBLK
  5
10C06
 67
     1
  8
0
  0
BLOCK
  8
0
  2
_ORIGIN
 70
     0
 10
0.0
 20
0.0
 30
0.0
  3
_ORIGIN
  1

  0
CIRCLE
  5
2307
  8
0
  6
BYBLOCK
 62
     0
 10
0.0
 20
0.0
 30
0.0
 40
0.5
  0
LINE
  5
2308
  8
0
  6
BYBLOCK
 62
     0
 10
0.0
 20
0.0
 30
0.0
 11
-1.0
 21
0.0
 31
0.0
  0
ENDBLK
  5
230A
  8
0
  0
BLOCK
  8
0
  2
*D1
 70
     1
 10
0.0
 20
0.0
 30
0.0
  3
*D1
  1

  0
LINE
  5
26CF4
  8
寸法
  6
CONTINUOUS
 10
18983.49705991304
 20
13797.59797510441
 30
0.0
 11
18983.49705991304
 21
14037.59797510493
 31
0.0
  0
LINE
  5
26CF5
  8
寸法
  6
CONTINUOUS
 10
19199.7970599132
 20
13797.59797510493
 30
0.0
 11
19199.7970599132
 21
14037.59797510493
 31
0.0
  0
LINE
  5
26CF6
  8
寸法
  6
CONTINUOUS
 10
19031.49705991304
 20
14037.59797510493
 30
0.0
 11
19151.7970599132
 21
14037.59797510493
 31
0.0
  0
TEXT
  5
26CF7
  8
寸法
  6
CONTINUOUS
 10
18717.50420277026
 20
14127.59797510493
 30
0.0
 40
180.0
  1
φ216.3
 41
0.75
  7
1_100
  0
INSERT
  5
26CF8
  8
寸法
  6
CONTINUOUS
  2
_ORIGIN
 10
18983.49705991304
 20
14037.59797510493
 30
0.0
 41
48.0
 42
48.0
 43
48.0
 50
180.0
  0
INSERT
  5
26CF9
  8
寸法
  6
CONTINUOUS
  2
_ORIGIN
 10
19199.7970599132
 20
14037.59797510493
 30
0.0
 41
48.0
 42
48.0
 43
48.0
  0
POINT
  5
26CFA
  8
DEFPOINTS
  6
CONTINUOUS
 62
     0
 10
18983.49705991304
 20
13617.59797510441
 30
0.0
  0
POINT
  5
26CFB
  8
DEFPOINTS
  6
CONTINUOUS
 62
     0
 10
19199.7970599132
 20
13617.59797510493
 30
0.0
  0
POINT
  5
26CFC
  8
DEFPOINTS
  6
CONTINUOUS
 62
     0
 10
19199.7970599132
 20
14037.59797510493
 30
0.0
  0
ENDBLK
  5
25715
  8
0
  0
BLOCK
  8
0
  2
*D2
 70
     1
 10
0.0
 20
0.0
 30
0.0
  3
*D2
  1

  0
LINE
  5
25AA9
  8
寸法
  6
CONTINUOUS
 10
20271.07783531657
 20
11907.59797510487
 30
0.0
 11
20991.64705991318
 21
11907.59797510487
 31
0.0
  0
LINE
  5
25AAA
  8
寸法
  6
CONTINUOUS
 10
20271.07783531657
 20
13557.59797510493
 30
0.0
 11
20991.64705991318
 21
13557.59797510493
 31
0.0
  0
LINE
  5
25AAB
  8
寸法
  6
CONTINUOUS
 10
20991.64705991318
 20
11955.59797510487
 30
0.0
 11
20991.64705991318
 21
13509.59797510493
 31
0.0
  0
INSERT
  5
25AAC
  8
寸法
  6
CONTINUOUS
  2
_ORIGIN
 10
20991.64705991318
 20
11907.59797510487
 30
0.0
 41
48.0
 42
48.0
 43
48.0
 50
270.0
  0
INSERT
  5
25AAD
  8
寸法
  6
CONTINUOUS
  2
_ORIGIN
 10
20991.64705991318
 20
13557.59797510493
 30
0.0
 41
48.0
 42
48.0
 43
48.0
 50
90.0
  0
TEXT
  5
25AAE
  8
寸法
  6
CONTINUOUS
 10
20897.36134562746
 20
12433.66940367633
 30
0.0
 40
180.0
  1
1,650
 50
90.0
 41
0.75
  7
1_100
  0
POINT
  5
25AAF
  8
DEFPOINTS
  6
CONTINUOUS
 62
     0
 10
20091.07783531657
 20
11907.59797510487
 30
0.0
  0
POINT
  5
25AB0
  8
DEFPOINTS
  6
CONTINUOUS
 62
     0
 10
20091.07783531657
 20
13557.59797510493
 30
0.0
  0
POINT
  5
25AB1
  8
DEFPOINTS
  6
CONTINUOUS
 62
     0
 10
20991.64705991318
 20
13557.59797510493
 30
0.0
  0
ENDBLK
  5
25721
  8
0
  0
BLOCK
  8
0
  2
*D3
 70
     1
 10
0.0
 20
0.0
 30
0.0
  3
*D3
  1

  0
LINE
  5
25AA0
  8
寸法
  6
CONTINUOUS
 10
20271.07783531657
 20
10257.59797510487
 30
0.0
 11
20991.64705991318
 21
10257.59797510487
 31
0.0
  0
LINE
  5
25AA1
  8
寸法
  6
CONTINUOUS
 10
20271.07783531657
 20
11907.59797510487
 30
0.0
 11
20991.64705991318
 21
11907.59797510487
 31
0.0
  0
LINE
  5
25AA2
  8
寸法
  6
CONTINUOUS
 10
20991.64705991318
 20
10305.59797510487
 30
0.0
 11
20991.64705991318
 21
11859.59797510487
 31
0.0
  0
INSERT
  5
25AA3
  8
寸法
  6
CONTINUOUS
  2
_ORIGIN
 10
20991.64705991318
 20
10257.59797510487
 30
0.0
 41
48.0
 42
48.0
 43
48.0
 50
270.0
  0
INSERT
  5
25AA4
  8
寸法
  6
CONTINUOUS
  2
_ORIGIN
 10
20991.64705991318
 20
11907.59797510487
 30
0.0
 41
48.0
 42
48.0
 43
48.0
 50
90.0
  0
TEXT
  5
25AA5
  8
寸法
  6
CONTINUOUS
 10
20897.36134562746
 20
10783.66940367631
 30
0.0
 40
180.0
  1
1,650
 50
90.0
 41
0.75
  7
1_100
  0
POINT
  5
25AA6
  8
DEFPOINTS
  6
CONTINUOUS
 62
     0
 10
20091.07783531657
 20
10257.59797510487
 30
0.0
  0
POINT
  5
25AA7
  8
DEFPOINTS
  6
CONTINUOUS
 62
     0
 10
20091.07783531657
 20
11907.59797510487
 30
0.0
  0
POINT
  5
25AA8
  8
DEFPOINTS
  6
CONTINUOUS
 62
     0
 10
20991.64705991318
 20
11907.59797510487
 30
0.0
  0
ENDBLK
  5
2572D
  8
0
  0
BLOCK
  8
0
  2
*D4
 70
     1
 10
0.0
 20
0.0
 30
0.0
  3
*D4
  1

  0
LINE
  5
25A02
  8
寸法
  6
CONTINUOUS
 10
20271.07783531657
 20
13557.59797510493
 30
0.0
 11
20991.64705991318
 21
13557.59797510493
 31
0.0
  0
LINE
  5
25A03
  8
寸法
  6
CONTINUOUS
 10
20271.07783531657
 20
13617.59797510493
 30
0.0
 11
20991.64705991318
 21
13617.59797510493
 31
0.0
  0
LINE
  5
25A04
  8
寸法
  6
CONTINUOUS
 10
20991.64705991318
 20
13509.59797510493
 30
0.0
 11
20991.64705991318
 21
13461.59797510493
 31
0.0
  0
LINE
  5
25A05
  8
寸法
  6
CONTINUOUS
 10
20991.64705991318
 20
13665.59797510493
 30
0.0
 11
20991.64705991318
 21
13713.59797510493
 31
0.0
  0
TEXT
  5
25A06
  8
寸法
  6
CONTINUOUS
 10
20899.39834436557
 20
13645.91973965379
 30
0.0
 40
180.0
  1
60
 50
90.0
 41
0.75
  7
1_100
  0
LINE
  5
25A07
  8
寸法
  6
CONTINUOUS
 10
20991.64705991318
 20
13557.59797510493
 30
0.0
 11
20991.64705991318
 21
13617.59797510493
 31
0.0
  0
INSERT
  5
25A08
  8
寸法
  6
CONTINUOUS
  2
_ORIGIN
 10
20991.64705991318
 20
13557.59797510493
 30
0.0
 41
48.0
 42
48.0
 43
48.0
 50
90.0
  0
INSERT
  5
25A09
  8
寸法
  6
CONTINUOUS
  2
_ORIGIN
 10
20991.64705991318
 20
13617.59797510493
 30
0.0
 41
48.0
 42
48.0
 43
48.0
 50
270.0
  0
POINT
  5
25A0A
  8
DEFPOINTS
  6
CONTINUOUS
 62
     0
 10
20091.07783531657
 20
13557.59797510493
 30
0.0
  0
POINT
  5
25A0B
  8
DEFPOINTS
  6
CONTINUOUS
 62
     0
 10
20091.07783531657
 20
13617.59797510493
 30
0.0
  0
POINT
  5
25A0C
  8
DEFPOINTS
  6
CONTINUOUS
 62
     0
 10
20991.64705991318
 20
13617.59797510493
 30
0.0
  0
ENDBLK
  5
2573B
  8
0
  0
BLOCK
  8
0
  2
*D5
 70
     1
 10
0.0
 20
0.0
 30
0.0
  3
*D5
  1

  0
LINE
  5
25A97
  8
寸法
  6
CONTINUOUS
 10
15578.78991705602
 20
11907.59797510487
 30
0.0
 11
16258.7899170559
 21
11907.59797510487
 31
0.0
  0
LINE
  5
25A98
  8
寸法
  6
CONTINUOUS
 10
15538.7899170559
 20
13557.59797510493
 30
0.0
 11
16258.7899170559
 21
13557.59797510493
 31
0.0
  0
LINE
  5
25A99
  8
寸法
  6
CONTINUOUS
 10
16258.7899170559
 20
11955.59797510487
 30
0.0
 11
16258.7899170559
 21
13509.59797510493
 31
0.0
  0
INSERT
  5
25A9A
  8
寸法
  6
CONTINUOUS
  2
_ORIGIN
 10
16258.7899170559
 20
11907.59797510487
 30
0.0
 41
48.0
 42
48.0
 43
48.0
 50
270.0
  0
INSERT
  5
25A9B
  8
寸法
  6
CONTINUOUS
  2
_ORIGIN
 10
16258.7899170559
 20
13557.59797510493
 30
0.0
 41
48.0
 42
48.0
 43
48.0
 50
90.0
  0
TEXT
  5
25A9C
  8
寸法
  6
CONTINUOUS
 10
16164.50420277018
 20
12433.66940367633
 30
0.0
 40
180.0
  1
1,650
 50
90.0
 41
0.75
  7
1_100
  0
POINT
  5
25A9D
  8
DEFPOINTS
  6
CONTINUOUS
 62
     0
 10
15398.78991705602
 20
11907.59797510487
 30
0.0
  0
POINT
  5
25A9E
  8
DEFPOINTS
  6
CONTINUOUS
 62
     0
 10
15358.7899170559
 20
13557.59797510493
 30
0.0
  0
POINT
  5
25A9F
  8
DEFPOINTS
  6
CONTINUOUS
 62
     0
 10
16258.7899170559
 20
13557.59797510493
 30
0.0
  0
ENDBLK
  5
25747
  8
0
  0
BLOCK
  8
0
  2
*D6
 70
     1
 10
0.0
 20
0.0
 30
0.0
  3
*D6
  1

  0
LINE
  5
25A8E
  8
寸法
  6
CONTINUOUS
 10
15578.7899170559
 20
10257.59797510487
 30
0.0
 11
16258.7899170559
 21
10257.59797510487
 31
0.0
  0
LINE
  5
25A8F
  8
寸法
  6
CONTINUOUS
 10
15578.78991705602
 20
11907.59797510487
 30
0.0
 11
16258.7899170559
 21
11907.59797510487
 31
0.0
  0
LINE
  5
25A90
  8
寸法
  6
CONTINUOUS
 10
16258.7899170559
 20
10305.59797510487
 30
0.0
 11
16258.7899170559
 21
11859.59797510487
 31
0.0
  0
INSERT
  5
25A91
  8
寸法
  6
CONTINUOUS
  2
_ORIGIN
 10
16258.7899170559
 20
10257.59797510487
 30
0.0
 41
48.0
 42
48.0
 43
48.0
 50
270.0
  0
INSERT
  5
25A92
  8
寸法
  6
CONTINUOUS
  2
_ORIGIN
 10
16258.7899170559
 20
11907.59797510487
 30
0.0
 41
48.0
 42
48.0
 43
48.0
 50
90.0
  0
TEXT
  5
25A93
  8
寸法
  6
CONTINUOUS
 10
16164.50420277019
 20
10783.6694036763
 30
0.0
 40
180.0
  1
1,650
 50
90.0
 41
0.75
  7
1_100
  0
POINT
  5
25A94
  8
DEFPOINTS
  6
CONTINUOUS
 62
     0
 10
15398.7899170559
 20
10257.59797510487
 30
0.0
  0
POINT
  5
25A95
  8
DEFPOINTS
  6
CONTINUOUS
 62
     0
 10
15398.78991705602
 20
11907.59797510487
 30
0.0
  0
POINT
  5
25A96
  8
DEFPOINTS
  6
CONTINUOUS
 62
     0
 10
16258.7899170559
 20
11907.59797510487
 30
0.0
  0
ENDBLK
  5
25753
  8
0
  0
BLOCK
  8
0
  2
*D7
 70
     1
 10
0.0
 20
0.0
 30
0.0
  3
*D7
  1

  0
LINE
  5
259F7
  8
寸法
  6
CONTINUOUS
 10
15538.7899170559
 20
13557.59797510493
 30
0.0
 11
16258.7899170559
 21
13557.59797510493
 31
0.0
  0
LINE
  5
259F8
  8
寸法
  6
CONTINUOUS
 10
15538.7899170559
 20
13617.59797510493
 30
0.0
 11
16258.7899170559
 21
13617.59797510493
 31
0.0
  0
LINE
  5
259F9
  8
寸法
  6
CONTINUOUS
 10
16258.7899170559
 20
13509.59797510493
 30
0.0
 11
16258.7899170559
 21
13461.59797510493
 31
0.0
  0
LINE
  5
259FA
  8
寸法
  6
CONTINUOUS
 10
16258.7899170559
 20
13665.59797510493
 30
0.0
 11
16258.7899170559
 21
13713.59797510493
 31
0.0
  0
TEXT
  5
259FB
  8
寸法
  6
CONTINUOUS
 10
16210.05725292015
 20
13675.32457655252
 30
0.0
 40
180.0
  1
60
 50
90.0
 41
0.75
  7
1_100
  0
LINE
  5
259FC
  8
寸法
  6
CONTINUOUS
 10
16258.7899170559
 20
13557.59797510493
 30
0.0
 11
16258.7899170559
 21
13617.59797510493
 31
0.0
  0
INSERT
  5
259FD
  8
寸法
  6
CONTINUOUS
  2
_ORIGIN
 10
16258.7899170559
 20
13557.59797510493
 30
0.0
 41
48.0
 42
48.0
 43
48.0
 50
90.0
  0
INSERT
  5
259FE
  8
寸法
  6
CONTINUOUS
  2
_ORIGIN
 10
16258.7899170559
 20
13617.59797510493
 30
0.0
 41
48.0
 42
48.0
 43
48.0
 50
270.0
  0
POINT
  5
259FF
  8
DEFPOINTS
  6
CONTINUOUS
 62
     0
 10
15358.7899170559
 20
13557.59797510493
 30
0.0
  0
POINT
  5
25A00
  8
DEFPOINTS
  6
CONTINUOUS
 62
     0
 10
15358.7899170559
 20
13617.59797510493
 30
0.0
  0
POINT
  5
25A01
  8
DEFPOINTS
  6
CONTINUOUS
 62
     0
 10
16258.7899170559
 20
13617.59797510493
 30
0.0
  0
ENDBLK
  5
25761
  8
0
  0
BLOCK
  8
0
  2
*D8
 70
     1
 10
0.0
 20
0.0
 30
0.0
  3
*D8
  1

  0
LINE
  5
26D47
  8
寸法
  6
CONTINUOUS
 10
5240.639917056462
 20
13797.59797510493
 30
0.0
 11
5240.639917056462
 21
14037.59797510493
 31
0.0
  0
LINE
  5
26D48
  8
寸法
  6
CONTINUOUS
 10
5456.939917056624
 20
13797.59797510493
 30
0.0
 11
5456.939917056624
 21
14037.59797510493
 31
0.0
  0
LINE
  5
26D49
  8
寸法
  6
CONTINUOUS
 10
5288.639917056462
 20
14037.59797510493
 30
0.0
 11
5408.939917056624
 21
14037.59797510493
 31
0.0
  0
TEXT
  5
26D4A
  8
寸法
  6
CONTINUOUS
 10
4974.647059913686
 20
14127.59797510493
 30
0.0
 40
180.0
  1
φ216.3
 41
0.75
  7
1_100
  0
INSERT
  5
26D4B
  8
寸法
  6
CONTINUOUS
  2
_ORIGIN
 10
5240.639917056462
 20
14037.59797510493
 30
0.0
 41
48.0
 42
48.0
 43
48.0
 50
180.0
  0
INSERT
  5
26D4C
  8
寸法
  6
CONTINUOUS
  2
_ORIGIN
 10
5456.939917056624
 20
14037.59797510493
 30
0.0
 41
48.0
 42
48.0
 43
48.0
  0
POINT
  5
26D4D
  8
DEFPOINTS
  6
CONTINUOUS
 62
     0
 10
5240.639917056462
 20
13617.59797510493
 30
0.0
  0
POINT
  5
26D4E
  8
DEFPOINTS
  6
CONTINUOUS
 62
     0
 10
5456.939917056624
 20
13617.59797510493
 30
0.0
  0
POINT
  5
26D4F
  8
DEFPOINTS
  6
CONTINUOUS
 62
     0
 10
5456.939917056624
 20
14037.59797510493
 30
0.0
  0
ENDBLK
  5
2576F
  8
0
  0
BLOCK
  8
0
  2
*D9
 70
     1
 10
0.0
 20
0.0
 30
0.0
  3
*D9
  1

  0
LINE
  5
25A83
  8
寸法
  6
CONTINUOUS
 10
18841.64705991318
 20
6337.597975104407
 30
0.0
 11
18841.64705991318
 21
5677.597975104407
 31
0.0
  0
LINE
  5
25A84
  8
寸法
  6
CONTINUOUS
 10
19341.64705991318
 20
6337.597975104291
 30
0.0
 11
19341.64705991318
 21
5677.597975104407
 31
0.0
  0
LINE
  5
25A85
  8
寸法
  6
CONTINUOUS
 10
18793.64705991318
 20
5677.597975104407
 30
0.0
 11
18745.64705991318
 21
5677.597975104407
 31
0.0
  0
LINE
  5
25A86
  8
寸法
  6
CONTINUOUS
 10
19389.64705991318
 20
5677.597975104407
 30
0.0
 11
19437.64705991318
 21
5677.597975104407
 31
0.0
  0
LINE
  5
25A87
  8
寸法
  6
CONTINUOUS
 10
18841.64705991318
 20
5677.597975104407
 30
0.0
 11
19341.64705991318
 21
5677.597975104407
 31
0.0
  0
INSERT
  5
25A88
  8
寸法
  6
CONTINUOUS
  2
_ORIGIN
 10
18841.64705991318
 20
5677.597975104407
 30
0.0
 41
48.0
 42
48.0
 43
48.0
  0
INSERT
  5
25A89
  8
寸法
  6
CONTINUOUS
  2
_ORIGIN
 10
19341.64705991318
 20
5677.597975104407
 30
0.0
 41
48.0
 42
48.0
 43
48.0
 50
180.0
  0
TEXT
  5
25A8A
  8
寸法
  6
CONTINUOUS
 10
18818.43277419889
 20
5437.597975104407
 30
0.0
 40
180.0
  1
□500
 41
0.75
  7
1_100
  0
POINT
  5
25A8B
  8
DEFPOINTS
  6
CONTINUOUS
 62
     0
 10
18841.64705991318
 20
6517.597975104407
 30
0.0
  0
POINT
  5
25A8C
  8
DEFPOINTS
  6
CONTINUOUS
 62
     0
 10
19341.64705991318
 20
6517.597975104291
 30
0.0
  0
POINT
  5
25A8D
  8
DEFPOINTS
  6
CONTINUOUS
 62
     0
 10
19341.64705991318
 20
5677.597975104407
 30
0.0
  0
ENDBLK
  5
2577D
  8
0
  0
BLOCK
  8
0
  2
*D10
 70
     1
 10
0.0
 20
0.0
 30
0.0
  3
*D10
  1

  0
LINE
  5
25A7A
  8
寸法
  6
CONTINUOUS
 10
18866.64705991318
 20
6337.597975104407
 30
0.0
 11
18866.64705991318
 21
5997.597975104407
 31
0.0
  0
LINE
  5
25A7B
  8
寸法
  6
CONTINUOUS
 10
19316.64705991318
 20
6337.597975104407
 30
0.0
 11
19316.64705991318
 21
5997.597975104407
 31
0.0
  0
LINE
  5
25A7C
  8
寸法
  6
CONTINUOUS
 10
18914.64705991318
 20
5997.597975104407
 30
0.0
 11
19268.64705991318
 21
5997.597975104407
 31
0.0
  0
TEXT
  5
25A7D
  8
寸法
  6
CONTINUOUS
 10
18207.00589306718
 20
5984.795300047379
 30
0.0
 40
180.0
  1
φ450
 41
0.75
  7
1_100
  0
INSERT
  5
25A7E
  8
寸法
  6
CONTINUOUS
  2
_ORIGIN
 10
18866.64705991318
 20
5997.597975104407
 30
0.0
 41
48.0
 42
48.0
 43
48.0
 50
180.0
  0
INSERT
  5
25A7F
  8
寸法
  6
CONTINUOUS
  2
_ORIGIN
 10
19316.64705991318
 20
5997.597975104407
 30
0.0
 41
48.0
 42
48.0
 43
48.0
  0
POINT
  5
25A80
  8
DEFPOINTS
  6
CONTINUOUS
 62
     0
 10
18866.64705991318
 20
6517.597975104407
 30
0.0
  0
POINT
  5
25A81
  8
DEFPOINTS
  6
CONTINUOUS
 62
     0
 10
19316.64705991318
 20
6517.597975104407
 30
0.0
  0
POINT
  5
25A82
  8
DEFPOINTS
  6
CONTINUOUS
 62
     0
 10
19316.64705991318
 20
5997.597975104407
 30
0.0
  0
ENDBLK
  5
25789
  8
0
  0
BLOCK
  8
0
  2
*D11
 70
     1
 10
0.0
 20
0.0
 30
0.0
  3
*D11
  1

  0
LINE
  5
25A6F
  8
寸法
  6
CONTINUOUS
 10
20271.07783531657
 20
6517.597975104873
 30
0.0
 11
20991.64705991318
 21
6517.597975104873
 31
0.0
  0
LINE
  5
25A70
  8
寸法
  6
CONTINUOUS
 10
20271.07783531657
 20
6617.597975104873
 30
0.0
 11
20991.64705991318
 21
6617.597975104873
 31
0.0
  0
LINE
  5
25A71
  8
寸法
  6
CONTINUOUS
 10
20991.64705991318
 20
6469.597975104873
 30
0.0
 11
20991.64705991318
 21
6421.597975104873
 31
0.0
  0
LINE
  5
25A72
  8
寸法
  6
CONTINUOUS
 10
20991.64705991318
 20
6665.597975104873
 30
0.0
 11
20991.64705991318
 21
6713.597975104873
 31
0.0
  0
TEXT
  5
25A73
  8
寸法
  6
CONTINUOUS
 10
20916.68783981531
 20
6060.589544836956
 30
0.0
 40
180.0
  1
100
 50
90.0
 41
0.75
  7
1_100
  0
LINE
  5
25A74
  8
寸法
  6
CONTINUOUS
 10
20991.64705991318
 20
6517.597975104873
 30
0.0
 11
20991.64705991318
 21
6617.597975104873
 31
0.0
  0
INSERT
  5
25A75
  8
寸法
  6
CONTINUOUS
  2
_ORIGIN
 10
20991.64705991318
 20
6517.597975104873
 30
0.0
 41
48.0
 42
48.0
 43
48.0
 50
90.0
  0
INSERT
  5
25A76
  8
寸法
  6
CONTINUOUS
  2
_ORIGIN
 10
20991.64705991318
 20
6617.597975104873
 30
0.0
 41
48.0
 42
48.0
 43
48.0
 50
270.0
  0
POINT
  5
25A77
  8
DEFPOINTS
  6
CONTINUOUS
 62
     0
 10
20091.07783531657
 20
6517.597975104873
 30
0.0
  0
POINT
  5
25A78
  8
DEFPOINTS
  6
CONTINUOUS
 62
     0
 10
20091.07783531657
 20
6617.597975104873
 30
0.0
  0
POINT
  5
25A79
  8
DEFPOINTS
  6
CONTINUOUS
 62
     0
 10
20991.64705991318
 20
6617.597975104873
 30
0.0
  0
ENDBLK
  5
25797
  8
0
  0
BLOCK
  8
0
  2
*D12
 70
     1
 10
0.0
 20
0.0
 30
0.0
  3
*D12
  1

  0
LINE
  5
25A64
  8
寸法
  6
CONTINUOUS
 10
20271.07783531657
 20
8417.597975104873
 30
0.0
 11
20991.64705991318
 21
8417.59797510487
 31
0.0
  0
LINE
  5
25A65
  8
寸法
  6
CONTINUOUS
 10
20271.07783531657
 20
8617.597975104873
 30
0.0
 11
20991.64705991318
 21
8617.59797510487
 31
0.0
  0
LINE
  5
25A66
  8
寸法
  6
CONTINUOUS
 10
20991.64705991318
 20
8369.59797510487
 30
0.0
 11
20991.64705991318
 21
8321.59797510487
 31
0.0
  0
LINE
  5
25A67
  8
寸法
  6
CONTINUOUS
 10
20991.64705991318
 20
8665.59797510487
 30
0.0
 11
20991.64705991318
 21
8713.59797510487
 31
0.0
  0
TEXT
  5
25A68
  8
寸法
  6
CONTINUOUS
 10
21229.54081256004
 20
8197.167907632323
 30
0.0
 40
180.0
  1
200
 50
90.0
 41
0.75
  7
1_100
  0
LINE
  5
25A69
  8
寸法
  6
CONTINUOUS
 10
20991.64705991318
 20
8417.59797510487
 30
0.0
 11
20991.64705991318
 21
8617.59797510487
 31
0.0
  0
INSERT
  5
25A6A
  8
寸法
  6
CONTINUOUS
  2
_ORIGIN
 10
20991.64705991318
 20
8417.59797510487
 30
0.0
 41
48.0
 42
48.0
 43
48.0
 50
90.0
  0
INSERT
  5
25A6B
  8
寸法
  6
CONTINUOUS
  2
_ORIGIN
 10
20991.64705991318
 20
8617.59797510487
 30
0.0
 41
48.0
 42
48.0
 43
48.0
 50
270.0
  0
POINT
  5
25A6C
  8
DEFPOINTS
  6
CONTINUOUS
 62
     0
 10
20091.07783531657
 20
8417.597975104873
 30
0.0
  0
POINT
  5
25A6D
  8
DEFPOINTS
  6
CONTINUOUS
 62
     0
 10
20091.07783531657
 20
8617.597975104873
 30
0.0
  0
POINT
  5
25A6E
  8
DEFPOINTS
  6
CONTINUOUS
 62
     0
 10
20991.64705991318
 20
8617.59797510487
 30
0.0
  0
ENDBLK
  5
257A5
  8
0
  0
BLOCK
  8
0
  2
*D13
 70
     1
 10
0.0
 20
0.0
 30
0.0
  3
*D13
  1

  0
LINE
  5
25A5B
  8
寸法
  6
CONTINUOUS
 10
15538.7899170559
 20
8617.597975104873
 30
0.0
 11
16858.78991705579
 21
8617.597975104873
 31
0.0
  0
LINE
  5
25A5C
  8
寸法
  6
CONTINUOUS
 10
15538.7899170559
 20
6617.597975104931
 30
0.0
 11
16858.78991705579
 21
6617.597975104931
 31
0.0
  0
LINE
  5
25A5D
  8
寸法
  6
CONTINUOUS
 10
16858.78991705579
 20
8569.597975104873
 30
0.0
 11
16858.78991705579
 21
6665.597975104931
 31
0.0
  0
INSERT
  5
25A5E
  8
寸法
  6
CONTINUOUS
  2
_ORIGIN
 10
16858.78991705579
 20
8617.597975104873
 30
0.0
 41
48.0
 42
48.0
 43
48.0
 50
90.0
  0
INSERT
  5
25A5F
  8
寸法
  6
CONTINUOUS
  2
_ORIGIN
 10
16858.78991705579
 20
6617.597975104931
 30
0.0
 41
48.0
 42
48.0
 43
48.0
 50
270.0
  0
TEXT
  5
25A60
  8
寸法
  6
CONTINUOUS
 10
16764.50420277007
 20
7328.312260819192
 30
0.0
 40
180.0
  1
2,000
 50
90.0
 41
0.75
  7
1_100
  0
POINT
  5
25A61
  8
DEFPOINTS
  6
CONTINUOUS
 62
     0
 10
15358.7899170559
 20
8617.597975104873
 30
0.0
  0
POINT
  5
25A62
  8
DEFPOINTS
  6
CONTINUOUS
 62
     0
 10
15358.7899170559
 20
6617.597975104931
 30
0.0
  0
POINT
  5
25A63
  8
DEFPOINTS
  6
CONTINUOUS
 62
     0
 10
16858.78991705579
 20
6617.597975104931
 30
0.0
  0
ENDBLK
  5
257B1
  8
0
  0
BLOCK
  8
0
  2
*D14
 70
     1
 10
0.0
 20
0.0
 30
0.0
  3
*D14
  1

  0
LINE
  5
25A52
  8
寸法
  6
CONTINUOUS
 10
15538.7899170559
 20
6617.597975104931
 30
0.0
 11
16258.7899170559
 21
6617.597975104931
 31
0.0
  0
LINE
  5
25A53
  8
寸法
  6
CONTINUOUS
 10
15538.7899170559
 20
8417.59797510493
 30
0.0
 11
16258.7899170559
 21
8417.59797510493
 31
0.0
  0
LINE
  5
25A54
  8
寸法
  6
CONTINUOUS
 10
16258.7899170559
 20
6665.597975104931
 30
0.0
 11
16258.7899170559
 21
8369.59797510493
 31
0.0
  0
INSERT
  5
25A55
  8
寸法
  6
CONTINUOUS
  2
_ORIGIN
 10
16258.7899170559
 20
6617.597975104931
 30
0.0
 41
48.0
 42
48.0
 43
48.0
 50
270.0
  0
INSERT
  5
25A56
  8
寸法
  6
CONTINUOUS
  2
_ORIGIN
 10
16258.7899170559
 20
8417.59797510493
 30
0.0
 41
48.0
 42
48.0
 43
48.0
 50
90.0
  0
TEXT
  5
25A57
  8
寸法
  6
CONTINUOUS
 10
16164.50420277019
 20
7218.669403676362
 30
0.0
 40
180.0
  1
1,800
 50
90.0
 41
0.75
  7
1_100
  0
POINT
  5
25A58
  8
DEFPOINTS
  6
CONTINUOUS
 62
     0
 10
15358.7899170559
 20
6617.597975104931
 30
0.0
  0
POINT
  5
25A59
  8
DEFPOINTS
  6
CONTINUOUS
 62
     0
 10
15358.7899170559
 20
8417.59797510493
 30
0.0
  0
POINT
  5
25A5A
  8
DEFPOINTS
  6
CONTINUOUS
 62
     0
 10
16258.7899170559
 20
8417.59797510493
 30
0.0
  0
ENDBLK
  5
257BD
  8
0
  0
BLOCK
  8
0
  2
*D15
 70
     1
 10
0.0
 20
0.0
 30
0.0
  3
*D15
  1

  0
LINE
  5
25A47
  8
寸法
  6
CONTINUOUS
 10
15538.7899170559
 20
6517.597975104931
 30
0.0
 11
16258.7899170559
 21
6517.597975104931
 31
0.0
  0
LINE
  5
25A48
  8
寸法
  6
CONTINUOUS
 10
15538.7899170559
 20
6617.597975104931
 30
0.0
 11
16258.7899170559
 21
6617.597975104931
 31
0.0
  0
LINE
  5
25A49
  8
寸法
  6
CONTINUOUS
 10
16258.7899170559
 20
6469.597975104931
 30
0.0
 11
16258.7899170559
 21
6421.597975104931
 31
0.0
  0
LINE
  5
25A4A
  8
寸法
  6
CONTINUOUS
 10
16258.7899170559
 20
6665.597975104931
 30
0.0
 11
16258.7899170559
 21
6713.597975104931
 31
0.0
  0
TEXT
  5
25A4B
  8
寸法
  6
CONTINUOUS
 10
16214.47861244359
 20
6060.589544836956
 30
0.0
 40
180.0
  1
100
 50
90.0
 41
0.75
  7
1_100
  0
LINE
  5
25A4C
  8
寸法
  6
CONTINUOUS
 10
16258.7899170559
 20
6517.597975104931
 30
0.0
 11
16258.7899170559
 21
6617.597975104931
 31
0.0
  0
INSERT
  5
25A4D
  8
寸法
  6
CONTINUOUS
  2
_ORIGIN
 10
16258.7899170559
 20
6517.597975104931
 30
0.0
 41
48.0
 42
48.0
 43
48.0
 50
90.0
  0
INSERT
  5
25A4E
  8
寸法
  6
CONTINUOUS
  2
_ORIGIN
 10
16258.7899170559
 20
6617.597975104931
 30
0.0
 41
48.0
 42
48.0
 43
48.0
 50
270.0
  0
POINT
  5
25A4F
  8
DEFPOINTS
  6
CONTINUOUS
 62
     0
 10
15358.7899170559
 20
6517.597975104931
 30
0.0
  0
POINT
  5
25A50
  8
DEFPOINTS
  6
CONTINUOUS
 62
     0
 10
15358.7899170559
 20
6617.597975104931
 30
0.0
  0
POINT
  5
25A51
  8
DEFPOINTS
  6
CONTINUOUS
 62
     0
 10
16258.7899170559
 20
6617.597975104931
 30
0.0
  0
ENDBLK
  5
257CB
  8
0
  0
BLOCK
  8
0
  2
*D16
 70
     1
 10
0.0
 20
0.0
 30
0.0
  3
*D16
  1

  0
LINE
  5
25A3C
  8
寸法
  6
CONTINUOUS
 10
15538.7899170559
 20
8417.59797510493
 30
0.0
 11
16258.7899170559
 21
8417.59797510493
 31
0.0
  0
LINE
  5
25A3D
  8
寸法
  6
CONTINUOUS
 10
15538.7899170559
 20
8617.597975104873
 30
0.0
 11
16258.7899170559
 21
8617.597975104873
 31
0.0
  0
LINE
  5
25A3E
  8
寸法
  6
CONTINUOUS
 10
16258.7899170559
 20
8369.59797510493
 30
0.0
 11
16258.7899170559
 21
8321.59797510493
 31
0.0
  0
LINE
  5
25A3F
  8
寸法
  6
CONTINUOUS
 10
16258.7899170559
 20
8665.597975104873
 30
0.0
 11
16258.7899170559
 21
8713.597975104873
 31
0.0
  0
TEXT
  5
25A40
  8
寸法
  6
CONTINUOUS
 10
16501.79403284859
 20
8207.196641330798
 30
0.0
 40
180.0
  1
200
 50
90.0
 41
0.75
  7
1_100
  0
LINE
  5
25A41
  8
寸法
  6
CONTINUOUS
 10
16258.7899170559
 20
8417.59797510493
 30
0.0
 11
16258.7899170559
 21
8617.597975104873
 31
0.0
  0
INSERT
  5
25A42
  8
寸法
  6
CONTINUOUS
  2
_ORIGIN
 10
16258.7899170559
 20
8417.59797510493
 30
0.0
 41
48.0
 42
48.0
 43
48.0
 50
90.0
  0
INSERT
  5
25A43
  8
寸法
  6
CONTINUOUS
  2
_ORIGIN
 10
16258.7899170559
 20
8617.597975104873
 30
0.0
 41
48.0
 42
48.0
 43
48.0
 50
270.0
  0
POINT
  5
25A44
  8
DEFPOINTS
  6
CONTINUOUS
 62
     0
 10
15358.7899170559
 20
8417.59797510493
 30
0.0
  0
POINT
  5
25A45
  8
DEFPOINTS
  6
CONTINUOUS
 62
     0
 10
15358.7899170559
 20
8617.597975104873
 30
0.0
  0
POINT
  5
25A46
  8
DEFPOINTS
  6
CONTINUOUS
 62
     0
 10
16258.7899170559
 20
8617.597975104873
 30
0.0
  0
ENDBLK
  5
257D9
  8
0
  0
BLOCK
  8
0
  2
*D17
 70
     1
 10
0.0
 20
0.0
 30
0.0
  3
*D17
  1

  0
LINE
  5
259EE
  8
寸法
  6
CONTINUOUS
 10
5123.789917056602
 20
6337.597975104931
 30
0.0
 11
5123.789917056602
 21
5997.597975104931
 31
0.0
  0
LINE
  5
259EF
  8
寸法
  6
CONTINUOUS
 10
5573.789917056602
 20
6337.597975104931
 30
0.0
 11
5573.789917056602
 21
5997.597975104931
 31
0.0
  0
LINE
  5
259F0
  8
寸法
  6
CONTINUOUS
 10
5171.789917056602
 20
5997.597975104931
 30
0.0
 11
5525.789917056602
 21
5997.597975104931
 31
0.0
  0
TEXT
  5
259F1
  8
寸法
  6
CONTINUOUS
 10
4413.980820713286
 20
5986.435297842894
 30
0.0
 40
180.0
  1
φ450
 41
0.75
  7
1_100
  0
INSERT
  5
259F2
  8
寸法
  6
CONTINUOUS
  2
_ORIGIN
 10
5123.789917056602
 20
5997.597975104931
 30
0.0
 41
48.0
 42
48.0
 43
48.0
 50
180.0
  0
INSERT
  5
259F3
  8
寸法
  6
CONTINUOUS
  2
_ORIGIN
 10
5573.789917056602
 20
5997.597975104931
 30
0.0
 41
48.0
 42
48.0
 43
48.0
  0
POINT
  5
259F4
  8
DEFPOINTS
  6
CONTINUOUS
 62
     0
 10
5123.789917056602
 20
6517.597975104931
 30
0.0
  0
POINT
  5
259F5
  8
DEFPOINTS
  6
CONTINUOUS
 62
     0
 10
5573.789917056602
 20
6517.597975104931
 30
0.0
  0
POINT
  5
259F6
  8
DEFPOINTS
  6
CONTINUOUS
 62
     0
 10
5573.789917056602
 20
5997.597975104931
 30
0.0
  0
ENDBLK
  5
257E5
  8
0
  0
BLOCK
  8
0
  2
*D18
 70
     1
 10
0.0
 20
0.0
 30
0.0
  3
*D18
  1

  0
LINE
  5
259E3
  8
寸法
  6
CONTINUOUS
 10
5098.789917056602
 20
6337.597975104931
 30
0.0
 11
5098.789917056602
 21
5677.597975104931
 31
0.0
  0
LINE
  5
259E4
  8
寸法
  6
CONTINUOUS
 10
5598.789917056602
 20
6337.597975104814
 30
0.0
 11
5598.789917056602
 21
5677.597975104931
 31
0.0
  0
LINE
  5
259E5
  8
寸法
  6
CONTINUOUS
 10
5050.789917056602
 20
5677.597975104931
 30
0.0
 11
5002.789917056602
 21
5677.597975104931
 31
0.0
  0
LINE
  5
259E6
  8
寸法
  6
CONTINUOUS
 10
5646.789917056602
 20
5677.597975104931
 30
0.0
 11
5694.789917056602
 21
5677.597975104931
 31
0.0
  0
LINE
  5
259E7
  8
寸法
  6
CONTINUOUS
 10
5098.789917056602
 20
5677.597975104931
 30
0.0
 11
5598.789917056602
 21
5677.597975104931
 31
0.0
  0
INSERT
  5
259E8
  8
寸法
  6
CONTINUOUS
  2
_ORIGIN
 10
5098.789917056602
 20
5677.597975104931
 30
0.0
 41
48.0
 42
48.0
 43
48.0
  0
INSERT
  5
259E9
  8
寸法
  6
CONTINUOUS
  2
_ORIGIN
 10
5598.789917056602
 20
5677.597975104931
 30
0.0
 41
48.0
 42
48.0
 43
48.0
 50
180.0
  0
TEXT
  5
259EA
  8
寸法
  6
CONTINUOUS
 10
5075.575631342316
 20
5437.597975104931
 30
0.0
 40
180.0
  1
□500
 41
0.75
  7
1_100
  0
POINT
  5
259EB
  8
DEFPOINTS
  6
CONTINUOUS
 62
     0
 10
5098.789917056602
 20
6517.597975104931
 30
0.0
  0
POINT
  5
259EC
  8
DEFPOINTS
  6
CONTINUOUS
 62
     0
 10
5598.789917056602
 20
6517.597975104814
 30
0.0
  0
POINT
  5
259ED
  8
DEFPOINTS
  6
CONTINUOUS
 62
     0
 10
5598.789917056602
 20
5677.597975104931
 30
0.0
  0
ENDBLK
  5
257F3
  8
0
  0
BLOCK
  8
0
  2
*D19
 70
     1
 10
0.0
 20
0.0
 30
0.0
  3
*D19
  1

  0
LINE
  5
26E61
  8
寸法
  6
CONTINUOUS
 10
5348.789917056602
 20
5270.097975104931
 30
0.0
 11
5348.789917056602
 21
4880.045487684547
 31
0.0
  0
LINE
  5
26E62
  8
寸法
  6
CONTINUOUS
 10
11348.7899170566
 20
6195.13050331152
 30
0.0
 11
11348.7899170566
 21
4880.045487684547
 31
0.0
  0
LINE
  5
26E63
  8
寸法
  6
CONTINUOUS
 10
5396.789917056602
 20
4880.045487684547
 30
0.0
 11
11300.7899170566
 21
4880.045487684547
 31
0.0
  0
INSERT
  5
26E64
  8
寸法
  6
CONTINUOUS
  2
_ORIGIN
 10
5348.789917056602
 20
4880.045487684547
 30
0.0
 41
48.0
 42
48.0
 43
48.0
 50
180.0
  0
INSERT
  5
26E65
  8
寸法
  6
CONTINUOUS
  2
_ORIGIN
 10
11348.7899170566
 20
4880.045487684547
 30
0.0
 41
48.0
 42
48.0
 43
48.0
  0
TEXT
  5
26E66
  8
寸法
  6
CONTINUOUS
 10
8056.289917056602
 20
4974.331201970261
 30
0.0
 40
180.0
  1
6,000
 41
0.75
  7
1_100
  0
POINT
  5
26E67
  8
DEFPOINTS
  6
CONTINUOUS
 62
     0
 10
5348.789917056602
 20
5450.097975104931
 30
0.0
  0
POINT
  5
26E68
  8
DEFPOINTS
  6
CONTINUOUS
 62
     0
 10
11348.7899170566
 20
6375.13050331152
 30
0.0
  0
POINT
  5
26E69
  8
DEFPOINTS
  6
CONTINUOUS
 62
     0
 10
11348.7899170566
 20
4880.045487684547
 30
0.0
  0
ENDBLK
  5
257FF
  8
0
  0
BLOCK
  8
0
  2
*D20
 70
     1
 10
0.0
 20
0.0
 30
0.0
  3
*D20
  1

  0
LINE
  5
25A33
  8
寸法
  6
CONTINUOUS
 10
15538.7899170559
 20
13617.59797510493
 30
0.0
 11
16858.78991705579
 21
13617.59797510493
 31
0.0
  0
LINE
  5
25A34
  8
寸法
  6
CONTINUOUS
 10
15538.7899170559
 20
8617.597975104873
 30
0.0
 11
16858.78991705579
 21
8617.597975104873
 31
0.0
  0
LINE
  5
25A35
  8
寸法
  6
CONTINUOUS
 10
16858.78991705579
 20
13569.59797510493
 30
0.0
 11
16858.78991705579
 21
8665.597975104873
 31
0.0
  0
INSERT
  5
25A36
  8
寸法
  6
CONTINUOUS
  2
_ORIGIN
 10
16858.78991705579
 20
13617.59797510493
 30
0.0
 41
48.0
 42
48.0
 43
48.0
 50
90.0
  0
INSERT
  5
25A37
  8
寸法
  6
CONTINUOUS
  2
_ORIGIN
 10
16858.78991705579
 20
8617.597975104873
 30
0.0
 41
48.0
 42
48.0
 43
48.0
 50
270.0
  0
TEXT
  5
25A38
  8
寸法
  6
CONTINUOUS
 10
16764.50420277007
 20
10828.31226081919
 30
0.0
 40
180.0
  1
5,000
 50
90.0
 41
0.75
  7
1_100
  0
POINT
  5
25A39
  8
DEFPOINTS
  6
CONTINUOUS
 62
     0
 10
15358.7899170559
 20
13617.59797510493
 30
0.0
  0
POINT
  5
25A3A
  8
DEFPOINTS
  6
CONTINUOUS
 62
     0
 10
15358.7899170559
 20
8617.597975104873
 30
0.0
  0
POINT
  5
25A3B
  8
DEFPOINTS
  6
CONTINUOUS
 62
     0
 10
16858.78991705579
 20
8617.597975104873
 30
0.0
  0
ENDBLK
  5
2580B
  8
0
  0
BLOCK
  8
0
  2
*D21
 70
     1
 10
0.0
 20
0.0
 30
0.0
  3
*D21
  1

  0
LINE
  5
25A2A
  8
寸法
  6
CONTINUOUS
 10
15538.7899170559
 20
8617.597975104873
 30
0.0
 11
16258.7899170559
 21
8617.597975104873
 31
0.0
  0
LINE
  5
25A2B
  8
寸法
  6
CONTINUOUS
 10
15578.7899170559
 20
10257.59797510487
 30
0.0
 11
16258.7899170559
 21
10257.59797510487
 31
0.0
  0
LINE
  5
25A2C
  8
寸法
  6
CONTINUOUS
 10
16258.7899170559
 20
8665.597975104873
 30
0.0
 11
16258.7899170559
 21
10209.59797510487
 31
0.0
  0
INSERT
  5
25A2D
  8
寸法
  6
CONTINUOUS
  2
_ORIGIN
 10
16258.7899170559
 20
8617.597975104873
 30
0.0
 41
48.0
 42
48.0
 43
48.0
 50
270.0
  0
INSERT
  5
25A2E
  8
寸法
  6
CONTINUOUS
  2
_ORIGIN
 10
16258.7899170559
 20
10257.59797510487
 30
0.0
 41
48.0
 42
48.0
 43
48.0
 50
90.0
  0
TEXT
  5
25A2F
  8
寸法
  6
CONTINUOUS
 10
16164.50420277019
 20
9138.669403676302
 30
0.0
 40
180.0
  1
1,640
 50
90.0
 41
0.75
  7
1_100
  0
POINT
  5
25A30
  8
DEFPOINTS
  6
CONTINUOUS
 62
     0
 10
15358.7899170559
 20
8617.597975104873
 30
0.0
  0
POINT
  5
25A31
  8
DEFPOINTS
  6
CONTINUOUS
 62
     0
 10
15398.7899170559
 20
10257.59797510487
 30
0.0
  0
POINT
  5
25A32
  8
DEFPOINTS
  6
CONTINUOUS
 62
     0
 10
16258.7899170559
 20
10257.59797510487
 30
0.0
  0
ENDBLK
  5
25817
  8
0
  0
BLOCK
  8
0
  2
*D22
 70
     1
 10
0.0
 20
0.0
 30
0.0
  3
*D22
  1

  0
LINE
  5
25A21
  8
寸法
  6
CONTINUOUS
 10
20271.07783531657
 20
13617.59797510493
 30
0.0
 11
21591.64705991318
 21
13617.59797510493
 31
0.0
  0
LINE
  5
25A22
  8
寸法
  6
CONTINUOUS
 10
20271.07783531657
 20
8617.597975104873
 30
0.0
 11
21591.64705991318
 21
8617.59797510487
 31
0.0
  0
LINE
  5
25A23
  8
寸法
  6
CONTINUOUS
 10
21591.64705991318
 20
13569.59797510493
 30
0.0
 11
21591.64705991318
 21
8665.59797510487
 31
0.0
  0
INSERT
  5
25A24
  8
寸法
  6
CONTINUOUS
  2
_ORIGIN
 10
21591.64705991318
 20
13617.59797510493
 30
0.0
 41
48.0
 42
48.0
 43
48.0
 50
90.0
  0
INSERT
  5
25A25
  8
寸法
  6
CONTINUOUS
  2
_ORIGIN
 10
21591.64705991318
 20
8617.59797510487
 30
0.0
 41
48.0
 42
48.0
 43
48.0
 50
270.0
  0
TEXT
  5
25A26
  8
寸法
  6
CONTINUOUS
 10
21497.36134562746
 20
10828.31226081919
 30
0.0
 40
180.0
  1
5,000
 50
90.0
 41
0.75
  7
1_100
  0
POINT
  5
25A27
  8
DEFPOINTS
  6
CONTINUOUS
 62
     0
 10
20091.07783531657
 20
13617.59797510493
 30
0.0
  0
POINT
  5
25A28
  8
DEFPOINTS
  6
CONTINUOUS
 62
     0
 10
20091.07783531657
 20
8617.597975104873
 30
0.0
  0
POINT
  5
25A29
  8
DEFPOINTS
  6
CONTINUOUS
 62
     0
 10
21591.64705991318
 20
8617.59797510487
 30
0.0
  0
ENDBLK
  5
25823
  8
0
  0
BLOCK
  8
0
  2
*D23
 70
     1
 10
0.0
 20
0.0
 30
0.0
  3
*D23
  1

  0
LINE
  5
25A18
  8
寸法
  6
CONTINUOUS
 10
20271.07783531657
 20
8617.597975104873
 30
0.0
 11
20991.64705991318
 21
8617.59797510487
 31
0.0
  0
LINE
  5
25A19
  8
寸法
  6
CONTINUOUS
 10
20271.07783531657
 20
10257.59797510487
 30
0.0
 11
20991.64705991318
 21
10257.59797510487
 31
0.0
  0
LINE
  5
25A1A
  8
寸法
  6
CONTINUOUS
 10
20991.64705991318
 20
8665.59797510487
 30
0.0
 11
20991.64705991318
 21
10209.59797510487
 31
0.0
  0
INSERT
  5
25A1B
  8
寸法
  6
CONTINUOUS
  2
_ORIGIN
 10
20991.64705991318
 20
8617.59797510487
 30
0.0
 41
48.0
 42
48.0
 43
48.0
 50
270.0
  0
INSERT
  5
25A1C
  8
寸法
  6
CONTINUOUS
  2
_ORIGIN
 10
20991.64705991318
 20
10257.59797510487
 30
0.0
 41
48.0
 42
48.0
 43
48.0
 50
90.0
  0
TEXT
  5
25A1D
  8
寸法
  6
CONTINUOUS
 10
20897.36134562746
 20
9138.669403676306
 30
0.0
 40
180.0
  1
1,640
 50
90.0
 41
0.75
  7
1_100
  0
POINT
  5
25A1E
  8
DEFPOINTS
  6
CONTINUOUS
 62
     0
 10
20091.07783531657
 20
8617.597975104873
 30
0.0
  0
POINT
  5
25A1F
  8
DEFPOINTS
  6
CONTINUOUS
 62
     0
 10
20091.07783531657
 20
10257.59797510487
 30
0.0
  0
POINT
  5
25A20
  8
DEFPOINTS
  6
CONTINUOUS
 62
     0
 10
20991.64705991318
 20
10257.59797510487
 30
0.0
  0
ENDBLK
  5
2582F
  8
0
  0
BLOCK
  8
画層2-1
  2
*X24
 70
     1
 10
0.0
 20
0.0
 30
0.0
  3
*X24
  1
Acad:XRef
  0
LINE
  5
277D7
  8
ﾈｯﾄ
  6
CONTINUOUS
 62
   230
 10
5544.139917056812
 20
13560.0
 30
0.0
 11
6216.579441929465
 21
13560.0
 31
0.0
  0
LINE
  5
277D8
  8
ﾈｯﾄ
  6
CONTINUOUS
 62
   230
 10
5544.139917056812
 20
13515.0
 30
0.0
 11
6224.035682564532
 21
13515.0
 31
0.0
  0
LINE
  5
277D9
  8
ﾈｯﾄ
  6
CONTINUOUS
 62
   230
 10
5444.139917056695
 20
13470.0
 30
0.0
 11
5544.139917056811
 21
13470.0
 31
0.0
  0
LINE
  5
277DA
  8
ﾈｯﾄ
  6
CONTINUOUS
 62
   230
 10
5544.139917056811
 20
13470.0
 30
0.0
 11
6231.491923199599
 21
13470.0
 31
0.0
  0
LINE
  5
277DB
  8
ﾈｯﾄ
  6
CONTINUOUS
 62
   230
 10
5444.139917056695
 20
13425.0
 30
0.0
 11
6238.948163834668
 21
13425.0
 31
0.0
  0
LINE
  5
277DC
  8
ﾈｯﾄ
  6
CONTINUOUS
 62
   230
 10
5444.139917056695
 20
13380.0
 30
0.0
 11
6246.404404469736
 21
13380.0
 31
0.0
  0
LINE
  5
277DD
  8
ﾈｯﾄ
  6
CONTINUOUS
 62
   230
 10
5444.139917056695
 20
13335.0
 30
0.0
 11
6253.860645104804
 21
13335.0
 31
0.0
  0
LINE
  5
277DE
  8
ﾈｯﾄ
  6
CONTINUOUS
 62
   230
 10
5444.139917056695
 20
13290.0
 30
0.0
 11
6261.316885739871
 21
13290.0
 31
0.0
  0
LINE
  5
277DF
  8
ﾈｯﾄ
  6
CONTINUOUS
 62
   230
 10
5444.139917056695
 20
13245.0
 30
0.0
 11
6268.773126374939
 21
13245.0
 31
0.0
  0
LINE
  5
277E0
  8
ﾈｯﾄ
  6
CONTINUOUS
 62
   230
 10
5444.139917056695
 20
13200.0
 30
0.0
 11
6276.229367010006
 21
13200.0
 31
0.0
  0
LINE
  5
277E1
  8
ﾈｯﾄ
  6
CONTINUOUS
 62
   230
 10
5444.139917056695
 20
13155.0
 30
0.0
 11
6283.685607645074
 21
13155.0
 31
0.0
  0
LINE
  5
277E2
  8
ﾈｯﾄ
  6
CONTINUOUS
 62
   230
 10
5444.139917056695
 20
13110.0
 30
0.0
 11
6291.141848280142
 21
13110.0
 31
0.0
  0
LINE
  5
277E3
  8
ﾈｯﾄ
  6
CONTINUOUS
 62
   230
 10
5444.139917056695
 20
13065.0
 30
0.0
 11
6298.59808891521
 21
13065.0
 31
0.0
  0
LINE
  5
277E4
  8
ﾈｯﾄ
  6
CONTINUOUS
 62
   230
 10
5444.139917056695
 20
13020.0
 30
0.0
 11
6306.054329550278
 21
13020.0
 31
0.0
  0
LINE
  5
277E5
  8
ﾈｯﾄ
  6
CONTINUOUS
 62
   230
 10
5444.139917056695
 20
12975.0
 30
0.0
 11
6313.510570185345
 21
12975.0
 31
0.0
  0
LINE
  5
277E6
  8
ﾈｯﾄ
  6
CONTINUOUS
 62
   230
 10
5444.139917056695
 20
12930.0
 30
0.0
 11
6320.966810820413
 21
12930.0
 31
0.0
  0
LINE
  5
277E7
  8
ﾈｯﾄ
  6
CONTINUOUS
 62
   230
 10
5444.139917056695
 20
12885.0
 30
0.0
 11
6328.423051455481
 21
12885.0
 31
0.0
  0
LINE
  5
277E8
  8
ﾈｯﾄ
  6
CONTINUOUS
 62
   230
 10
5444.139917056695
 20
12840.0
 30
0.0
 11
6335.879292090549
 21
12840.0
 31
0.0
  0
LINE
  5
277E9
  8
ﾈｯﾄ
  6
CONTINUOUS
 62
   230
 10
5444.139917056695
 20
12795.0
 30
0.0
 11
6343.335532725616
 21
12795.0
 31
0.0
  0
LINE
  5
277EA
  8
ﾈｯﾄ
  6
CONTINUOUS
 62
   230
 10
5444.139917056695
 20
12750.0
 30
0.0
 11
6350.791773360684
 21
12750.0
 31
0.0
  0
LINE
  5
277EB
  8
ﾈｯﾄ
  6
CONTINUOUS
 62
   230
 10
5444.139917056696
 20
12705.0
 30
0.0
 11
6358.248013995752
 21
12705.0
 31
0.0
  0
LINE
  5
277EC
  8
ﾈｯﾄ
  6
CONTINUOUS
 62
   230
 10
5444.139917056696
 20
12660.0
 30
0.0
 11
6365.704254630819
 21
12660.0
 31
0.0
  0
LINE
  5
277ED
  8
ﾈｯﾄ
  6
CONTINUOUS
 62
   230
 10
5444.139917056696
 20
12615.0
 30
0.0
 11
6373.160495265887
 21
12615.0
 31
0.0
  0
LINE
  5
277EE
  8
ﾈｯﾄ
  6
CONTINUOUS
 62
   230
 10
5444.139917056696
 20
12570.0
 30
0.0
 11
6380.616735900955
 21
12570.0
 31
0.0
  0
LINE
  5
277EF
  8
ﾈｯﾄ
  6
CONTINUOUS
 62
   230
 10
5444.139917056696
 20
12525.0
 30
0.0
 11
6388.072976536023
 21
12525.0
 31
0.0
  0
LINE
  5
277F0
  8
ﾈｯﾄ
  6
CONTINUOUS
 62
   230
 10
5444.139917056696
 20
12480.0
 30
0.0
 11
6395.529217171091
 21
12480.0
 31
0.0
  0
LINE
  5
277F1
  8
ﾈｯﾄ
  6
CONTINUOUS
 62
   230
 10
5444.139917056696
 20
12435.0
 30
0.0
 11
6402.985457806159
 21
12435.0
 31
0.0
  0
LINE
  5
277F2
  8
ﾈｯﾄ
  6
CONTINUOUS
 62
   230
 10
5444.139917056696
 20
12390.0
 30
0.0
 11
6410.441698441226
 21
12390.0
 31
0.0
  0
LINE
  5
277F3
  8
ﾈｯﾄ
  6
CONTINUOUS
 62
   230
 10
5444.139917056696
 20
12345.0
 30
0.0
 11
6417.897939076294
 21
12345.0
 31
0.0
  0
LINE
  5
277F4
  8
ﾈｯﾄ
  6
CONTINUOUS
 62
   230
 10
5444.139917056696
 20
12300.0
 30
0.0
 11
6425.354179711361
 21
12300.0
 31
0.0
  0
LINE
  5
277F5
  8
ﾈｯﾄ
  6
CONTINUOUS
 62
   230
 10
5444.139917056696
 20
12255.0
 30
0.0
 11
6432.810420346429
 21
12255.0
 31
0.0
  0
LINE
  5
277F6
  8
ﾈｯﾄ
  6
CONTINUOUS
 62
   230
 10
5444.139917056696
 20
12210.0
 30
0.0
 11
6440.266660981497
 21
12210.0
 31
0.0
  0
LINE
  5
277F7
  8
ﾈｯﾄ
  6
CONTINUOUS
 62
   230
 10
5444.139917056696
 20
12165.0
 30
0.0
 11
6447.722901616565
 21
12165.0
 31
0.0
  0
LINE
  5
277F8
  8
ﾈｯﾄ
  6
CONTINUOUS
 62
   230
 10
5444.139917056696
 20
12120.0
 30
0.0
 11
6455.179142251633
 21
12120.0
 31
0.0
  0
LINE
  5
277F9
  8
ﾈｯﾄ
  6
CONTINUOUS
 62
   230
 10
5444.139917056696
 20
12075.0
 30
0.0
 11
6462.6353828867
 21
12075.0
 31
0.0
  0
LINE
  5
277FA
  8
ﾈｯﾄ
  6
CONTINUOUS
 62
   230
 10
5444.139917056696
 20
12030.0
 30
0.0
 11
6470.091623521768
 21
12030.0
 31
0.0
  0
LINE
  5
277FB
  8
ﾈｯﾄ
  6
CONTINUOUS
 62
   230
 10
5444.139917056696
 20
11985.0
 30
0.0
 11
6477.547864156835
 21
11985.0
 31
0.0
  0
LINE
  5
277FC
  8
ﾈｯﾄ
  6
CONTINUOUS
 62
   230
 10
5444.139917056696
 20
11940.0
 30
0.0
 11
6485.004104791904
 21
11940.0
 31
0.0
  0
LINE
  5
277FD
  8
ﾈｯﾄ
  6
CONTINUOUS
 62
   230
 10
5444.139917056696
 20
11850.0
 30
0.0
 11
6499.916586062038
 21
11850.0
 31
0.0
  0
LINE
  5
277FE
  8
ﾈｯﾄ
  6
CONTINUOUS
 62
   230
 10
5444.139917056696
 20
11805.0
 30
0.0
 11
6507.372826697106
 21
11805.0
 31
0.0
  0
LINE
  5
277FF
  8
ﾈｯﾄ
  6
CONTINUOUS
 62
   230
 10
5444.139917056696
 20
11760.0
 30
0.0
 11
6514.829067332174
 21
11760.0
 31
0.0
  0
LINE
  5
27800
  8
ﾈｯﾄ
  6
CONTINUOUS
 62
   230
 10
5444.139917056696
 20
11715.0
 30
0.0
 11
6522.285307967241
 21
11715.0
 31
0.0
  0
LINE
  5
27801
  8
ﾈｯﾄ
  6
CONTINUOUS
 62
   230
 10
5444.139917056696
 20
11670.0
 30
0.0
 11
6529.741548602309
 21
11670.0
 31
0.0
  0
LINE
  5
27802
  8
ﾈｯﾄ
  6
CONTINUOUS
 62
   230
 10
5444.139917056696
 20
11625.0
 30
0.0
 11
6537.197789237376
 21
11625.0
 31
0.0
  0
LINE
  5
27803
  8
ﾈｯﾄ
  6
CONTINUOUS
 62
   230
 10
5444.139917056696
 20
11580.0
 30
0.0
 11
6544.654029872445
 21
11580.0
 31
0.0
  0
LINE
  5
27804
  8
ﾈｯﾄ
  6
CONTINUOUS
 62
   230
 10
5444.139917056696
 20
11535.0
 30
0.0
 11
6552.110270507512
 21
11535.0
 31
0.0
  0
LINE
  5
27805
  8
ﾈｯﾄ
  6
CONTINUOUS
 62
   230
 10
5444.139917056696
 20
11490.0
 30
0.0
 11
6559.56651114258
 21
11490.0
 31
0.0
  0
LINE
  5
27806
  8
ﾈｯﾄ
  6
CONTINUOUS
 62
   230
 10
5444.139917056696
 20
11445.0
 30
0.0
 11
6567.022751777647
 21
11445.0
 31
0.0
  0
LINE
  5
27807
  8
ﾈｯﾄ
  6
CONTINUOUS
 62
   230
 10
5444.139917056696
 20
11400.0
 30
0.0
 11
6574.478992412715
 21
11400.0
 31
0.0
  0
LINE
  5
27808
  8
ﾈｯﾄ
  6
CONTINUOUS
 62
   230
 10
5444.139917056696
 20
11355.0
 30
0.0
 11
6581.935233047783
 21
11355.0
 31
0.0
  0
LINE
  5
27809
  8
ﾈｯﾄ
  6
CONTINUOUS
 62
   230
 10
5444.139917056696
 20
11310.0
 30
0.0
 11
6589.39147368285
 21
11310.0
 31
0.0
  0
LINE
  5
2780A
  8
ﾈｯﾄ
  6
CONTINUOUS
 62
   230
 10
5444.139917056696
 20
11265.0
 30
0.0
 11
6596.847714317919
 21
11265.0
 31
0.0
  0
LINE
  5
2780B
  8
ﾈｯﾄ
  6
CONTINUOUS
 62
   230
 10
5444.139917056696
 20
11220.0
 30
0.0
 11
6604.303954952986
 21
11220.0
 31
0.0
  0
LINE
  5
2780C
  8
ﾈｯﾄ
  6
CONTINUOUS
 62
   230
 10
5444.139917056696
 20
11175.0
 30
0.0
 11
6611.760195588054
 21
11175.0
 31
0.0
  0
LINE
  5
2780D
  8
ﾈｯﾄ
  6
CONTINUOUS
 62
   230
 10
5444.139917056696
 20
11130.0
 30
0.0
 11
6619.216436223121
 21
11130.0
 31
0.0
  0
LINE
  5
2780E
  8
ﾈｯﾄ
  6
CONTINUOUS
 62
   230
 10
5444.139917056696
 20
11085.0
 30
0.0
 11
6626.672676858189
 21
11085.0
 31
0.0
  0
LINE
  5
2780F
  8
ﾈｯﾄ
  6
CONTINUOUS
 62
   230
 10
5444.139917056696
 20
11040.0
 30
0.0
 11
6634.128917493257
 21
11040.0
 31
0.0
  0
LINE
  5
27810
  8
ﾈｯﾄ
  6
CONTINUOUS
 62
   230
 10
5444.139917056696
 20
10995.0
 30
0.0
 11
6641.585158128325
 21
10995.0
 31
0.0
  0
LINE
  5
27811
  8
ﾈｯﾄ
  6
CONTINUOUS
 62
   230
 10
5444.139917056696
 20
10950.0
 30
0.0
 11
6649.041398763393
 21
10950.0
 31
0.0
  0
LINE
  5
27812
  8
ﾈｯﾄ
  6
CONTINUOUS
 62
   230
 10
5444.139917056696
 20
10905.0
 30
0.0
 11
6656.49763939846
 21
10905.0
 31
0.0
  0
LINE
  5
27813
  8
ﾈｯﾄ
  6
CONTINUOUS
 62
   230
 10
5444.139917056696
 20
10860.0
 30
0.0
 11
6663.953880033528
 21
10860.0
 31
0.0
  0
LINE
  5
27814
  8
ﾈｯﾄ
  6
CONTINUOUS
 62
   230
 10
5444.139917056696
 20
10815.0
 30
0.0
 11
6671.410120668595
 21
10815.0
 31
0.0
  0
LINE
  5
27815
  8
ﾈｯﾄ
  6
CONTINUOUS
 62
   230
 10
5444.139917056696
 20
10770.0
 30
0.0
 11
6678.866361303663
 21
10770.0
 31
0.0
  0
LINE
  5
27816
  8
ﾈｯﾄ
  6
CONTINUOUS
 62
   230
 10
5444.139917056696
 20
10725.0
 30
0.0
 11
6686.322601938731
 21
10725.0
 31
0.0
  0
LINE
  5
27817
  8
ﾈｯﾄ
  6
CONTINUOUS
 62
   230
 10
5444.139917056696
 20
10680.0
 30
0.0
 11
6693.778842573799
 21
10680.0
 31
0.0
  0
LINE
  5
27818
  8
ﾈｯﾄ
  6
CONTINUOUS
 62
   230
 10
5444.139917056696
 20
10635.0
 30
0.0
 11
6701.235083208867
 21
10635.0
 31
0.0
  0
LINE
  5
27819
  8
ﾈｯﾄ
  6
CONTINUOUS
 62
   230
 10
5444.139917056696
 20
10590.0
 30
0.0
 11
6708.691323843934
 21
10590.0
 31
0.0
  0
LINE
  5
2781A
  8
ﾈｯﾄ
  6
CONTINUOUS
 62
   230
 10
5444.139917056696
 20
10545.0
 30
0.0
 11
6716.147564479002
 21
10545.0
 31
0.0
  0
LINE
  5
2781B
  8
ﾈｯﾄ
  6
CONTINUOUS
 62
   230
 10
5444.139917056696
 20
10500.0
 30
0.0
 11
6723.603805114069
 21
10500.0
 31
0.0
  0
LINE
  5
2781C
  8
ﾈｯﾄ
  6
CONTINUOUS
 62
   230
 10
5444.139917056696
 20
10455.0
 30
0.0
 11
6731.060045749137
 21
10455.0
 31
0.0
  0
LINE
  5
2781D
  8
ﾈｯﾄ
  6
CONTINUOUS
 62
   230
 10
5444.139917056696
 20
10410.0
 30
0.0
 11
6738.516286384205
 21
10410.0
 31
0.0
  0
LINE
  5
2781E
  8
ﾈｯﾄ
  6
CONTINUOUS
 62
   230
 10
5444.139917056696
 20
10365.0
 30
0.0
 11
6745.972527019273
 21
10365.0
 31
0.0
  0
LINE
  5
2781F
  8
ﾈｯﾄ
  6
CONTINUOUS
 62
   230
 10
5444.139917056696
 20
10320.0
 30
0.0
 11
6753.428767654341
 21
10320.0
 31
0.0
  0
LINE
  5
27820
  8
ﾈｯﾄ
  6
CONTINUOUS
 62
   230
 10
5444.139917056695
 20
10230.0
 30
0.0
 11
6768.341248924476
 21
10230.0
 31
0.0
  0
LINE
  5
27821
  8
ﾈｯﾄ
  6
CONTINUOUS
 62
   230
 10
5444.139917056695
 20
10185.0
 30
0.0
 11
6775.797489559543
 21
10185.0
 31
0.0
  0
LINE
  5
27822
  8
ﾈｯﾄ
  6
CONTINUOUS
 62
   230
 10
5444.139917056695
 20
10140.0
 30
0.0
 11
6783.253730194611
 21
10140.0
 31
0.0
  0
LINE
  5
27823
  8
ﾈｯﾄ
  6
CONTINUOUS
 62
   230
 10
5444.139917056695
 20
10095.0
 30
0.0
 11
6790.709970829679
 21
10095.0
 31
0.0
  0
LINE
  5
27824
  8
ﾈｯﾄ
  6
CONTINUOUS
 62
   230
 10
5444.139917056695
 20
10050.0
 30
0.0
 11
6798.166211464747
 21
10050.0
 31
0.0
  0
LINE
  5
27825
  8
ﾈｯﾄ
  6
CONTINUOUS
 62
   230
 10
5444.139917056695
 20
10005.0
 30
0.0
 11
6805.622452099815
 21
10005.0
 31
0.0
  0
LINE
  5
27826
  8
ﾈｯﾄ
  6
CONTINUOUS
 62
   230
 10
5444.139917056695
 20
9960.0
 30
0.0
 11
6813.078692734882
 21
9960.0
 31
0.0
  0
LINE
  5
27827
  8
ﾈｯﾄ
  6
CONTINUOUS
 62
   230
 10
5444.139917056695
 20
9915.0
 30
0.0
 11
6820.534933369951
 21
9915.0
 31
0.0
  0
LINE
  5
27828
  8
ﾈｯﾄ
  6
CONTINUOUS
 62
   230
 10
5444.139917056695
 20
9870.0
 30
0.0
 11
6827.991174005017
 21
9870.0
 31
0.0
  0
LINE
  5
27829
  8
ﾈｯﾄ
  6
CONTINUOUS
 62
   230
 10
5444.139917056695
 20
9825.0
 30
0.0
 11
6835.447414640085
 21
9825.0
 31
0.0
  0
LINE
  5
2782A
  8
ﾈｯﾄ
  6
CONTINUOUS
 62
   230
 10
5444.139917056695
 20
9780.0
 30
0.0
 11
6842.903655275153
 21
9780.0
 31
0.0
  0
LINE
  5
2782B
  8
ﾈｯﾄ
  6
CONTINUOUS
 62
   230
 10
5444.139917056695
 20
9735.0
 30
0.0
 11
6850.359895910221
 21
9735.0
 31
0.0
  0
LINE
  5
2782C
  8
ﾈｯﾄ
  6
CONTINUOUS
 62
   230
 10
5444.139917056695
 20
9690.0
 30
0.0
 11
6857.816136545289
 21
9690.0
 31
0.0
  0
LINE
  5
2782D
  8
ﾈｯﾄ
  6
CONTINUOUS
 62
   230
 10
5444.139917056695
 20
9645.0
 30
0.0
 11
6865.272377180357
 21
9645.0
 31
0.0
  0
LINE
  5
2782E
  8
ﾈｯﾄ
  6
CONTINUOUS
 62
   230
 10
5444.139917056695
 20
9600.0
 30
0.0
 11
6872.728617815424
 21
9600.0
 31
0.0
  0
LINE
  5
2782F
  8
ﾈｯﾄ
  6
CONTINUOUS
 62
   230
 10
5444.139917056695
 20
9555.0
 30
0.0
 11
6880.184858450491
 21
9555.0
 31
0.0
  0
LINE
  5
27830
  8
ﾈｯﾄ
  6
CONTINUOUS
 62
   230
 10
5444.139917056695
 20
9510.0
 30
0.0
 11
6887.641099085559
 21
9510.0
 31
0.0
  0
LINE
  5
27831
  8
ﾈｯﾄ
  6
CONTINUOUS
 62
   230
 10
5444.139917056695
 20
9465.0
 30
0.0
 11
6895.097339720627
 21
9465.0
 31
0.0
  0
LINE
  5
27832
  8
ﾈｯﾄ
  6
CONTINUOUS
 62
   230
 10
5444.139917056694
 20
9420.0
 30
0.0
 11
6902.553580355695
 21
9420.0
 31
0.0
  0
LINE
  5
27833
  8
ﾈｯﾄ
  6
CONTINUOUS
 62
   230
 10
5444.139917056694
 20
9375.0
 30
0.0
 11
6910.009820990763
 21
9375.0
 31
0.0
  0
LINE
  5
27834
  8
ﾈｯﾄ
  6
CONTINUOUS
 62
   230
 10
5444.139917056694
 20
9330.0
 30
0.0
 11
6917.466061625831
 21
9330.0
 31
0.0
  0
LINE
  5
27835
  8
ﾈｯﾄ
  6
CONTINUOUS
 62
   230
 10
5444.139917056694
 20
9285.0
 30
0.0
 11
6924.922302260899
 21
9285.0
 31
0.0
  0
LINE
  5
27836
  8
ﾈｯﾄ
  6
CONTINUOUS
 62
   230
 10
5444.139917056694
 20
9240.0
 30
0.0
 11
6932.378542895966
 21
9240.0
 31
0.0
  0
LINE
  5
27837
  8
ﾈｯﾄ
  6
CONTINUOUS
 62
   230
 10
5444.139917056694
 20
9195.0
 30
0.0
 11
6939.834783531033
 21
9195.0
 31
0.0
  0
LINE
  5
27838
  8
ﾈｯﾄ
  6
CONTINUOUS
 62
   230
 10
5444.139917056694
 20
9150.0
 30
0.0
 11
6947.291024166101
 21
9150.0
 31
0.0
  0
LINE
  5
27839
  8
ﾈｯﾄ
  6
CONTINUOUS
 62
   230
 10
5444.139917056694
 20
9105.0
 30
0.0
 11
6954.747264801169
 21
9105.0
 31
0.0
  0
LINE
  5
2783A
  8
ﾈｯﾄ
  6
CONTINUOUS
 62
   230
 10
5444.139917056694
 20
9060.0
 30
0.0
 11
6962.203505436237
 21
9060.0
 31
0.0
  0
LINE
  5
2783B
  8
ﾈｯﾄ
  6
CONTINUOUS
 62
   230
 10
5444.139917056694
 20
9015.0
 30
0.0
 11
6969.659746071305
 21
9015.0
 31
0.0
  0
LINE
  5
2783C
  8
ﾈｯﾄ
  6
CONTINUOUS
 62
   230
 10
5444.139917056694
 20
8970.0
 30
0.0
 11
6977.115986706372
 21
8970.0
 31
0.0
  0
LINE
  5
2783D
  8
ﾈｯﾄ
  6
CONTINUOUS
 62
   230
 10
5444.139917056694
 20
8925.0
 30
0.0
 11
6984.57222734144
 21
8925.0
 31
0.0
  0
LINE
  5
2783E
  8
ﾈｯﾄ
  6
CONTINUOUS
 62
   230
 10
5444.139917056694
 20
8880.0
 30
0.0
 11
6992.028467976508
 21
8880.0
 31
0.0
  0
LINE
  5
2783F
  8
ﾈｯﾄ
  6
CONTINUOUS
 62
   230
 10
5444.139917056694
 20
8835.0
 30
0.0
 11
6999.484708611576
 21
8835.0
 31
0.0
  0
LINE
  5
27840
  8
ﾈｯﾄ
  6
CONTINUOUS
 62
   230
 10
5444.139917056694
 20
8790.0
 30
0.0
 11
7006.940949246644
 21
8790.0
 31
0.0
  0
LINE
  5
27841
  8
ﾈｯﾄ
  6
CONTINUOUS
 62
   230
 10
5444.139917056694
 20
8745.0
 30
0.0
 11
7014.397189881711
 21
8745.0
 31
0.0
  0
LINE
  5
27842
  8
ﾈｯﾄ
  6
CONTINUOUS
 62
   230
 10
5444.139917056694
 20
8700.0
 30
0.0
 11
7021.853430516779
 21
8700.0
 31
0.0
  0
LINE
  5
27843
  8
ﾈｯﾄ
  6
CONTINUOUS
 62
   230
 10
5445.0
 20
8667.597975104858
 30
0.0
 11
5445.0
 21
10232.59797510486
 31
0.0
  0
LINE
  5
27844
  8
ﾈｯﾄ
  6
CONTINUOUS
 62
   230
 10
5490.0
 20
8667.597975104858
 30
0.0
 11
5490.0
 21
10232.59797510486
 31
0.0
  0
LINE
  5
27845
  8
ﾈｯﾄ
  6
CONTINUOUS
 62
   230
 10
5445.0
 20
10282.59797510486
 30
0.0
 11
5445.0
 21
11882.59797510485
 31
0.0
  0
LINE
  5
27846
  8
ﾈｯﾄ
  6
CONTINUOUS
 62
   230
 10
5490.0
 20
10282.59797510486
 30
0.0
 11
5490.0
 21
11882.59797510485
 31
0.0
  0
LINE
  5
27847
  8
ﾈｯﾄ
  6
CONTINUOUS
 62
   230
 10
5445.0
 20
11932.59797510486
 30
0.0
 11
5445.0
 21
13482.59797510492
 31
0.0
  0
LINE
  5
27848
  8
ﾈｯﾄ
  6
CONTINUOUS
 62
   230
 10
5490.0
 20
11932.59797510486
 30
0.0
 11
5490.0
 21
13482.59797510491
 31
0.0
  0
LINE
  5
27849
  8
ﾈｯﾄ
  6
CONTINUOUS
 62
   230
 10
5535.0
 20
8662.597975104873
 30
0.0
 11
5535.0
 21
10237.59797510487
 31
0.0
  0
LINE
  5
2784A
  8
ﾈｯﾄ
  6
CONTINUOUS
 62
   230
 10
5535.0
 20
10277.59797510487
 30
0.0
 11
5535.0
 21
11887.59797510487
 31
0.0
  0
LINE
  5
2784B
  8
ﾈｯﾄ
  6
CONTINUOUS
 62
   230
 10
5535.0
 20
11927.59797510487
 30
0.0
 11
5535.0
 21
13507.59797510492
 31
0.0
  0
LINE
  5
2784C
  8
ﾈｯﾄ
  6
CONTINUOUS
 62
   230
 10
5580.0
 20
8662.597975104873
 30
0.0
 11
5580.0
 21
10237.59797510487
 31
0.0
  0
LINE
  5
2784D
  8
ﾈｯﾄ
  6
CONTINUOUS
 62
   230
 10
5625.0
 20
8662.597975104873
 30
0.0
 11
5625.0
 21
10237.59797510487
 31
0.0
  0
LINE
  5
2784E
  8
ﾈｯﾄ
  6
CONTINUOUS
 62
   230
 10
5670.0
 20
8662.597975104873
 30
0.0
 11
5670.0
 21
10237.59797510487
 31
0.0
  0
LINE
  5
2784F
  8
ﾈｯﾄ
  6
CONTINUOUS
 62
   230
 10
5715.0
 20
8662.597975104873
 30
0.0
 11
5715.0
 21
10237.59797510487
 31
0.0
  0
LINE
  5
27850
  8
ﾈｯﾄ
  6
CONTINUOUS
 62
   230
 10
5760.0
 20
8662.597975104873
 30
0.0
 11
5760.0
 21
10237.59797510487
 31
0.0
  0
LINE
  5
27851
  8
ﾈｯﾄ
  6
CONTINUOUS
 62
   230
 10
5805.0
 20
8662.597975104873
 30
0.0
 11
5805.0
 21
10237.59797510487
 31
0.0
  0
LINE
  5
27852
  8
ﾈｯﾄ
  6
CONTINUOUS
 62
   230
 10
5850.0
 20
8662.597975104873
 30
0.0
 11
5850.0
 21
10237.59797510487
 31
0.0
  0
LINE
  5
27853
  8
ﾈｯﾄ
  6
CONTINUOUS
 62
   230
 10
5895.0
 20
8662.597975104873
 30
0.0
 11
5895.0
 21
10237.59797510487
 31
0.0
  0
LINE
  5
27854
  8
ﾈｯﾄ
  6
CONTINUOUS
 62
   230
 10
5940.0
 20
8662.597975104873
 30
0.0
 11
5940.0
 21
10237.59797510487
 31
0.0
  0
LINE
  5
27855
  8
ﾈｯﾄ
  6
CONTINUOUS
 62
   230
 10
5985.0
 20
8662.597975104873
 30
0.0
 11
5985.0
 21
10237.59797510487
 31
0.0
  0
LINE
  5
27856
  8
ﾈｯﾄ
  6
CONTINUOUS
 62
   230
 10
6030.0
 20
8662.597975104873
 30
0.0
 11
6030.0
 21
10237.59797510487
 31
0.0
  0
LINE
  5
27857
  8
ﾈｯﾄ
  6
CONTINUOUS
 62
   230
 10
6075.0
 20
8662.597975104873
 30
0.0
 11
6075.0
 21
10237.59797510487
 31
0.0
  0
LINE
  5
27858
  8
ﾈｯﾄ
  6
CONTINUOUS
 62
   230
 10
6120.0
 20
8662.597975104873
 30
0.0
 11
6120.0
 21
10237.59797510487
 31
0.0
  0
LINE
  5
27859
  8
ﾈｯﾄ
  6
CONTINUOUS
 62
   230
 10
6165.0
 20
8662.597975104873
 30
0.0
 11
6165.0
 21
10237.59797510487
 31
0.0
  0
LINE
  5
2785A
  8
ﾈｯﾄ
  6
CONTINUOUS
 62
   230
 10
6210.0
 20
8662.597975104873
 30
0.0
 11
6210.0
 21
10237.59797510487
 31
0.0
  0
LINE
  5
2785B
  8
ﾈｯﾄ
  6
CONTINUOUS
 62
   230
 10
5580.0
 20
10277.59797510487
 30
0.0
 11
5580.0
 21
11887.59797510487
 31
0.0
  0
LINE
  5
2785C
  8
ﾈｯﾄ
  6
CONTINUOUS
 62
   230
 10
5625.0
 20
10277.59797510487
 30
0.0
 11
5625.0
 21
11887.59797510487
 31
0.0
  0
LINE
  5
2785D
  8
ﾈｯﾄ
  6
CONTINUOUS
 62
   230
 10
5670.0
 20
10277.59797510487
 30
0.0
 11
5670.0
 21
11887.59797510487
 31
0.0
  0
LINE
  5
2785E
  8
ﾈｯﾄ
  6
CONTINUOUS
 62
   230
 10
5715.0
 20
10277.59797510487
 30
0.0
 11
5715.0
 21
11887.59797510487
 31
0.0
  0
LINE
  5
2785F
  8
ﾈｯﾄ
  6
CONTINUOUS
 62
   230
 10
5760.0
 20
10277.59797510487
 30
0.0
 11
5760.0
 21
11887.59797510487
 31
0.0
  0
LINE
  5
27860
  8
ﾈｯﾄ
  6
CONTINUOUS
 62
   230
 10
5805.0
 20
10277.59797510487
 30
0.0
 11
5805.0
 21
11887.59797510487
 31
0.0
  0
LINE
  5
27861
  8
ﾈｯﾄ
  6
CONTINUOUS
 62
   230
 10
5850.0
 20
10277.59797510487
 30
0.0
 11
5850.0
 21
11887.59797510487
 31
0.0
  0
LINE
  5
27862
  8
ﾈｯﾄ
  6
CONTINUOUS
 62
   230
 10
5895.0
 20
10277.59797510487
 30
0.0
 11
5895.0
 21
11887.59797510487
 31
0.0
  0
LINE
  5
27863
  8
ﾈｯﾄ
  6
CONTINUOUS
 62
   230
 10
5940.0
 20
10277.59797510487
 30
0.0
 11
5940.0
 21
11887.59797510487
 31
0.0
  0
LINE
  5
27864
  8
ﾈｯﾄ
  6
CONTINUOUS
 62
   230
 10
5985.0
 20
10277.59797510487
 30
0.0
 11
5985.0
 21
11887.59797510487
 31
0.0
  0
LINE
  5
27865
  8
ﾈｯﾄ
  6
CONTINUOUS
 62
   230
 10
6030.0
 20
10277.59797510487
 30
0.0
 11
6030.0
 21
11887.59797510487
 31
0.0
  0
LINE
  5
27866
  8
ﾈｯﾄ
  6
CONTINUOUS
 62
   230
 10
6075.0
 20
10277.59797510487
 30
0.0
 11
6075.0
 21
11887.59797510487
 31
0.0
  0
LINE
  5
27867
  8
ﾈｯﾄ
  6
CONTINUOUS
 62
   230
 10
6120.0
 20
10277.59797510487
 30
0.0
 11
6120.0
 21
11887.59797510487
 31
0.0
  0
LINE
  5
27868
  8
ﾈｯﾄ
  6
CONTINUOUS
 62
   230
 10
6165.0
 20
10277.59797510487
 30
0.0
 11
6165.0
 21
11887.59797510487
 31
0.0
  0
LINE
  5
27869
  8
ﾈｯﾄ
  6
CONTINUOUS
 62
   230
 10
6210.0
 20
10277.59797510487
 30
0.0
 11
6210.0
 21
11887.59797510487
 31
0.0
  0
LINE
  5
2786A
  8
ﾈｯﾄ
  6
CONTINUOUS
 62
   230
 10
5580.0
 20
11927.59797510487
 30
0.0
 11
5580.0
 21
13450.44797510489
 31
0.0
  0
LINE
  5
2786B
  8
ﾈｯﾄ
  6
CONTINUOUS
 62
   230
 10
5625.0
 20
11927.59797510487
 30
0.0
 11
5625.0
 21
13450.44797510489
 31
0.0
  0
LINE
  5
2786C
  8
ﾈｯﾄ
  6
CONTINUOUS
 62
   230
 10
5670.0
 20
11927.59797510487
 30
0.0
 11
5670.0
 21
13450.44797510489
 31
0.0
  0
LINE
  5
2786D
  8
ﾈｯﾄ
  6
CONTINUOUS
 62
   230
 10
5715.0
 20
11927.59797510487
 30
0.0
 11
5715.0
 21
13450.44797510489
 31
0.0
  0
LINE
  5
2786E
  8
ﾈｯﾄ
  6
CONTINUOUS
 62
   230
 10
5760.0
 20
11927.59797510487
 30
0.0
 11
5760.0
 21
13450.44797510489
 31
0.0
  0
LINE
  5
2786F
  8
ﾈｯﾄ
  6
CONTINUOUS
 62
   230
 10
5805.0
 20
11927.59797510487
 30
0.0
 11
5805.0
 21
13450.44797510489
 31
0.0
  0
LINE
  5
27870
  8
ﾈｯﾄ
  6
CONTINUOUS
 62
   230
 10
5850.0
 20
11927.59797510487
 30
0.0
 11
5850.0
 21
13450.44797510489
 31
0.0
  0
LINE
  5
27871
  8
ﾈｯﾄ
  6
CONTINUOUS
 62
   230
 10
5895.0
 20
11927.59797510487
 30
0.0
 11
5895.0
 21
13450.44797510489
 31
0.0
  0
LINE
  5
27872
  8
ﾈｯﾄ
  6
CONTINUOUS
 62
   230
 10
5940.0
 20
11927.59797510487
 30
0.0
 11
5940.0
 21
13450.44797510489
 31
0.0
  0
LINE
  5
27873
  8
ﾈｯﾄ
  6
CONTINUOUS
 62
   230
 10
5985.0
 20
11927.59797510487
 30
0.0
 11
5985.0
 21
13450.44797510489
 31
0.0
  0
LINE
  5
27874
  8
ﾈｯﾄ
  6
CONTINUOUS
 62
   230
 10
6030.0
 20
11927.59797510487
 30
0.0
 11
6030.0
 21
13450.44797510489
 31
0.0
  0
LINE
  5
27875
  8
ﾈｯﾄ
  6
CONTINUOUS
 62
   230
 10
6075.0
 20
11927.59797510487
 30
0.0
 11
6075.0
 21
13450.44797510489
 31
0.0
  0
LINE
  5
27876
  8
ﾈｯﾄ
  6
CONTINUOUS
 62
   230
 10
6120.0
 20
11927.59797510487
 30
0.0
 11
6120.0
 21
13450.44797510489
 31
0.0
  0
LINE
  5
27877
  8
ﾈｯﾄ
  6
CONTINUOUS
 62
   230
 10
6165.0
 20
11927.59797510487
 30
0.0
 11
6165.0
 21
13450.44797510489
 31
0.0
  0
LINE
  5
27878
  8
ﾈｯﾄ
  6
CONTINUOUS
 62
   230
 10
6210.0
 20
11927.59797510487
 30
0.0
 11
6210.0
 21
13450.44797510489
 31
0.0
  0
LINE
  5
27879
  8
ﾈｯﾄ
  6
CONTINUOUS
 62
   230
 10
5580.0
 20
13450.44797510489
 30
0.0
 11
5580.0
 21
13564.74797510488
 31
0.0
  0
LINE
  5
2787A
  8
ﾈｯﾄ
  6
CONTINUOUS
 62
   230
 10
5625.0
 20
13450.44797510489
 30
0.0
 11
5625.0
 21
13564.74797510488
 31
0.0
  0
LINE
  5
2787B
  8
ﾈｯﾄ
  6
CONTINUOUS
 62
   230
 10
5670.0
 20
13450.44797510489
 30
0.0
 11
5670.0
 21
13564.74797510488
 31
0.0
  0
LINE
  5
2787C
  8
ﾈｯﾄ
  6
CONTINUOUS
 62
   230
 10
5715.0
 20
13450.44797510489
 30
0.0
 11
5715.0
 21
13564.74797510488
 31
0.0
  0
LINE
  5
2787D
  8
ﾈｯﾄ
  6
CONTINUOUS
 62
   230
 10
5760.0
 20
13450.44797510489
 30
0.0
 11
5760.0
 21
13564.74797510488
 31
0.0
  0
LINE
  5
2787E
  8
ﾈｯﾄ
  6
CONTINUOUS
 62
   230
 10
5805.0
 20
13450.44797510489
 30
0.0
 11
5805.0
 21
13564.74797510488
 31
0.0
  0
LINE
  5
2787F
  8
ﾈｯﾄ
  6
CONTINUOUS
 62
   230
 10
5850.0
 20
13450.44797510489
 30
0.0
 11
5850.0
 21
13564.74797510488
 31
0.0
  0
LINE
  5
27880
  8
ﾈｯﾄ
  6
CONTINUOUS
 62
   230
 10
5895.0
 20
13450.44797510489
 30
0.0
 11
5895.0
 21
13564.74797510488
 31
0.0
  0
LINE
  5
27881
  8
ﾈｯﾄ
  6
CONTINUOUS
 62
   230
 10
5940.0
 20
13450.44797510489
 30
0.0
 11
5940.0
 21
13564.74797510488
 31
0.0
  0
LINE
  5
27882
  8
ﾈｯﾄ
  6
CONTINUOUS
 62
   230
 10
5985.0
 20
13450.44797510489
 30
0.0
 11
5985.0
 21
13564.74797510488
 31
0.0
  0
LINE
  5
27883
  8
ﾈｯﾄ
  6
CONTINUOUS
 62
   230
 10
6030.0
 20
13450.44797510489
 30
0.0
 11
6030.0
 21
13564.74797510488
 31
0.0
  0
LINE
  5
27884
  8
ﾈｯﾄ
  6
CONTINUOUS
 62
   230
 10
6075.0
 20
13450.44797510489
 30
0.0
 11
6075.0
 21
13564.74797510488
 31
0.0
  0
LINE
  5
27885
  8
ﾈｯﾄ
  6
CONTINUOUS
 62
   230
 10
6120.0
 20
13450.44797510489
 30
0.0
 11
6120.0
 21
13564.74797510488
 31
0.0
  0
LINE
  5
27886
  8
ﾈｯﾄ
  6
CONTINUOUS
 62
   230
 10
6165.0
 20
13450.44797510489
 30
0.0
 11
6165.0
 21
13564.74797510488
 31
0.0
  0
LINE
  5
27887
  8
ﾈｯﾄ
  6
CONTINUOUS
 62
   230
 10
6210.0
 20
13450.44797510489
 30
0.0
 11
6210.0
 21
13564.74797510488
 31
0.0
  0
LINE
  5
27888
  8
ﾈｯﾄ
  6
CONTINUOUS
 62
   230
 10
6255.0
 20
8662.597975104873
 30
0.0
 11
6255.0
 21
10237.59797510487
 31
0.0
  0
LINE
  5
27889
  8
ﾈｯﾄ
  6
CONTINUOUS
 62
   230
 10
6300.0
 20
8662.597975104873
 30
0.0
 11
6300.0
 21
10237.59797510487
 31
0.0
  0
LINE
  5
2788A
  8
ﾈｯﾄ
  6
CONTINUOUS
 62
   230
 10
6345.0
 20
8662.597975104873
 30
0.0
 11
6345.0
 21
10237.59797510487
 31
0.0
  0
LINE
  5
2788B
  8
ﾈｯﾄ
  6
CONTINUOUS
 62
   230
 10
6390.0
 20
8662.597975104873
 30
0.0
 11
6390.0
 21
10237.59797510487
 31
0.0
  0
LINE
  5
2788C
  8
ﾈｯﾄ
  6
CONTINUOUS
 62
   230
 10
6435.0
 20
8662.597975104873
 30
0.0
 11
6435.0
 21
10237.59797510487
 31
0.0
  0
LINE
  5
2788D
  8
ﾈｯﾄ
  6
CONTINUOUS
 62
   230
 10
6480.0
 20
8662.597975104873
 30
0.0
 11
6480.0
 21
10237.59797510487
 31
0.0
  0
LINE
  5
2788E
  8
ﾈｯﾄ
  6
CONTINUOUS
 62
   230
 10
6255.0
 20
10277.59797510487
 30
0.0
 11
6255.0
 21
11887.59797510487
 31
0.0
  0
LINE
  5
2788F
  8
ﾈｯﾄ
  6
CONTINUOUS
 62
   230
 10
6300.0
 20
10277.59797510487
 30
0.0
 11
6300.0
 21
11887.59797510487
 31
0.0
  0
LINE
  5
27890
  8
ﾈｯﾄ
  6
CONTINUOUS
 62
   230
 10
6345.0
 20
10277.59797510487
 30
0.0
 11
6345.0
 21
11887.59797510487
 31
0.0
  0
LINE
  5
27891
  8
ﾈｯﾄ
  6
CONTINUOUS
 62
   230
 10
6390.0
 20
10277.59797510487
 30
0.0
 11
6390.0
 21
11887.59797510487
 31
0.0
  0
LINE
  5
27892
  8
ﾈｯﾄ
  6
CONTINUOUS
 62
   230
 10
6435.0
 20
10277.59797510487
 30
0.0
 11
6435.0
 21
11887.59797510487
 31
0.0
  0
LINE
  5
27893
  8
ﾈｯﾄ
  6
CONTINUOUS
 62
   230
 10
6480.0
 20
10277.59797510487
 30
0.0
 11
6480.0
 21
11887.59797510487
 31
0.0
  0
LINE
  5
27894
  8
ﾈｯﾄ
  6
CONTINUOUS
 62
   230
 10
6255.0
 20
11927.59797510487
 30
0.0
 11
6255.0
 21
13328.12375058784
 31
0.0
  0
LINE
  5
27895
  8
ﾈｯﾄ
  6
CONTINUOUS
 62
   230
 10
6300.0
 20
11927.59797510487
 30
0.0
 11
6300.0
 21
13056.53916807368
 31
0.0
  0
LINE
  5
27896
  8
ﾈｯﾄ
  6
CONTINUOUS
 62
   230
 10
6345.0
 20
11927.59797510487
 30
0.0
 11
6345.0
 21
12784.95458555952
 31
0.0
  0
LINE
  5
27897
  8
ﾈｯﾄ
  6
CONTINUOUS
 62
   230
 10
6390.0
 20
11927.59797510487
 30
0.0
 11
6390.0
 21
12513.37000304535
 31
0.0
  0
LINE
  5
27898
  8
ﾈｯﾄ
  6
CONTINUOUS
 62
   230
 10
6435.0
 20
11927.59797510487
 30
0.0
 11
6435.0
 21
12241.78542053119
 31
0.0
  0
LINE
  5
27899
  8
ﾈｯﾄ
  6
CONTINUOUS
 62
   230
 10
6480.0
 20
11927.59797510487
 30
0.0
 11
6480.0
 21
11970.20083801703
 31
0.0
  0
LINE
  5
2789A
  8
ﾈｯﾄ
  6
CONTINUOUS
 62
   230
 10
6525.0
 20
8662.597975104873
 30
0.0
 11
6525.0
 21
10237.59797510487
 31
0.0
  0
LINE
  5
2789B
  8
ﾈｯﾄ
  6
CONTINUOUS
 62
   230
 10
6570.0
 20
8662.597975104873
 30
0.0
 11
6570.0
 21
10237.59797510487
 31
0.0
  0
LINE
  5
2789C
  8
ﾈｯﾄ
  6
CONTINUOUS
 62
   230
 10
6615.0
 20
8662.597975104873
 30
0.0
 11
6615.0
 21
10237.59797510487
 31
0.0
  0
LINE
  5
2789D
  8
ﾈｯﾄ
  6
CONTINUOUS
 62
   230
 10
6660.0
 20
8662.597975104873
 30
0.0
 11
6660.0
 21
10237.59797510487
 31
0.0
  0
LINE
  5
2789E
  8
ﾈｯﾄ
  6
CONTINUOUS
 62
   230
 10
6705.0
 20
8662.597975104873
 30
0.0
 11
6705.0
 21
10237.59797510487
 31
0.0
  0
LINE
  5
2789F
  8
ﾈｯﾄ
  6
CONTINUOUS
 62
   230
 10
6750.0
 20
8662.597975104873
 30
0.0
 11
6750.0
 21
10237.59797510487
 31
0.0
  0
LINE
  5
278A0
  8
ﾈｯﾄ
  6
CONTINUOUS
 62
   230
 10
6525.0
 20
10277.59797510487
 30
0.0
 11
6525.0
 21
11698.61625550286
 31
0.0
  0
LINE
  5
278A1
  8
ﾈｯﾄ
  6
CONTINUOUS
 62
   230
 10
6570.0
 20
10277.59797510487
 30
0.0
 11
6570.0
 21
11427.0316729887
 31
0.0
  0
LINE
  5
278A2
  8
ﾈｯﾄ
  6
CONTINUOUS
 62
   230
 10
6615.0
 20
10277.59797510487
 30
0.0
 11
6615.0
 21
11155.44709047454
 31
0.0
  0
LINE
  5
278A3
  8
ﾈｯﾄ
  6
CONTINUOUS
 62
   230
 10
6660.0
 20
10277.59797510487
 30
0.0
 11
6660.0
 21
10883.86250796038
 31
0.0
  0
LINE
  5
278A4
  8
ﾈｯﾄ
  6
CONTINUOUS
 62
   230
 10
6705.0
 20
10277.59797510487
 30
0.0
 11
6705.0
 21
10612.27792544621
 31
0.0
  0
LINE
  5
278A5
  8
ﾈｯﾄ
  6
CONTINUOUS
 62
   230
 10
6750.0
 20
10277.59797510487
 30
0.0
 11
6750.0
 21
10340.69334293205
 31
0.0
  0
LINE
  5
278A6
  8
ﾈｯﾄ
  6
CONTINUOUS
 62
   230
 10
6795.0
 20
8662.597975104873
 30
0.0
 11
6795.0
 21
10069.10876041788
 31
0.0
  0
LINE
  5
278A7
  8
ﾈｯﾄ
  6
CONTINUOUS
 62
   230
 10
6840.0
 20
8662.597975104873
 30
0.0
 11
6840.0
 21
9797.524177903722
 31
0.0
  0
LINE
  5
278A8
  8
ﾈｯﾄ
  6
CONTINUOUS
 62
   230
 10
6885.0
 20
8662.597975104873
 30
0.0
 11
6885.0
 21
9525.939595389562
 31
0.0
  0
LINE
  5
278A9
  8
ﾈｯﾄ
  6
CONTINUOUS
 62
   230
 10
6930.0
 20
8662.597975104873
 30
0.0
 11
6930.0
 21
9254.3550128754
 31
0.0
  0
LINE
  5
278AA
  8
ﾈｯﾄ
  6
CONTINUOUS
 62
   230
 10
6975.0
 20
8662.597975104873
 30
0.0
 11
6975.0
 21
8982.770430361237
 31
0.0
  0
LINE
  5
278AB
  8
ﾈｯﾄ
  6
CONTINUOUS
 62
   230
 10
7020.0
 20
8662.597975104873
 30
0.0
 11
7020.0
 21
8711.185847847075
 31
0.0
  0
ENDBLK
  5
27A4D
  8
画層2-1
  0
BLOCK
  8
画層2-1
  2
*X25
 70
     1
 10
0.0
 20
0.0
 30
0.0
  3
*X25
  1
Acad:XRef
  0
TEXT
  5
278D4
  8
寸法
  6
CONTINUOUS
 10
8985.876195570585
 20
11330.11437248083
 30
0.0
 40
180.0
  1
筋違
 41
0.75
  7
1_100
  0
TEXT
  5
278D5
  8
寸法
  6
CONTINUOUS
 10
8963.376195570585
 20
11081.11437248083
 30
0.0
 40
180.0
  1
メッセンワイヤー38m㎡
 41
0.75
  7
1_100
  0
ENDBLK
  5
27A4F
  8
画層2-1
  0
BLOCK
  8
画層2-1
  2
*X26
 70
     1
 10
0.0
 20
0.0
 30
0.0
  3
*X26
  1
Acad:XRef
  0
LINE
  5
27902
  8
ﾊｯﾁﾝｸﾞ
  6
CONTINUOUS
 10
18866.64705991309
 20
7988.017884160955
 30
0.0
 11
19091.64705991316
 21
8213.017884161021
 31
0.0
  0
LINE
  5
27903
  8
ﾊｯﾁﾝｸﾞ
  6
CONTINUOUS
 10
19091.64705991308
 20
8213.01788416095
 30
0.0
 11
19341.6470599132
 21
8463.01788416107
 31
0.0
  0
LINE
  5
27904
  8
ﾊｯﾁﾝｸﾞ
  6
CONTINUOUS
 10
18866.64705991314
 20
7280.911102974454
 30
0.0
 11
19091.64705991311
 21
7505.911102974432
 31
0.0
  0
LINE
  5
27905
  8
ﾊｯﾁﾝｸﾞ
  6
CONTINUOUS
 10
19091.64705991313
 20
7505.911102974444
 30
0.0
 11
19316.64705991318
 21
7730.911102974496
 31
0.0
  0
LINE
  5
27906
  8
ﾊｯﾁﾝｸﾞ
  6
CONTINUOUS
 10
18910.44071323004
 20
6617.597975104814
 30
0.0
 11
19091.64705991307
 21
6798.804321787843
 31
0.0
  0
LINE
  5
27907
  8
ﾊｯﾁﾝｸﾞ
  6
CONTINUOUS
 10
19091.64705991317
 20
6798.804321787939
 30
0.0
 11
19316.64705991318
 21
7023.804321787949
 31
0.0
  0
LINE
  5
27908
  8
ﾊｯﾁﾝｸﾞ
  6
CONTINUOUS
 10
18866.64705991308
 20
8076.406231809433
 30
0.0
 11
19091.64705991316
 21
8301.40623180951
 31
0.0
  0
LINE
  5
27909
  8
ﾊｯﾁﾝｸﾞ
  6
CONTINUOUS
 10
19091.64705991308
 20
8301.40623180943
 30
0.0
 11
19341.64705991326
 21
8551.406231809604
 31
0.0
  0
LINE
  5
2790A
  8
ﾊｯﾁﾝｸﾞ
  6
CONTINUOUS
 10
18866.64705991313
 20
7369.299450622931
 30
0.0
 11
19091.64705991312
 21
7594.29945062292
 31
0.0
  0
LINE
  5
2790B
  8
ﾊｯﾁﾝｸﾞ
  6
CONTINUOUS
 10
18866.64705991318
 20
6662.192669436429
 30
0.0
 11
19091.64705991308
 21
6887.192669436331
 31
0.0
  0
LINE
  5
2790C
  8
ﾊｯﾁﾝｸﾞ
  6
CONTINUOUS
 10
19091.64705991312
 20
7594.299450622922
 30
0.0
 11
19316.64705991318
 21
7819.299450622979
 31
0.0
  0
LINE
  5
2790D
  8
ﾊｯﾁﾝｸﾞ
  6
CONTINUOUS
 10
19091.64705991316
 20
6887.192669436417
 30
0.0
 11
19316.64705991318
 21
7112.192669436432
 31
0.0
  0
LINE
  5
2790E
  8
ﾊｯﾁﾝｸﾞ
  6
CONTINUOUS
 10
18866.64705991308
 20
8164.794579457581
 30
0.0
 11
19091.64705991316
 21
8389.794579457668
 31
0.0
  0
LINE
  5
2790F
  8
ﾊｯﾁﾝｸﾞ
  6
CONTINUOUS
 10
19091.64705991308
 20
8389.794579457577
 30
0.0
 11
19319.45045556037
 21
8617.597975104878
 31
0.0
  0
LINE
  5
27910
  8
ﾊｯﾁﾝｸﾞ
  6
CONTINUOUS
 10
18866.64705991312
 20
7457.687798271078
 30
0.0
 11
19091.64705991312
 21
7682.687798271079
 31
0.0
  0
LINE
  5
27911
  8
ﾊｯﾁﾝｸﾞ
  6
CONTINUOUS
 10
18866.64705991317
 20
6750.581017084577
 30
0.0
 11
19091.64705991308
 21
6975.581017084491
 31
0.0
  0
LINE
  5
27912
  8
ﾊｯﾁﾝｸﾞ
  6
CONTINUOUS
 10
19091.64705991312
 20
7682.687798271071
 30
0.0
 11
19316.64705991318
 21
7907.687798271133
 31
0.0
  0
LINE
  5
27913
  8
ﾊｯﾁﾝｸﾞ
  6
CONTINUOUS
 10
19091.64705991316
 20
6975.581017084565
 30
0.0
 11
19316.64705991318
 21
7200.581017084585
 31
0.0
  0
ENDBLK
  5
27A51
  8
画層2-1
  0
BLOCK
  8
画層2-1
  2
*X27
 70
     1
 10
0.0
 20
0.0
 30
0.0
  3
*X27
  1
Acad:XRef
  0
LINE
  5
27924
  8
ﾊｯﾁﾝｸﾞ
  6
CONTINUOUS
 10
11123.78991705651
 20
7988.017884160955
 30
0.0
 11
11348.78991705658
 21
8213.017884161021
 31
0.0
  0
LINE
  5
27925
  8
ﾊｯﾁﾝｸﾞ
  6
CONTINUOUS
 10
11348.78991705651
 20
8213.01788416095
 30
0.0
 11
11598.78991705663
 21
8463.01788416107
 31
0.0
  0
LINE
  5
27926
  8
ﾊｯﾁﾝｸﾞ
  6
CONTINUOUS
 10
11123.78991705656
 20
7280.911102974454
 30
0.0
 11
11348.78991705654
 21
7505.911102974432
 31
0.0
  0
LINE
  5
27927
  8
ﾊｯﾁﾝｸﾞ
  6
CONTINUOUS
 10
11348.78991705655
 20
7505.911102974444
 30
0.0
 11
11573.7899170566
 21
7730.911102974496
 31
0.0
  0
LINE
  5
27928
  8
ﾊｯﾁﾝｸﾞ
  6
CONTINUOUS
 10
11167.58357037347
 20
6617.597975104814
 30
0.0
 11
11348.7899170565
 21
6798.804321787843
 31
0.0
  0
LINE
  5
27929
  8
ﾊｯﾁﾝｸﾞ
  6
CONTINUOUS
 10
11348.78991705659
 20
6798.804321787939
 30
0.0
 11
11573.7899170566
 21
7023.804321787949
 31
0.0
  0
LINE
  5
2792A
  8
ﾊｯﾁﾝｸﾞ
  6
CONTINUOUS
 10
11123.78991705651
 20
8076.406231809433
 30
0.0
 11
11348.78991705658
 21
8301.40623180951
 31
0.0
  0
LINE
  5
2792B
  8
ﾊｯﾁﾝｸﾞ
  6
CONTINUOUS
 10
11348.7899170565
 20
8301.40623180943
 30
0.0
 11
11598.78991705668
 21
8551.406231809604
 31
0.0
  0
LINE
  5
2792C
  8
ﾊｯﾁﾝｸﾞ
  6
CONTINUOUS
 10
11123.78991705655
 20
7369.299450622931
 30
0.0
 11
11348.78991705654
 21
7594.29945062292
 31
0.0
  0
LINE
  5
2792D
  8
ﾊｯﾁﾝｸﾞ
  6
CONTINUOUS
 10
11123.7899170566
 20
6662.192669436429
 30
0.0
 11
11348.7899170565
 21
6887.192669436331
 31
0.0
  0
LINE
  5
2792E
  8
ﾊｯﾁﾝｸﾞ
  6
CONTINUOUS
 10
11348.78991705655
 20
7594.299450622922
 30
0.0
 11
11573.7899170566
 21
7819.299450622979
 31
0.0
  0
LINE
  5
2792F
  8
ﾊｯﾁﾝｸﾞ
  6
CONTINUOUS
 10
11348.78991705659
 20
6887.192669436417
 30
0.0
 11
11573.7899170566
 21
7112.192669436432
 31
0.0
  0
LINE
  5
27930
  8
ﾊｯﾁﾝｸﾞ
  6
CONTINUOUS
 10
11123.7899170565
 20
8164.794579457581
 30
0.0
 11
11348.78991705659
 21
8389.794579457668
 31
0.0
  0
LINE
  5
27931
  8
ﾊｯﾁﾝｸﾞ
  6
CONTINUOUS
 10
11348.7899170565
 20
8389.794579457577
 30
0.0
 11
11576.5933127038
 21
8617.597975104878
 31
0.0
  0
LINE
  5
27932
  8
ﾊｯﾁﾝｸﾞ
  6
CONTINUOUS
 10
11123.78991705655
 20
7457.687798271078
 30
0.0
 11
11348.78991705655
 21
7682.687798271079
 31
0.0
  0
LINE
  5
27933
  8
ﾊｯﾁﾝｸﾞ
  6
CONTINUOUS
 10
11123.78991705659
 20
6750.581017084577
 30
0.0
 11
11348.78991705651
 21
6975.581017084491
 31
0.0
  0
LINE
  5
27934
  8
ﾊｯﾁﾝｸﾞ
  6
CONTINUOUS
 10
11348.78991705654
 20
7682.687798271071
 30
0.0
 11
11573.7899170566
 21
7907.687798271133
 31
0.0
  0
LINE
  5
27935
  8
ﾊｯﾁﾝｸﾞ
  6
CONTINUOUS
 10
11348.78991705658
 20
6975.581017084565
 30
0.0
 11
11573.7899170566
 21
7200.581017084585
 31
0.0
  0
ENDBLK
  5
27A53
  8
画層2-1
  0
BLOCK
  8
画層2-1
  2
*X28
 70
     1
 10
0.0
 20
0.0
 30
0.0
  3
*X28
  1
Acad:XRef
  0
LINE
  5
27954
  8
ﾊｯﾁﾝｸﾞ
  6
CONTINUOUS
 10
5123.789917056512
 20
7988.017884160955
 30
0.0
 11
5348.789917056578
 21
8213.017884161021
 31
0.0
  0
LINE
  5
27955
  8
ﾊｯﾁﾝｸﾞ
  6
CONTINUOUS
 10
5348.789917056509
 20
8213.01788416095
 30
0.0
 11
5598.789917056628
 21
8463.01788416107
 31
0.0
  0
LINE
  5
27956
  8
ﾊｯﾁﾝｸﾞ
  6
CONTINUOUS
 10
5123.789917056559
 20
7280.911102974454
 30
0.0
 11
5348.789917056537
 21
7505.911102974432
 31
0.0
  0
LINE
  5
27957
  8
ﾊｯﾁﾝｸﾞ
  6
CONTINUOUS
 10
5348.78991705655
 20
7505.911102974444
 30
0.0
 11
5573.789917056602
 21
7730.911102974496
 31
0.0
  0
LINE
  5
27958
  8
ﾊｯﾁﾝｸﾞ
  6
CONTINUOUS
 10
5167.583570373467
 20
6617.597975104814
 30
0.0
 11
5348.789917056496
 21
6798.804321787843
 31
0.0
  0
LINE
  5
27959
  8
ﾊｯﾁﾝｸﾞ
  6
CONTINUOUS
 10
5348.789917056591
 20
6798.804321787939
 30
0.0
 11
5573.789917056602
 21
7023.804321787949
 31
0.0
  0
LINE
  5
2795A
  8
ﾊｯﾁﾝｸﾞ
  6
CONTINUOUS
 10
5123.789917056507
 20
8076.406231809433
 30
0.0
 11
5348.789917056583
 21
8301.40623180951
 31
0.0
  0
LINE
  5
2795B
  8
ﾊｯﾁﾝｸﾞ
  6
CONTINUOUS
 10
5348.789917056503
 20
8301.40623180943
 30
0.0
 11
5598.789917056679
 21
8551.406231809604
 31
0.0
  0
LINE
  5
2795C
  8
ﾊｯﾁﾝｸﾞ
  6
CONTINUOUS
 10
5123.789917056552
 20
7369.299450622931
 30
0.0
 11
5348.789917056542
 21
7594.29945062292
 31
0.0
  0
LINE
  5
2795D
  8
ﾊｯﾁﾝｸﾞ
  6
CONTINUOUS
 10
5123.789917056599
 20
6662.192669436429
 30
0.0
 11
5348.789917056501
 21
6887.192669436331
 31
0.0
  0
LINE
  5
2795E
  8
ﾊｯﾁﾝｸﾞ
  6
CONTINUOUS
 10
5348.789917056545
 20
7594.299450622922
 30
0.0
 11
5573.789917056602
 21
7819.299450622979
 31
0.0
  0
LINE
  5
2795F
  8
ﾊｯﾁﾝｸﾞ
  6
CONTINUOUS
 10
5348.789917056586
 20
6887.192669436417
 30
0.0
 11
5573.789917056602
 21
7112.192669436432
 31
0.0
  0
LINE
  5
27960
  8
ﾊｯﾁﾝｸﾞ
  6
CONTINUOUS
 10
5123.789917056502
 20
8164.794579457581
 30
0.0
 11
5348.789917056588
 21
8389.794579457668
 31
0.0
  0
LINE
  5
27961
  8
ﾊｯﾁﾝｸﾞ
  6
CONTINUOUS
 10
5348.789917056498
 20
8389.794579457577
 30
0.0
 11
5576.593312703798
 21
8617.597975104878
 31
0.0
  0
LINE
  5
27962
  8
ﾊｯﾁﾝｸﾞ
  6
CONTINUOUS
 10
5123.789917056547
 20
7457.687798271078
 30
0.0
 11
5348.789917056547
 21
7682.687798271079
 31
0.0
  0
LINE
  5
27963
  8
ﾊｯﾁﾝｸﾞ
  6
CONTINUOUS
 10
5123.789917056593
 20
6750.581017084577
 30
0.0
 11
5348.789917056506
 21
6975.581017084491
 31
0.0
  0
LINE
  5
27964
  8
ﾊｯﾁﾝｸﾞ
  6
CONTINUOUS
 10
5348.78991705654
 20
7682.687798271071
 30
0.0
 11
5573.789917056602
 21
7907.687798271133
 31
0.0
  0
LINE
  5
27965
  8
ﾊｯﾁﾝｸﾞ
  6
CONTINUOUS
 10
5348.789917056581
 20
6975.581017084565
 30
0.0
 11
5573.789917056602
 21
7200.581017084585
 31
0.0
  0
ENDBLK
  5
27A55
  8
画層2-1
  0
BLOCK
  8
画層2-1
  2
*X29
 70
     1
 10
0.0
 20
0.0
 30
0.0
  3
*X29
  1
Acad:XRef
  0
LINE
  5
27972
  8
ﾈｯﾄ
  6
CONTINUOUS
 62
   230
 10
13485.39104751598
 20
13534.17191435841
 30
0.0
 11
14860.15463385304
 21
13534.17191435841
 31
0.0
  0
LINE
  5
27973
  8
ﾈｯﾄ
  6
CONTINUOUS
 62
   230
 10
13492.84728815104
 20
13489.17191435841
 30
0.0
 11
14860.15463385304
 21
13489.17191435841
 31
0.0
  0
LINE
  5
27974
  8
ﾈｯﾄ
  6
CONTINUOUS
 62
   230
 10
13500.30352878611
 20
13444.17191435841
 30
0.0
 11
14860.15463385304
 21
13444.17191435841
 31
0.0
  0
LINE
  5
27975
  8
ﾈｯﾄ
  6
CONTINUOUS
 62
   230
 10
13507.75976942118
 20
13399.17191435841
 30
0.0
 11
14860.15463385304
 21
13399.17191435841
 31
0.0
  0
LINE
  5
27976
  8
ﾈｯﾄ
  6
CONTINUOUS
 62
   230
 10
14272.07364328768
 20
13354.17191435841
 30
0.0
 11
14860.15463385304
 21
13354.17191435841
 31
0.0
  0
LINE
  5
27977
  8
ﾈｯﾄ
  6
CONTINUOUS
 62
   230
 10
14272.07364328768
 20
13309.17191435841
 30
0.0
 11
14860.15463385304
 21
13309.17191435841
 31
0.0
  0
LINE
  5
27978
  8
ﾈｯﾄ
  6
CONTINUOUS
 62
   230
 10
14272.07364328768
 20
13264.17191435841
 30
0.0
 11
14860.15463385304
 21
13264.17191435841
 31
0.0
  0
LINE
  5
27979
  8
ﾈｯﾄ
  6
CONTINUOUS
 62
   230
 10
14272.07364328768
 20
13219.17191435841
 30
0.0
 11
14860.15463385304
 21
13219.17191435841
 31
0.0
  0
LINE
  5
2797A
  8
ﾈｯﾄ
  6
CONTINUOUS
 62
   230
 10
14272.07364328768
 20
13174.17191435841
 30
0.0
 11
14860.15463385304
 21
13174.17191435841
 31
0.0
  0
LINE
  5
2797B
  8
ﾈｯﾄ
  6
CONTINUOUS
 62
   230
 10
14272.07364328768
 20
13129.17191435841
 30
0.0
 11
14860.15463385304
 21
13129.17191435841
 31
0.0
  0
LINE
  5
2797C
  8
ﾈｯﾄ
  6
CONTINUOUS
 62
   230
 10
13559.95345386665
 20
13084.17191435841
 30
0.0
 11
14860.15463385304
 21
13084.17191435841
 31
0.0
  0
LINE
  5
2797D
  8
ﾈｯﾄ
  6
CONTINUOUS
 62
   230
 10
13567.40969450172
 20
13039.17191435841
 30
0.0
 11
14860.15463385304
 21
13039.17191435841
 31
0.0
  0
LINE
  5
2797E
  8
ﾈｯﾄ
  6
CONTINUOUS
 62
   230
 10
13574.86593513679
 20
12994.17191435841
 30
0.0
 11
14860.15463385304
 21
12994.17191435841
 31
0.0
  0
LINE
  5
2797F
  8
ﾈｯﾄ
  6
CONTINUOUS
 62
   230
 10
13582.32217577186
 20
12949.17191435841
 30
0.0
 11
14860.15463385304
 21
12949.17191435841
 31
0.0
  0
LINE
  5
27980
  8
ﾈｯﾄ
  6
CONTINUOUS
 62
   230
 10
13589.77841640693
 20
12904.17191435841
 30
0.0
 11
14860.15463385304
 21
12904.17191435841
 31
0.0
  0
LINE
  5
27981
  8
ﾈｯﾄ
  6
CONTINUOUS
 62
   230
 10
13597.23465704199
 20
12859.17191435841
 30
0.0
 11
14860.15463385304
 21
12859.17191435841
 31
0.0
  0
LINE
  5
27982
  8
ﾈｯﾄ
  6
CONTINUOUS
 62
   230
 10
13604.69089767706
 20
12814.17191435841
 30
0.0
 11
14860.15463385304
 21
12814.17191435841
 31
0.0
  0
LINE
  5
27983
  8
ﾈｯﾄ
  6
CONTINUOUS
 62
   230
 10
13612.14713831213
 20
12769.17191435841
 30
0.0
 11
14860.15463385304
 21
12769.17191435841
 31
0.0
  0
LINE
  5
27984
  8
ﾈｯﾄ
  6
CONTINUOUS
 62
   230
 10
13619.6033789472
 20
12724.17191435841
 30
0.0
 11
14860.15463385304
 21
12724.17191435841
 31
0.0
  0
LINE
  5
27985
  8
ﾈｯﾄ
  6
CONTINUOUS
 62
   230
 10
13627.05961958227
 20
12679.17191435841
 30
0.0
 11
14860.15463385304
 21
12679.17191435841
 31
0.0
  0
LINE
  5
27986
  8
ﾈｯﾄ
  6
CONTINUOUS
 62
   230
 10
13634.51586021733
 20
12634.17191435841
 30
0.0
 11
14860.15463385304
 21
12634.17191435841
 31
0.0
  0
LINE
  5
27987
  8
ﾈｯﾄ
  6
CONTINUOUS
 62
   230
 10
13641.9721008524
 20
12589.17191435841
 30
0.0
 11
14860.15463385304
 21
12589.17191435841
 31
0.0
  0
LINE
  5
27988
  8
ﾈｯﾄ
  6
CONTINUOUS
 62
   230
 10
13649.42834148747
 20
12544.17191435841
 30
0.0
 11
14860.15463385304
 21
12544.17191435841
 31
0.0
  0
LINE
  5
27989
  8
ﾈｯﾄ
  6
CONTINUOUS
 62
   230
 10
13656.88458212254
 20
12499.17191435841
 30
0.0
 11
14860.15463385304
 21
12499.17191435841
 31
0.0
  0
LINE
  5
2798A
  8
ﾈｯﾄ
  6
CONTINUOUS
 62
   230
 10
13664.34082275761
 20
12454.17191435841
 30
0.0
 11
14860.15463385304
 21
12454.17191435841
 31
0.0
  0
LINE
  5
2798B
  8
ﾈｯﾄ
  6
CONTINUOUS
 62
   230
 10
13671.79706339267
 20
12409.17191435841
 30
0.0
 11
14860.15463385304
 21
12409.17191435841
 31
0.0
  0
LINE
  5
2798C
  8
ﾈｯﾄ
  6
CONTINUOUS
 62
   230
 10
13679.25330402774
 20
12364.17191435841
 30
0.0
 11
14860.15463385304
 21
12364.17191435841
 31
0.0
  0
LINE
  5
2798D
  8
ﾈｯﾄ
  6
CONTINUOUS
 62
   230
 10
13686.70954466281
 20
12319.17191435841
 30
0.0
 11
14860.15463385304
 21
12319.17191435841
 31
0.0
  0
LINE
  5
2798E
  8
ﾈｯﾄ
  6
CONTINUOUS
 62
   230
 10
13694.16578529788
 20
12274.17191435841
 30
0.0
 11
14860.15463385304
 21
12274.17191435841
 31
0.0
  0
LINE
  5
2798F
  8
ﾈｯﾄ
  6
CONTINUOUS
 62
   230
 10
13701.62202593295
 20
12229.17191435841
 30
0.0
 11
14860.15463385304
 21
12229.17191435841
 31
0.0
  0
LINE
  5
27990
  8
ﾈｯﾄ
  6
CONTINUOUS
 62
   230
 10
13709.07826656801
 20
12184.17191435841
 30
0.0
 11
14860.15463385304
 21
12184.17191435841
 31
0.0
  0
LINE
  5
27991
  8
ﾈｯﾄ
  6
CONTINUOUS
 62
   230
 10
13716.53450720308
 20
12139.17191435841
 30
0.0
 11
14860.15463385304
 21
12139.17191435841
 31
0.0
  0
LINE
  5
27992
  8
ﾈｯﾄ
  6
CONTINUOUS
 62
   230
 10
13723.99074783815
 20
12094.17191435841
 30
0.0
 11
14860.15463385304
 21
12094.17191435841
 31
0.0
  0
LINE
  5
27993
  8
ﾈｯﾄ
  6
CONTINUOUS
 62
   230
 10
13731.44698847322
 20
12049.17191435841
 30
0.0
 11
14860.15463385304
 21
12049.17191435841
 31
0.0
  0
LINE
  5
27994
  8
ﾈｯﾄ
  6
CONTINUOUS
 62
   230
 10
13738.90322910828
 20
12004.17191435841
 30
0.0
 11
14860.15463385304
 21
12004.17191435841
 31
0.0
  0
LINE
  5
27995
  8
ﾈｯﾄ
  6
CONTINUOUS
 62
   230
 10
13746.35946974335
 20
11959.17191435841
 30
0.0
 11
14860.15463385304
 21
11959.17191435841
 31
0.0
  0
LINE
  5
27996
  8
ﾈｯﾄ
  6
CONTINUOUS
 62
   230
 10
13761.27195101348
 20
11869.17191435841
 30
0.0
 11
14860.15463385304
 21
11869.17191435841
 31
0.0
  0
LINE
  5
27997
  8
ﾈｯﾄ
  6
CONTINUOUS
 62
   230
 10
13768.72819164855
 20
11824.17191435841
 30
0.0
 11
14860.15463385304
 21
11824.17191435841
 31
0.0
  0
LINE
  5
27998
  8
ﾈｯﾄ
  6
CONTINUOUS
 62
   230
 10
13776.18443228362
 20
11779.17191435841
 30
0.0
 11
14860.15463385304
 21
11779.17191435841
 31
0.0
  0
LINE
  5
27999
  8
ﾈｯﾄ
  6
CONTINUOUS
 62
   230
 10
13783.64067291869
 20
11734.17191435841
 30
0.0
 11
14860.15463385304
 21
11734.17191435841
 31
0.0
  0
LINE
  5
2799A
  8
ﾈｯﾄ
  6
CONTINUOUS
 62
   230
 10
13791.09691355376
 20
11689.17191435841
 30
0.0
 11
14860.15463385304
 21
11689.17191435841
 31
0.0
  0
LINE
  5
2799B
  8
ﾈｯﾄ
  6
CONTINUOUS
 62
   230
 10
13798.55315418882
 20
11644.17191435841
 30
0.0
 11
14860.15463385304
 21
11644.17191435841
 31
0.0
  0
LINE
  5
2799C
  8
ﾈｯﾄ
  6
CONTINUOUS
 62
   230
 10
13806.00939482389
 20
11599.17191435841
 30
0.0
 11
14860.15463385304
 21
11599.17191435841
 31
0.0
  0
LINE
  5
2799D
  8
ﾈｯﾄ
  6
CONTINUOUS
 62
   230
 10
13813.46563545896
 20
11554.17191435841
 30
0.0
 11
14860.15463385304
 21
11554.17191435841
 31
0.0
  0
LINE
  5
2799E
  8
ﾈｯﾄ
  6
CONTINUOUS
 62
   230
 10
13820.92187609403
 20
11509.17191435841
 30
0.0
 11
14860.15463385304
 21
11509.17191435841
 31
0.0
  0
LINE
  5
2799F
  8
ﾈｯﾄ
  6
CONTINUOUS
 62
   230
 10
13828.3781167291
 20
11464.17191435841
 30
0.0
 11
14860.15463385304
 21
11464.17191435841
 31
0.0
  0
LINE
  5
279A0
  8
ﾈｯﾄ
  6
CONTINUOUS
 62
   230
 10
13835.83435736417
 20
11419.17191435841
 30
0.0
 11
14860.15463385304
 21
11419.17191435841
 31
0.0
  0
LINE
  5
279A1
  8
ﾈｯﾄ
  6
CONTINUOUS
 62
   230
 10
13843.29059799923
 20
11374.17191435841
 30
0.0
 11
14860.15463385304
 21
11374.17191435841
 31
0.0
  0
LINE
  5
279A2
  8
ﾈｯﾄ
  6
CONTINUOUS
 62
   230
 10
13850.7468386343
 20
11329.17191435841
 30
0.0
 11
14860.15463385304
 21
11329.17191435841
 31
0.0
  0
LINE
  5
279A3
  8
ﾈｯﾄ
  6
CONTINUOUS
 62
   230
 10
13858.20307926937
 20
11284.17191435841
 30
0.0
 11
14860.15463385304
 21
11284.17191435841
 31
0.0
  0
LINE
  5
279A4
  8
ﾈｯﾄ
  6
CONTINUOUS
 62
   230
 10
13865.65931990444
 20
11239.17191435841
 30
0.0
 11
14860.15463385304
 21
11239.17191435841
 31
0.0
  0
LINE
  5
279A5
  8
ﾈｯﾄ
  6
CONTINUOUS
 62
   230
 10
13873.1155605395
 20
11194.17191435841
 30
0.0
 11
14860.15463385304
 21
11194.17191435841
 31
0.0
  0
LINE
  5
279A6
  8
ﾈｯﾄ
  6
CONTINUOUS
 62
   230
 10
13880.57180117457
 20
11149.17191435841
 30
0.0
 11
14860.15463385304
 21
11149.17191435841
 31
0.0
  0
LINE
  5
279A7
  8
ﾈｯﾄ
  6
CONTINUOUS
 62
   230
 10
13888.02804180964
 20
11104.17191435841
 30
0.0
 11
14860.15463385304
 21
11104.17191435841
 31
0.0
  0
LINE
  5
279A8
  8
ﾈｯﾄ
  6
CONTINUOUS
 62
   230
 10
13895.48428244471
 20
11059.17191435841
 30
0.0
 11
14860.15463385304
 21
11059.17191435841
 31
0.0
  0
LINE
  5
279A9
  8
ﾈｯﾄ
  6
CONTINUOUS
 62
   230
 10
13902.94052307978
 20
11014.17191435841
 30
0.0
 11
14860.15463385304
 21
11014.17191435841
 31
0.0
  0
LINE
  5
279AA
  8
ﾈｯﾄ
  6
CONTINUOUS
 62
   230
 10
13910.39676371484
 20
10969.17191435841
 30
0.0
 11
14860.15463385304
 21
10969.17191435841
 31
0.0
  0
LINE
  5
279AB
  8
ﾈｯﾄ
  6
CONTINUOUS
 62
   230
 10
13917.85300434991
 20
10924.17191435841
 30
0.0
 11
14860.15463385304
 21
10924.17191435841
 31
0.0
  0
LINE
  5
279AC
  8
ﾈｯﾄ
  6
CONTINUOUS
 62
   230
 10
13925.30924498498
 20
10879.17191435841
 30
0.0
 11
14860.15463385304
 21
10879.17191435841
 31
0.0
  0
LINE
  5
279AD
  8
ﾈｯﾄ
  6
CONTINUOUS
 62
   230
 10
13932.76548562005
 20
10834.17191435841
 30
0.0
 11
14860.15463385304
 21
10834.17191435841
 31
0.0
  0
LINE
  5
279AE
  8
ﾈｯﾄ
  6
CONTINUOUS
 62
   230
 10
13940.22172625511
 20
10789.17191435841
 30
0.0
 11
14860.15463385304
 21
10789.17191435841
 31
0.0
  0
LINE
  5
279AF
  8
ﾈｯﾄ
  6
CONTINUOUS
 62
   230
 10
13947.67796689018
 20
10744.17191435841
 30
0.0
 11
14860.15463385304
 21
10744.17191435841
 31
0.0
  0
LINE
  5
279B0
  8
ﾈｯﾄ
  6
CONTINUOUS
 62
   230
 10
13955.13420752525
 20
10699.17191435841
 30
0.0
 11
14860.15463385304
 21
10699.17191435841
 31
0.0
  0
LINE
  5
279B1
  8
ﾈｯﾄ
  6
CONTINUOUS
 62
   230
 10
13962.59044816032
 20
10654.17191435841
 30
0.0
 11
14860.15463385304
 21
10654.17191435841
 31
0.0
  0
LINE
  5
279B2
  8
ﾈｯﾄ
  6
CONTINUOUS
 62
   230
 10
13970.04668879539
 20
10609.17191435841
 30
0.0
 11
14860.15463385304
 21
10609.17191435841
 31
0.0
  0
LINE
  5
279B3
  8
ﾈｯﾄ
  6
CONTINUOUS
 62
   230
 10
13977.50292943045
 20
10564.17191435841
 30
0.0
 11
14860.15463385304
 21
10564.17191435841
 31
0.0
  0
LINE
  5
279B4
  8
ﾈｯﾄ
  6
CONTINUOUS
 62
   230
 10
13984.95917006552
 20
10519.17191435841
 30
0.0
 11
14860.15463385304
 21
10519.17191435841
 31
0.0
  0
LINE
  5
279B5
  8
ﾈｯﾄ
  6
CONTINUOUS
 62
   230
 10
13992.41541070059
 20
10474.17191435841
 30
0.0
 11
14860.15463385304
 21
10474.17191435841
 31
0.0
  0
LINE
  5
279B6
  8
ﾈｯﾄ
  6
CONTINUOUS
 62
   230
 10
13999.87165133566
 20
10429.17191435841
 30
0.0
 11
14860.15463385304
 21
10429.17191435841
 31
0.0
  0
LINE
  5
279B7
  8
ﾈｯﾄ
  6
CONTINUOUS
 62
   230
 10
14007.32789197073
 20
10384.17191435841
 30
0.0
 11
14860.15463385304
 21
10384.17191435841
 31
0.0
  0
LINE
  5
279B8
  8
ﾈｯﾄ
  6
CONTINUOUS
 62
   230
 10
14014.7841326058
 20
10339.17191435841
 30
0.0
 11
14860.15463385304
 21
10339.17191435841
 31
0.0
  0
LINE
  5
279B9
  8
ﾈｯﾄ
  6
CONTINUOUS
 62
   230
 10
14022.24037324086
 20
10294.17191435841
 30
0.0
 11
14860.15463385304
 21
10294.17191435841
 31
0.0
  0
LINE
  5
279BA
  8
ﾈｯﾄ
  6
CONTINUOUS
 62
   230
 10
14037.152854511
 20
10204.17191435841
 30
0.0
 11
14860.15463385304
 21
10204.17191435841
 31
0.0
  0
LINE
  5
279BB
  8
ﾈｯﾄ
  6
CONTINUOUS
 62
   230
 10
14044.60909514607
 20
10159.17191435841
 30
0.0
 11
14860.15463385304
 21
10159.17191435841
 31
0.0
  0
LINE
  5
279BC
  8
ﾈｯﾄ
  6
CONTINUOUS
 62
   230
 10
14052.06533578114
 20
10114.17191435841
 30
0.0
 11
14860.15463385304
 21
10114.17191435841
 31
0.0
  0
LINE
  5
279BD
  8
ﾈｯﾄ
  6
CONTINUOUS
 62
   230
 10
14059.5215764162
 20
10069.17191435841
 30
0.0
 11
14860.15463385304
 21
10069.17191435841
 31
0.0
  0
LINE
  5
279BE
  8
ﾈｯﾄ
  6
CONTINUOUS
 62
   230
 10
14066.97781705127
 20
10024.17191435841
 30
0.0
 11
14860.15463385304
 21
10024.17191435841
 31
0.0
  0
LINE
  5
279BF
  8
ﾈｯﾄ
  6
CONTINUOUS
 62
   230
 10
14074.43405768634
 20
9979.171914358412
 30
0.0
 11
14860.15463385304
 21
9979.171914358414
 31
0.0
  0
LINE
  5
279C0
  8
ﾈｯﾄ
  6
CONTINUOUS
 62
   230
 10
14081.89029832141
 20
9934.171914358412
 30
0.0
 11
14860.15463385304
 21
9934.171914358414
 31
0.0
  0
LINE
  5
279C1
  8
ﾈｯﾄ
  6
CONTINUOUS
 62
   230
 10
14089.34653895648
 20
9889.171914358412
 30
0.0
 11
14860.15463385304
 21
9889.171914358414
 31
0.0
  0
LINE
  5
279C2
  8
ﾈｯﾄ
  6
CONTINUOUS
 62
   230
 10
14096.80277959154
 20
9844.171914358412
 30
0.0
 11
14860.15463385304
 21
9844.171914358414
 31
0.0
  0
LINE
  5
279C3
  8
ﾈｯﾄ
  6
CONTINUOUS
 62
   230
 10
14104.25902022661
 20
9799.171914358412
 30
0.0
 11
14860.15463385304
 21
9799.171914358414
 31
0.0
  0
LINE
  5
279C4
  8
ﾈｯﾄ
  6
CONTINUOUS
 62
   230
 10
14111.71526086168
 20
9754.171914358412
 30
0.0
 11
14860.15463385304
 21
9754.171914358414
 31
0.0
  0
LINE
  5
279C5
  8
ﾈｯﾄ
  6
CONTINUOUS
 62
   230
 10
14119.17150149675
 20
9709.171914358412
 30
0.0
 11
14860.15463385304
 21
9709.171914358414
 31
0.0
  0
LINE
  5
279C6
  8
ﾈｯﾄ
  6
CONTINUOUS
 62
   230
 10
14445.15775895437
 20
9664.171914358414
 30
0.0
 11
14860.15463385304
 21
9664.171914358414
 31
0.0
  0
LINE
  5
279C7
  8
ﾈｯﾄ
  6
CONTINUOUS
 62
   230
 10
14445.15775895437
 20
9619.171914358414
 30
0.0
 11
14860.15463385304
 21
9619.171914358414
 31
0.0
  0
LINE
  5
279C8
  8
ﾈｯﾄ
  6
CONTINUOUS
 62
   230
 10
14445.15775895437
 20
9574.171914358414
 30
0.0
 11
14860.15463385304
 21
9574.171914358414
 31
0.0
  0
LINE
  5
279C9
  8
ﾈｯﾄ
  6
CONTINUOUS
 62
   230
 10
14445.15775895437
 20
9529.171914358414
 30
0.0
 11
14860.15463385304
 21
9529.171914358414
 31
0.0
  0
LINE
  5
279CA
  8
ﾈｯﾄ
  6
CONTINUOUS
 62
   230
 10
14445.15775895437
 20
9484.171914358414
 30
0.0
 11
14860.15463385304
 21
9484.171914358414
 31
0.0
  0
LINE
  5
279CB
  8
ﾈｯﾄ
  6
CONTINUOUS
 62
   230
 10
14445.15775895437
 20
9439.171914358414
 30
0.0
 11
14860.15463385304
 21
9439.171914358414
 31
0.0
  0
LINE
  5
279CC
  8
ﾈｯﾄ
  6
CONTINUOUS
 62
   230
 10
14171.36518594222
 20
9394.171914358414
 30
0.0
 11
14860.15463385304
 21
9394.171914358414
 31
0.0
  0
LINE
  5
279CD
  8
ﾈｯﾄ
  6
CONTINUOUS
 62
   230
 10
14178.82142657729
 20
9349.171914358414
 30
0.0
 11
14860.15463385304
 21
9349.171914358414
 31
0.0
  0
LINE
  5
279CE
  8
ﾈｯﾄ
  6
CONTINUOUS
 62
   230
 10
14186.27766721236
 20
9304.171914358414
 30
0.0
 11
14860.15463385304
 21
9304.171914358414
 31
0.0
  0
LINE
  5
279CF
  8
ﾈｯﾄ
  6
CONTINUOUS
 62
   230
 10
14193.73390784743
 20
9259.171914358414
 30
0.0
 11
14860.15463385304
 21
9259.171914358414
 31
0.0
  0
LINE
  5
279D0
  8
ﾈｯﾄ
  6
CONTINUOUS
 62
   230
 10
14201.19014848249
 20
9214.171914358414
 30
0.0
 11
14860.15463385304
 21
9214.171914358414
 31
0.0
  0
LINE
  5
279D1
  8
ﾈｯﾄ
  6
CONTINUOUS
 62
   230
 10
14208.64638911756
 20
9169.171914358414
 30
0.0
 11
14860.15463385304
 21
9169.171914358414
 31
0.0
  0
LINE
  5
279D2
  8
ﾈｯﾄ
  6
CONTINUOUS
 62
   230
 10
14216.10262975263
 20
9124.171914358414
 30
0.0
 11
14860.15463385304
 21
9124.171914358414
 31
0.0
  0
LINE
  5
279D3
  8
ﾈｯﾄ
  6
CONTINUOUS
 62
   230
 10
14223.5588703877
 20
9079.171914358414
 30
0.0
 11
14860.15463385304
 21
9079.171914358414
 31
0.0
  0
LINE
  5
279D4
  8
ﾈｯﾄ
  6
CONTINUOUS
 62
   230
 10
14231.01511102277
 20
9034.171914358414
 30
0.0
 11
14860.15463385304
 21
9034.171914358414
 31
0.0
  0
LINE
  5
279D5
  8
ﾈｯﾄ
  6
CONTINUOUS
 62
   230
 10
14238.47135165783
 20
8989.171914358414
 30
0.0
 11
14860.15463385304
 21
8989.171914358414
 31
0.0
  0
LINE
  5
279D6
  8
ﾈｯﾄ
  6
CONTINUOUS
 62
   230
 10
14245.9275922929
 20
8944.171914358414
 30
0.0
 11
14860.15463385304
 21
8944.171914358414
 31
0.0
  0
LINE
  5
279D7
  8
ﾈｯﾄ
  6
CONTINUOUS
 62
   230
 10
14253.38383292797
 20
8899.171914358414
 30
0.0
 11
14860.15463385304
 21
8899.171914358414
 31
0.0
  0
LINE
  5
279D8
  8
ﾈｯﾄ
  6
CONTINUOUS
 62
   230
 10
14260.84007356304
 20
8854.171914358414
 30
0.0
 11
14860.15463385304
 21
8854.171914358414
 31
0.0
  0
LINE
  5
279D9
  8
ﾈｯﾄ
  6
CONTINUOUS
 62
   230
 10
14268.29631419811
 20
8809.171914358414
 30
0.0
 11
14860.15463385304
 21
8809.171914358414
 31
0.0
  0
LINE
  5
279DA
  8
ﾈｯﾄ
  6
CONTINUOUS
 62
   230
 10
14275.75255483317
 20
8764.171914358414
 30
0.0
 11
14860.15463385304
 21
8764.171914358414
 31
0.0
  0
LINE
  5
279DB
  8
ﾈｯﾄ
  6
CONTINUOUS
 62
   230
 10
14283.20879546824
 20
8719.171914358414
 30
0.0
 11
14860.15463385304
 21
8719.171914358414
 31
0.0
  0
LINE
  5
279DC
  8
ﾈｯﾄ
  6
CONTINUOUS
 62
   230
 10
14290.66503610331
 20
8674.171914358414
 30
0.0
 11
14860.15463385304
 21
8674.171914358414
 31
0.0
  0
LINE
  5
279DD
  8
ﾈｯﾄ
  6
CONTINUOUS
 62
   230
 10
13518.79029843286
 20
13389.80970264447
 30
0.0
 11
13518.79029843286
 21
13537.59797510493
 31
0.0
  0
LINE
  5
279DE
  8
ﾈｯﾄ
  6
CONTINUOUS
 62
   230
 10
13563.79029843286
 20
13061.01574036541
 30
0.0
 11
13563.79029843286
 21
13091.80970264447
 31
0.0
  0
LINE
  5
279DF
  8
ﾈｯﾄ
  6
CONTINUOUS
 62
   230
 10
13608.79029843286
 20
12789.43115785126
 30
0.0
 11
13608.79029843286
 21
13091.80970264447
 31
0.0
  0
LINE
  5
279E0
  8
ﾈｯﾄ
  6
CONTINUOUS
 62
   230
 10
13653.79029843286
 20
12517.8465753371
 30
0.0
 11
13653.79029843286
 21
13091.80970264447
 31
0.0
  0
LINE
  5
279E1
  8
ﾈｯﾄ
  6
CONTINUOUS
 62
   230
 10
13698.79029843286
 20
12246.26199282295
 30
0.0
 11
13698.79029843286
 21
13091.80970264447
 31
0.0
  0
LINE
  5
279E2
  8
ﾈｯﾄ
  6
CONTINUOUS
 62
   230
 10
13743.79029843286
 20
11974.6774103088
 30
0.0
 11
13743.79029843286
 21
13091.80970264447
 31
0.0
  0
LINE
  5
279E3
  8
ﾈｯﾄ
  6
CONTINUOUS
 62
   230
 10
13563.79029843286
 20
13389.80970264447
 30
0.0
 11
13563.79029843286
 21
13537.59797510493
 31
0.0
  0
LINE
  5
279E4
  8
ﾈｯﾄ
  6
CONTINUOUS
 62
   230
 10
13608.79029843286
 20
13389.80970264447
 30
0.0
 11
13608.79029843286
 21
13537.59797510493
 31
0.0
  0
LINE
  5
279E5
  8
ﾈｯﾄ
  6
CONTINUOUS
 62
   230
 10
13653.79029843286
 20
13389.80970264447
 30
0.0
 11
13653.79029843286
 21
13537.59797510493
 31
0.0
  0
LINE
  5
279E6
  8
ﾈｯﾄ
  6
CONTINUOUS
 62
   230
 10
13698.79029843286
 20
13389.80970264447
 30
0.0
 11
13698.79029843286
 21
13537.59797510493
 31
0.0
  0
LINE
  5
279E7
  8
ﾈｯﾄ
  6
CONTINUOUS
 62
   230
 10
13743.79029843286
 20
13389.80970264447
 30
0.0
 11
13743.79029843286
 21
13537.59797510493
 31
0.0
  0
LINE
  5
279E8
  8
ﾈｯﾄ
  6
CONTINUOUS
 62
   230
 10
13788.79029843286
 20
11703.09282779462
 30
0.0
 11
13788.79029843286
 21
11887.59797510487
 31
0.0
  0
LINE
  5
279E9
  8
ﾈｯﾄ
  6
CONTINUOUS
 62
   230
 10
13833.79029843286
 20
11431.50824528047
 30
0.0
 11
13833.79029843286
 21
11887.59797510487
 31
0.0
  0
LINE
  5
279EA
  8
ﾈｯﾄ
  6
CONTINUOUS
 62
   230
 10
13878.79029843286
 20
11159.92366276631
 30
0.0
 11
13878.79029843286
 21
11887.59797510487
 31
0.0
  0
LINE
  5
279EB
  8
ﾈｯﾄ
  6
CONTINUOUS
 62
   230
 10
13923.79029843286
 20
10888.33908025216
 30
0.0
 11
13923.79029843286
 21
11887.59797510487
 31
0.0
  0
LINE
  5
279EC
  8
ﾈｯﾄ
  6
CONTINUOUS
 62
   230
 10
13968.79029843286
 20
10616.754497738
 30
0.0
 11
13968.79029843286
 21
11887.59797510487
 31
0.0
  0
LINE
  5
279ED
  8
ﾈｯﾄ
  6
CONTINUOUS
 62
   230
 10
14013.79029843286
 20
10345.16991522385
 30
0.0
 11
14013.79029843286
 21
11887.59797510487
 31
0.0
  0
LINE
  5
279EE
  8
ﾈｯﾄ
  6
CONTINUOUS
 62
   230
 10
13788.79029843286
 20
11927.59797510487
 30
0.0
 11
13788.79029843286
 21
13091.80970264447
 31
0.0
  0
LINE
  5
279EF
  8
ﾈｯﾄ
  6
CONTINUOUS
 62
   230
 10
13833.79029843286
 20
11927.59797510487
 30
0.0
 11
13833.79029843286
 21
13091.80970264447
 31
0.0
  0
LINE
  5
279F0
  8
ﾈｯﾄ
  6
CONTINUOUS
 62
   230
 10
13878.79029843286
 20
11927.59797510487
 30
0.0
 11
13878.79029843286
 21
13091.80970264447
 31
0.0
  0
LINE
  5
279F1
  8
ﾈｯﾄ
  6
CONTINUOUS
 62
   230
 10
13923.79029843286
 20
11927.59797510487
 30
0.0
 11
13923.79029843286
 21
13091.80970264447
 31
0.0
  0
LINE
  5
279F2
  8
ﾈｯﾄ
  6
CONTINUOUS
 62
   230
 10
13968.79029843286
 20
11927.59797510487
 30
0.0
 11
13968.79029843286
 21
13091.80970264447
 31
0.0
  0
LINE
  5
279F3
  8
ﾈｯﾄ
  6
CONTINUOUS
 62
   230
 10
14013.79029843286
 20
11927.59797510487
 30
0.0
 11
14013.79029843286
 21
13091.80970264447
 31
0.0
  0
LINE
  5
279F4
  8
ﾈｯﾄ
  6
CONTINUOUS
 62
   230
 10
13788.79029843286
 20
13389.80970264447
 30
0.0
 11
13788.79029843286
 21
13537.59797510493
 31
0.0
  0
LINE
  5
279F5
  8
ﾈｯﾄ
  6
CONTINUOUS
 62
   230
 10
13833.79029843286
 20
13389.80970264447
 30
0.0
 11
13833.79029843286
 21
13537.59797510493
 31
0.0
  0
LINE
  5
279F6
  8
ﾈｯﾄ
  6
CONTINUOUS
 62
   230
 10
13878.79029843286
 20
13389.80970264447
 30
0.0
 11
13878.79029843286
 21
13537.59797510493
 31
0.0
  0
LINE
  5
279F7
  8
ﾈｯﾄ
  6
CONTINUOUS
 62
   230
 10
13923.79029843286
 20
13389.80970264447
 30
0.0
 11
13923.79029843286
 21
13537.59797510493
 31
0.0
  0
LINE
  5
279F8
  8
ﾈｯﾄ
  6
CONTINUOUS
 62
   230
 10
13968.79029843286
 20
13389.80970264447
 30
0.0
 11
13968.79029843286
 21
13537.59797510493
 31
0.0
  0
LINE
  5
279F9
  8
ﾈｯﾄ
  6
CONTINUOUS
 62
   230
 10
14013.79029843286
 20
13389.80970264447
 30
0.0
 11
14013.79029843286
 21
13537.59797510493
 31
0.0
  0
LINE
  5
279FA
  8
ﾈｯﾄ
  6
CONTINUOUS
 62
   230
 10
14058.79029843286
 20
10073.5853327097
 30
0.0
 11
14058.79029843286
 21
10237.59797510487
 31
0.0
  0
LINE
  5
279FB
  8
ﾈｯﾄ
  6
CONTINUOUS
 62
   230
 10
14103.79029843286
 20
9802.000750195542
 30
0.0
 11
14103.79029843286
 21
10237.59797510487
 31
0.0
  0
LINE
  5
279FC
  8
ﾈｯﾄ
  6
CONTINUOUS
 62
   230
 10
14058.79029843286
 20
10277.59797510487
 30
0.0
 11
14058.79029843286
 21
11887.59797510487
 31
0.0
  0
LINE
  5
279FD
  8
ﾈｯﾄ
  6
CONTINUOUS
 62
   230
 10
14103.79029843286
 20
10277.59797510487
 30
0.0
 11
14103.79029843286
 21
11887.59797510487
 31
0.0
  0
LINE
  5
279FE
  8
ﾈｯﾄ
  6
CONTINUOUS
 62
   230
 10
14058.79029843286
 20
11927.59797510487
 30
0.0
 11
14058.79029843286
 21
13091.80970264447
 31
0.0
  0
LINE
  5
279FF
  8
ﾈｯﾄ
  6
CONTINUOUS
 62
   230
 10
14103.79029843286
 20
11927.59797510487
 30
0.0
 11
14103.79029843286
 21
13091.80970264447
 31
0.0
  0
LINE
  5
27A00
  8
ﾈｯﾄ
  6
CONTINUOUS
 62
   230
 10
14058.79029843286
 20
13389.80970264447
 30
0.0
 11
14058.79029843286
 21
13537.59797510493
 31
0.0
  0
LINE
  5
27A01
  8
ﾈｯﾄ
  6
CONTINUOUS
 62
   230
 10
14103.79029843286
 20
13389.80970264447
 30
0.0
 11
14103.79029843286
 21
13537.59797510493
 31
0.0
  0
LINE
  5
27A02
  8
ﾈｯﾄ
  6
CONTINUOUS
 62
   230
 10
14148.79029843286
 20
9697.183752472512
 30
0.0
 11
14148.79029843286
 21
10237.59797510487
 31
0.0
  0
LINE
  5
27A03
  8
ﾈｯﾄ
  6
CONTINUOUS
 62
   230
 10
14193.79029843286
 20
9697.183752472512
 30
0.0
 11
14193.79029843286
 21
10237.59797510487
 31
0.0
  0
LINE
  5
27A04
  8
ﾈｯﾄ
  6
CONTINUOUS
 62
   230
 10
14238.79029843286
 20
9697.183752472512
 30
0.0
 11
14238.79029843286
 21
10237.59797510487
 31
0.0
  0
LINE
  5
27A05
  8
ﾈｯﾄ
  6
CONTINUOUS
 62
   230
 10
14148.79029843286
 20
10277.59797510487
 30
0.0
 11
14148.79029843286
 21
11887.59797510487
 31
0.0
  0
LINE
  5
27A06
  8
ﾈｯﾄ
  6
CONTINUOUS
 62
   230
 10
14193.79029843286
 20
10277.59797510487
 30
0.0
 11
14193.79029843286
 21
11887.59797510487
 31
0.0
  0
LINE
  5
27A07
  8
ﾈｯﾄ
  6
CONTINUOUS
 62
   230
 10
14238.79029843286
 20
10277.59797510487
 30
0.0
 11
14238.79029843286
 21
11887.59797510487
 31
0.0
  0
LINE
  5
27A08
  8
ﾈｯﾄ
  6
CONTINUOUS
 62
   230
 10
14148.79029843286
 20
11927.59797510487
 30
0.0
 11
14148.79029843286
 21
13091.80970264447
 31
0.0
  0
LINE
  5
27A09
  8
ﾈｯﾄ
  6
CONTINUOUS
 62
   230
 10
14193.79029843286
 20
11927.59797510487
 30
0.0
 11
14193.79029843286
 21
13091.80970264447
 31
0.0
  0
LINE
  5
27A0A
  8
ﾈｯﾄ
  6
CONTINUOUS
 62
   230
 10
14238.79029843286
 20
11927.59797510487
 30
0.0
 11
14238.79029843286
 21
13091.80970264447
 31
0.0
  0
LINE
  5
27A0B
  8
ﾈｯﾄ
  6
CONTINUOUS
 62
   230
 10
14148.79029843286
 20
13389.80970264447
 30
0.0
 11
14148.79029843286
 21
13537.59797510493
 31
0.0
  0
LINE
  5
27A0C
  8
ﾈｯﾄ
  6
CONTINUOUS
 62
   230
 10
14193.79029843286
 20
13389.80970264447
 30
0.0
 11
14193.79029843286
 21
13537.59797510493
 31
0.0
  0
LINE
  5
27A0D
  8
ﾈｯﾄ
  6
CONTINUOUS
 62
   230
 10
14238.79029843286
 20
13389.80970264447
 30
0.0
 11
14238.79029843286
 21
13537.59797510493
 31
0.0
  0
LINE
  5
27A0E
  8
ﾈｯﾄ
  6
CONTINUOUS
 62
   230
 10
14283.79029843286
 20
9697.183752472512
 30
0.0
 11
14283.79029843286
 21
10237.59797510487
 31
0.0
  0
LINE
  5
27A0F
  8
ﾈｯﾄ
  6
CONTINUOUS
 62
   230
 10
14283.79029843286
 20
10277.59797510487
 30
0.0
 11
14283.79029843286
 21
11887.59797510487
 31
0.0
  0
LINE
  5
27A10
  8
ﾈｯﾄ
  6
CONTINUOUS
 62
   230
 10
14283.79029843286
 20
11927.59797510487
 30
0.0
 11
14283.79029843286
 21
13537.59797510493
 31
0.0
  0
LINE
  5
27A11
  8
ﾈｯﾄ
  6
CONTINUOUS
 62
   230
 10
14328.79029843286
 20
8662.597975104874
 30
0.0
 11
14328.79029843286
 21
9399.183752472512
 31
0.0
  0
LINE
  5
27A12
  8
ﾈｯﾄ
  6
CONTINUOUS
 62
   230
 10
14373.79029843286
 20
8662.597975104874
 30
0.0
 11
14373.79029843286
 21
9399.183752472512
 31
0.0
  0
LINE
  5
27A13
  8
ﾈｯﾄ
  6
CONTINUOUS
 62
   230
 10
14418.79029843286
 20
8662.597975104874
 30
0.0
 11
14418.79029843286
 21
9399.183752472512
 31
0.0
  0
LINE
  5
27A14
  8
ﾈｯﾄ
  6
CONTINUOUS
 62
   230
 10
14328.79029843286
 20
9697.183752472512
 30
0.0
 11
14328.79029843286
 21
10237.59797510487
 31
0.0
  0
LINE
  5
27A15
  8
ﾈｯﾄ
  6
CONTINUOUS
 62
   230
 10
14373.79029843286
 20
9697.183752472512
 30
0.0
 11
14373.79029843286
 21
10237.59797510487
 31
0.0
  0
LINE
  5
27A16
  8
ﾈｯﾄ
  6
CONTINUOUS
 62
   230
 10
14418.79029843286
 20
9697.183752472512
 30
0.0
 11
14418.79029843286
 21
10237.59797510487
 31
0.0
  0
LINE
  5
27A17
  8
ﾈｯﾄ
  6
CONTINUOUS
 62
   230
 10
14328.79029843286
 20
10277.59797510487
 30
0.0
 11
14328.79029843286
 21
11887.59797510487
 31
0.0
  0
LINE
  5
27A18
  8
ﾈｯﾄ
  6
CONTINUOUS
 62
   230
 10
14373.79029843286
 20
10277.59797510487
 30
0.0
 11
14373.79029843286
 21
11887.59797510487
 31
0.0
  0
LINE
  5
27A19
  8
ﾈｯﾄ
  6
CONTINUOUS
 62
   230
 10
14418.79029843286
 20
10277.59797510487
 30
0.0
 11
14418.79029843286
 21
11887.59797510487
 31
0.0
  0
LINE
  5
27A1A
  8
ﾈｯﾄ
  6
CONTINUOUS
 62
   230
 10
14328.79029843286
 20
11927.59797510487
 30
0.0
 11
14328.79029843286
 21
13537.59797510493
 31
0.0
  0
LINE
  5
27A1B
  8
ﾈｯﾄ
  6
CONTINUOUS
 62
   230
 10
14373.79029843286
 20
11927.59797510487
 30
0.0
 11
14373.79029843286
 21
13537.59797510493
 31
0.0
  0
LINE
  5
27A1C
  8
ﾈｯﾄ
  6
CONTINUOUS
 62
   230
 10
14418.79029843286
 20
11927.59797510487
 30
0.0
 11
14418.79029843286
 21
13537.59797510493
 31
0.0
  0
LINE
  5
27A1D
  8
ﾈｯﾄ
  6
CONTINUOUS
 62
   230
 10
14463.79029843286
 20
8662.597975104874
 30
0.0
 11
14463.79029843286
 21
10237.59797510487
 31
0.0
  0
LINE
  5
27A1E
  8
ﾈｯﾄ
  6
CONTINUOUS
 62
   230
 10
14508.79029843286
 20
8662.597975104874
 30
0.0
 11
14508.79029843286
 21
10237.59797510487
 31
0.0
  0
LINE
  5
27A1F
  8
ﾈｯﾄ
  6
CONTINUOUS
 62
   230
 10
14553.79029843286
 20
8662.597975104874
 30
0.0
 11
14553.79029843286
 21
10237.59797510487
 31
0.0
  0
LINE
  5
27A20
  8
ﾈｯﾄ
  6
CONTINUOUS
 62
   230
 10
14598.79029843286
 20
8662.597975104873
 30
0.0
 11
14598.79029843286
 21
10237.59797510487
 31
0.0
  0
LINE
  5
27A21
  8
ﾈｯﾄ
  6
CONTINUOUS
 62
   230
 10
14643.79029843286
 20
8662.597975104873
 30
0.0
 11
14643.79029843286
 21
10237.59797510487
 31
0.0
  0
LINE
  5
27A22
  8
ﾈｯﾄ
  6
CONTINUOUS
 62
   230
 10
14688.79029843286
 20
8662.597975104873
 30
0.0
 11
14688.79029843286
 21
10237.59797510487
 31
0.0
  0
LINE
  5
27A23
  8
ﾈｯﾄ
  6
CONTINUOUS
 62
   230
 10
14733.79029843286
 20
8662.597975104873
 30
0.0
 11
14733.79029843286
 21
10237.59797510487
 31
0.0
  0
LINE
  5
27A24
  8
ﾈｯﾄ
  6
CONTINUOUS
 62
   230
 10
14778.79029843286
 20
8662.597975104873
 30
0.0
 11
14778.79029843286
 21
10237.59797510487
 31
0.0
  0
LINE
  5
27A25
  8
ﾈｯﾄ
  6
CONTINUOUS
 62
   230
 10
14823.79029843286
 20
8662.597975104873
 30
0.0
 11
14823.79029843286
 21
10237.59797510487
 31
0.0
  0
LINE
  5
27A26
  8
ﾈｯﾄ
  6
CONTINUOUS
 62
   230
 10
14463.79029843286
 20
10277.59797510487
 30
0.0
 11
14463.79029843286
 21
11887.59797510487
 31
0.0
  0
LINE
  5
27A27
  8
ﾈｯﾄ
  6
CONTINUOUS
 62
   230
 10
14508.79029843286
 20
10277.59797510487
 30
0.0
 11
14508.79029843286
 21
11887.59797510487
 31
0.0
  0
LINE
  5
27A28
  8
ﾈｯﾄ
  6
CONTINUOUS
 62
   230
 10
14553.79029843286
 20
10277.59797510487
 30
0.0
 11
14553.79029843286
 21
11887.59797510487
 31
0.0
  0
LINE
  5
27A29
  8
ﾈｯﾄ
  6
CONTINUOUS
 62
   230
 10
14598.79029843286
 20
10277.59797510487
 30
0.0
 11
14598.79029843286
 21
11887.59797510487
 31
0.0
  0
LINE
  5
27A2A
  8
ﾈｯﾄ
  6
CONTINUOUS
 62
   230
 10
14643.79029843286
 20
10277.59797510487
 30
0.0
 11
14643.79029843286
 21
11887.59797510487
 31
0.0
  0
LINE
  5
27A2B
  8
ﾈｯﾄ
  6
CONTINUOUS
 62
   230
 10
14688.79029843286
 20
10277.59797510487
 30
0.0
 11
14688.79029843286
 21
11887.59797510487
 31
0.0
  0
LINE
  5
27A2C
  8
ﾈｯﾄ
  6
CONTINUOUS
 62
   230
 10
14733.79029843286
 20
10277.59797510487
 30
0.0
 11
14733.79029843286
 21
11887.59797510487
 31
0.0
  0
LINE
  5
27A2D
  8
ﾈｯﾄ
  6
CONTINUOUS
 62
   230
 10
14778.79029843286
 20
10277.59797510487
 30
0.0
 11
14778.79029843286
 21
11887.59797510487
 31
0.0
  0
LINE
  5
27A2E
  8
ﾈｯﾄ
  6
CONTINUOUS
 62
   230
 10
14823.79029843286
 20
10277.59797510487
 30
0.0
 11
14823.79029843286
 21
11887.59797510487
 31
0.0
  0
LINE
  5
27A2F
  8
ﾈｯﾄ
  6
CONTINUOUS
 62
   230
 10
14463.79029843286
 20
11927.59797510487
 30
0.0
 11
14463.79029843286
 21
13537.59797510493
 31
0.0
  0
LINE
  5
27A30
  8
ﾈｯﾄ
  6
CONTINUOUS
 62
   230
 10
14508.79029843286
 20
11927.59797510487
 30
0.0
 11
14508.79029843286
 21
13537.59797510493
 31
0.0
  0
LINE
  5
27A31
  8
ﾈｯﾄ
  6
CONTINUOUS
 62
   230
 10
14553.79029843286
 20
11927.59797510487
 30
0.0
 11
14553.79029843286
 21
13537.59797510493
 31
0.0
  0
LINE
  5
27A32
  8
ﾈｯﾄ
  6
CONTINUOUS
 62
   230
 10
14598.79029843286
 20
11927.59797510487
 30
0.0
 11
14598.79029843286
 21
13537.59797510493
 31
0.0
  0
LINE
  5
27A33
  8
ﾈｯﾄ
  6
CONTINUOUS
 62
   230
 10
14643.79029843286
 20
11927.59797510487
 30
0.0
 11
14643.79029843286
 21
13537.59797510493
 31
0.0
  0
LINE
  5
27A34
  8
ﾈｯﾄ
  6
CONTINUOUS
 62
   230
 10
14688.79029843286
 20
11927.59797510487
 30
0.0
 11
14688.79029843286
 21
13537.59797510493
 31
0.0
  0
LINE
  5
27A35
  8
ﾈｯﾄ
  6
CONTINUOUS
 62
   230
 10
14733.79029843286
 20
11927.59797510487
 30
0.0
 11
14733.79029843286
 21
13537.59797510493
 31
0.0
  0
LINE
  5
27A36
  8
ﾈｯﾄ
  6
CONTINUOUS
 62
   230
 10
14778.79029843286
 20
11927.59797510487
 30
0.0
 11
14778.79029843286
 21
13537.59797510493
 31
0.0
  0
LINE
  5
27A37
  8
ﾈｯﾄ
  6
CONTINUOUS
 62
   230
 10
14823.79029843286
 20
11927.59797510487
 30
0.0
 11
14823.79029843286
 21
13537.59797510493
 31
0.0
  0
ENDBLK
  5
27A57
  8
画層2-1
  0
ENDSEC
  0
SECTION
  2
ENTITIES
  0
INSERT
  5
2549E
  8
ﾈｯﾄ
 62
   230
  2
*X24
 10
0.0
 20
0.0
 30
0.0
1001
ACAD
1000
HATCH
1002
{
1070
    19
1000
NET
1040
360.0
1040
0.0
1000
R14_HATCH_DATA
1000
2549E
1011
1.0
1021
0.0
1031
0.0
1021
0.0
1031
0.0
1011
0.0
1021
1.0
1031
0.0
1021
1.0
1031
0.0
1011
0.0
1021
0.0
1031
1.0
1021
0.0
1031
1.0
1040
0.0
1010
0.0
1020
0.0
1030
1.0
1020
0.0
1030
1.0
1000
NET
1070
     0
1070
     1
1071
        4
1071
        7
1070
     0
1070
     1
1071
        8
1040
7028.050730469154
1040
8662.597975104873
1040
6767.082308241783
1040
10237.59797510487
1040
5494.139917056694
1040
10237.59797510487
1040
5494.139917056694
1040
10232.59797510486
1040
5444.139917056695
1040
10232.59797510486
1040
5444.139917056694
1040
8667.597975104858
1040
5494.139917056694
1040
8667.597975104858
1040
5494.139917056692
1040
8662.597975104873
1071
        0
1071
        7
1070
     0
1070
     1
1071
        8
1040
6493.6868182893
1040
11887.59797510487
1040
5494.139917056673
1040
11887.59797510487
1040
5494.139917056675
1040
11882.59797510485
1040
5444.139917056696
1040
11882.59797510485
1040
5444.139917056696
1040
10282.59797510486
1040
5494.139917056695
1040
10282.59797510486
1040
5494.139917056694
1040
10277.59797510487
1040
6760.45453878839
1040
10277.59797510487
1071
        0
1071
        7
1070
     0
1070
     1
1071
       10
1040
6234.731581033395
1040
13450.44797510489
1040
5544.139917056811
1040
13450.44797510489
1040
5544.139917056811
1040
13507.59797510492
1040
5494.139917056695
1040
13507.59797510492
1040
5494.139917056695
1040
13482.59797510491
1040
5444.139917056695
1040
13482.59797510492
1040
5444.139917056696
1040
11932.59797510486
1040
5494.139917056673
1040
11932.59797510486
1040
5494.139917056672
1040
11927.59797510487
1040
6487.059048835908
1040
11927.59797510487
1071
        0
1071
        7
1070
     0
1070
     1
1071
        4
1040
6234.731581033393
1040
13450.44797510489
1040
6215.792729820325
1040
13564.74797510488
1040
5544.139917056812
1040
13564.74797510488
1040
5544.139917056811
1040
13450.44797510489
1071
        0
1070
     0
1070
     1
1040
0.0
1040
360.0
1070
     0
1070
     2
1040
0.0
1040
0.0
1040
-300.0
1040
0.0
1040
45.0
1070
     0
1040
1.570796326794897
1040
0.0
1040
-300.0
1040
-45.0
1040
0.0000000000000028
1070
     0
1040
1.625749480049223
1071
        4
1040
6170.920905848034
1040
9299.637531306827
1040
0.0
1040
6098.266089458484
1040
11187.99232845777
1040
0.0
1040
5952.956456678919
1040
12531.6279765896
1040
0.0
1040
5693.587922703475
1040
13495.57682677754
1040
0.0
1002
}
  0
LINE
  5
254A2
  8
画層2-1
  6
CONTINUOUS
 10
18996.29705991309
 20
8717.597975104858
 30
0.0
 11
19186.99705991328
 21
8717.597975104858
 31
0.0
  0
LINE
  5
254A3
  8
画層2-1
  6
CONTINUOUS
 10
18996.29705991309
 20
8467.597975104858
 30
0.0
 11
19186.99705991328
 21
8467.597975104858
 31
0.0
  0
POLYLINE
  5
254A6
  8
画層1
  6
CONTINUOUS
 66
     1
 10
0.0
 20
0.0
 30
0.0
 70
     1
  0
VERTEX
  5
278AC
  8
画層1
  6
CONTINUOUS
 10
11190.63991705646
 20
13582.59797510492
 30
0.0
  0
VERTEX
  5
278AD
  8
画層1
  6
CONTINUOUS
 10
11506.93991705662
 20
13582.59797510491
 30
0.0
  0
VERTEX
  5
278AE
  8
画層1
  6
CONTINUOUS
 10
11506.93991705662
 20
13532.59797510491
 30
0.0
  0
VERTEX
  5
278AF
  8
画層1
  6
CONTINUOUS
 10
11190.63991705646
 20
13532.59797510492
 30
0.0
  0
SEQEND
  5
27A58
  8
画層1
  6
CONTINUOUS
  0
CIRCLE
  5
254A7
  8
画層1
  6
CONTINUOUS
 10
11481.93991705662
 20
13557.59797510491
 30
0.0
 40
10.9509940156
  0
CIRCLE
  5
254A8
  8
画層1
  6
CONTINUOUS
 10
11215.63991705646
 20
13557.59797510492
 30
0.0
 40
10.9509940156
  0
LINE
  5
254A9
  8
画層1
  6
CONTINUOUS
 10
11323.7899170566
 20
13532.59797510492
 30
0.0
 11
11323.7899170566
 21
13582.59797510492
 31
0.0
  0
LINE
  5
254AA
  8
画層1
  6
CONTINUOUS
 10
11373.7899170566
 20
13532.59797510492
 30
0.0
 11
11373.7899170566
 21
13582.59797510492
 31
0.0
  0
LINE
  5
254AB
  8
画層1
  6
CONTINUOUS
 10
11373.7899170566
 20
13482.59797510492
 30
0.0
 11
11373.7899170566
 21
13532.59797510492
 31
0.0
  0
LINE
  5
254AC
  8
画層1
  6
CONTINUOUS
 10
11323.7899170566
 20
13482.59797510492
 30
0.0
 11
11323.7899170566
 21
13532.59797510492
 31
0.0
  0
CIRCLE
  5
254AD
  8
画層1
  6
CONTINUOUS
 10
11215.63991705646
 20
13507.59797510492
 30
0.0
 40
10.9509940156
  0
CIRCLE
  5
254AE
  8
画層1
  6
CONTINUOUS
 10
11481.93991705662
 20
13507.59797510491
 30
0.0
 40
10.9509940156
  0
POLYLINE
  5
254AF
  8
画層1
  6
CONTINUOUS
 66
     1
 10
0.0
 20
0.0
 30
0.0
 70
     1
  0
VERTEX
  5
278B0
  8
画層1
  6
CONTINUOUS
 10
11190.63991705646
 20
13532.59797510492
 30
0.0
  0
VERTEX
  5
278B1
  8
画層1
  6
CONTINUOUS
 10
11506.93991705662
 20
13532.59797510491
 30
0.0
  0
VERTEX
  5
278B2
  8
画層1
  6
CONTINUOUS
 10
11506.93991705662
 20
13482.59797510491
 30
0.0
  0
VERTEX
  5
278B3
  8
画層1
  6
CONTINUOUS
 10
11190.63991705646
 20
13482.59797510492
 30
0.0
  0
SEQEND
  5
27A59
  8
画層1
  6
CONTINUOUS
  0
POLYLINE
  5
254B0
  8
画層1
  6
CONTINUOUS
 66
     1
 10
0.0
 20
0.0
 30
0.0
 70
     1
  0
VERTEX
  5
278B4
  8
画層1
  6
CONTINUOUS
 10
11190.63991705644
 20
11932.59797510486
 30
0.0
  0
VERTEX
  5
278B5
  8
画層1
  6
CONTINUOUS
 10
11506.9399170566
 20
11932.59797510486
 30
0.0
  0
VERTEX
  5
278B6
  8
画層1
  6
CONTINUOUS
 10
11506.9399170566
 20
11882.59797510486
 30
0.0
  0
VERTEX
  5
278B7
  8
画層1
  6
CONTINUOUS
 10
11190.63991705644
 20
11882.59797510486
 30
0.0
  0
SEQEND
  5
27A5A
  8
画層1
  6
CONTINUOUS
  0
CIRCLE
  5
254B1
  8
画層1
  6
CONTINUOUS
 10
11481.9399170566
 20
11907.59797510486
 30
0.0
 40
10.9509940156
  0
CIRCLE
  5
254B2
  8
画層1
  6
CONTINUOUS
 10
11215.63991705644
 20
11907.59797510486
 30
0.0
 40
10.9509940156
  0
LINE
  5
254B3
  8
画層1
  6
CONTINUOUS
 10
11323.78991705658
 20
11882.59797510486
 30
0.0
 11
11323.78991705658
 21
11932.59797510486
 31
0.0
  0
LINE
  5
254B4
  8
画層1
  6
CONTINUOUS
 10
11373.78991705658
 20
11882.59797510486
 30
0.0
 11
11373.78991705658
 21
11932.59797510486
 31
0.0
  0
POLYLINE
  5
254BA
  8
画層1
  6
CONTINUOUS
 66
     1
 10
0.0
 20
0.0
 30
0.0
 70
     1
  0
VERTEX
  5
278B8
  8
画層1
  6
CONTINUOUS
 10
11190.63991705646
 20
8667.597975104858
 30
0.0
  0
VERTEX
  5
278B9
  8
画層1
  6
CONTINUOUS
 10
11506.93991705662
 20
8667.597975104858
 30
0.0
  0
VERTEX
  5
278BA
  8
画層1
  6
CONTINUOUS
 10
11506.93991705662
 20
8617.597975104858
 30
0.0
  0
VERTEX
  5
278BB
  8
画層1
  6
CONTINUOUS
 10
11190.63991705646
 20
8617.597975104858
 30
0.0
  0
SEQEND
  5
27A5B
  8
画層1
  6
CONTINUOUS
  0
LINE
  5
254BB
  8
画層1
  6
CONTINUOUS
 10
11373.7899170566
 20
8617.597975104858
 30
0.0
 11
11373.7899170566
 21
8667.597975104858
 31
0.0
  0
LINE
  5
254BC
  8
画層1
  6
CONTINUOUS
 10
11323.7899170566
 20
8617.597975104858
 30
0.0
 11
11323.7899170566
 21
8667.597975104858
 31
0.0
  0
CIRCLE
  5
254BD
  8
画層1
  6
CONTINUOUS
 10
11215.63991705646
 20
8642.597975104858
 30
0.0
 40
10.9509940156
  0
CIRCLE
  5
254BE
  8
画層1
  6
CONTINUOUS
 10
11481.93991705662
 20
8642.597975104858
 30
0.0
 40
10.9509940156
  0
LINE
  5
254BF
  8
画層2-1
  6
CONTINUOUS
 10
11240.63991705646
 20
8467.597975104858
 30
0.0
 11
11456.93991705662
 21
8467.597975104858
 31
0.0
  0
LINE
  5
254C0
  8
画層2-1
  6
CONTINUOUS
 10
11240.63991705646
 20
8717.597975104858
 30
0.0
 11
11456.93991705662
 21
8717.597975104858
 31
0.0
  0
POLYLINE
  5
254C4
  8
画層1
  6
CONTINUOUS
 66
     1
 10
0.0
 20
0.0
 30
0.0
 70
     1
  0
VERTEX
  5
278BC
  8
画層1
  6
CONTINUOUS
 10
5190.639917056462
 20
13532.59797510491
 30
0.0
  0
VERTEX
  5
278BD
  8
画層1
  6
CONTINUOUS
 10
5506.939917056624
 20
13532.59797510491
 30
0.0
  0
VERTEX
  5
278BE
  8
画層1
  6
CONTINUOUS
 10
5506.939917056624
 20
13482.59797510491
 30
0.0
  0
VERTEX
  5
278BF
  8
画層1
  6
CONTINUOUS
 10
5190.639917056462
 20
13482.59797510491
 30
0.0
  0
SEQEND
  5
27A5C
  8
画層1
  6
CONTINUOUS
  0
CIRCLE
  5
254C5
  8
画層1
  6
CONTINUOUS
 10
5481.939917056624
 20
13507.59797510491
 30
0.0
 40
10.9509940156
  0
CIRCLE
  5
254C6
  8
画層1
  6
CONTINUOUS
 10
5215.639917056462
 20
13507.59797510491
 30
0.0
 40
10.9509940156
  0
LINE
  5
254C7
  8
画層1
  6
CONTINUOUS
 10
5323.789917056602
 20
13482.59797510492
 30
0.0
 11
5323.789917056602
 21
13532.59797510492
 31
0.0
  0
LINE
  5
254C8
  8
画層1
  6
CONTINUOUS
 10
5373.789917056602
 20
13482.59797510492
 30
0.0
 11
5373.789917056602
 21
13532.59797510492
 31
0.0
  0
LINE
  5
254C9
  8
画層1
  6
CONTINUOUS
 10
5373.789917056602
 20
13532.59797510492
 30
0.0
 11
5373.789917056602
 21
13582.59797510492
 31
0.0
  0
LINE
  5
254CA
  8
画層1
  6
CONTINUOUS
 10
5323.789917056602
 20
13532.59797510492
 30
0.0
 11
5323.789917056602
 21
13582.59797510492
 31
0.0
  0
CIRCLE
  5
254CB
  8
画層1
  6
CONTINUOUS
 10
5215.639917056462
 20
13557.59797510491
 30
0.0
 40
10.9509940156
  0
CIRCLE
  5
254CC
  8
画層1
  6
CONTINUOUS
 10
5481.939917056624
 20
13557.59797510491
 30
0.0
 40
10.9509940156
  0
POLYLINE
  5
254CD
  8
画層1
  6
CONTINUOUS
 66
     1
 10
0.0
 20
0.0
 30
0.0
 70
     1
  0
VERTEX
  5
278C0
  8
画層1
  6
CONTINUOUS
 10
5190.639917056462
 20
13582.59797510491
 30
0.0
  0
VERTEX
  5
278C1
  8
画層1
  6
CONTINUOUS
 10
5506.939917056624
 20
13582.59797510491
 30
0.0
  0
VERTEX
  5
278C2
  8
画層1
  6
CONTINUOUS
 10
5506.939917056624
 20
13532.59797510491
 30
0.0
  0
VERTEX
  5
278C3
  8
画層1
  6
CONTINUOUS
 10
5190.639917056462
 20
13532.59797510491
 30
0.0
  0
SEQEND
  5
27A5D
  8
画層1
  6
CONTINUOUS
  0
LINE
  5
254D8
  8
画層2-1
  6
CONTINUOUS
 10
5240.639917056462
 20
8467.597975104858
 30
0.0
 11
5456.939917056624
 21
8467.597975104858
 31
0.0
  0
LINE
  5
254D9
  8
画層2-1
  6
CONTINUOUS
 10
5240.639917056462
 20
8717.597975104858
 30
0.0
 11
5456.939917056624
 21
8717.597975104858
 31
0.0
  0
CIRCLE
  5
254DA
  8
画層1
  6
CONTINUOUS
 10
5481.939917056624
 20
8642.597975104858
 30
0.0
 40
10.9509940156
  0
CIRCLE
  5
254DB
  8
画層1
  6
CONTINUOUS
 10
5215.639917056462
 20
8642.597975104858
 30
0.0
 40
10.9509940156
  0
LINE
  5
254DC
  8
画層1
  6
CONTINUOUS
 10
5323.789917056602
 20
8617.597975104858
 30
0.0
 11
5323.789917056602
 21
8667.597975104858
 31
0.0
  0
LINE
  5
254DD
  8
画層1
  6
CONTINUOUS
 10
5373.789917056602
 20
8617.597975104858
 30
0.0
 11
5373.789917056602
 21
8667.597975104858
 31
0.0
  0
POLYLINE
  5
254DE
  8
画層1
  6
CONTINUOUS
 66
     1
 10
0.0
 20
0.0
 30
0.0
 70
     1
  0
VERTEX
  5
278C4
  8
画層1
  6
CONTINUOUS
 10
5190.639917056462
 20
8667.597975104858
 30
0.0
  0
VERTEX
  5
278C5
  8
画層1
  6
CONTINUOUS
 10
5506.939917056624
 20
8667.597975104858
 30
0.0
  0
VERTEX
  5
278C6
  8
画層1
  6
CONTINUOUS
 10
5506.939917056624
 20
8617.597975104858
 30
0.0
  0
VERTEX
  5
278C7
  8
画層1
  6
CONTINUOUS
 10
5190.639917056462
 20
8617.597975104858
 30
0.0
  0
SEQEND
  5
27A5E
  8
画層1
  6
CONTINUOUS
  0
TEXT
  5
254FC
  8
寸法
  6
CONTINUOUS
 10
20897.36134562746
 20
7218.669403676307
 30
0.0
 40
180.0
  1
1,800
 50
90.0
 41
0.75
  7
1_100
  0
INSERT
  5
254FD
  8
寸法
  6
CONTINUOUS
  2
_ORIGIN
 10
20991.64705991318
 20
8417.59797510487
 30
0.0
 41
48.0
 42
48.0
 43
48.0
 50
90.0
  0
INSERT
  5
254FE
  8
寸法
  6
CONTINUOUS
  2
_ORIGIN
 10
20991.64705991318
 20
6617.597975104873
 30
0.0
 41
48.0
 42
48.0
 43
48.0
 50
270.0
  0
LINE
  5
254FF
  8
寸法
  6
CONTINUOUS
 10
20991.64705991318
 20
6665.597975104873
 30
0.0
 11
20991.64705991318
 21
8369.59797510487
 31
0.0
  0
LINE
  5
25500
  8
寸法
  6
CONTINUOUS
 10
20271.07783531657
 20
8417.597975104873
 30
0.0
 11
20991.64705991318
 21
8417.59797510487
 31
0.0
  0
LINE
  5
25501
  8
寸法
  6
CONTINUOUS
 10
20271.07783531657
 20
6617.597975104873
 30
0.0
 11
20991.64705991318
 21
6617.597975104873
 31
0.0
  0
TEXT
  5
25502
  8
寸法
  6
CONTINUOUS
 10
21497.36134562747
 20
7328.312260819162
 30
0.0
 40
180.0
  1
2,000
 50
90.0
 41
0.75
  7
1_100
  0
INSERT
  5
25503
  8
寸法
  6
CONTINUOUS
  2
_ORIGIN
 10
21591.64705991318
 20
6617.597975104873
 30
0.0
 41
48.0
 42
48.0
 43
48.0
 50
270.0
  0
INSERT
  5
25504
  8
寸法
  6
CONTINUOUS
  2
_ORIGIN
 10
21591.64705991318
 20
8617.59797510487
 30
0.0
 41
48.0
 42
48.0
 43
48.0
 50
90.0
  0
LINE
  5
25505
  8
寸法
  6
CONTINUOUS
 10
21591.64705991318
 20
8569.59797510487
 30
0.0
 11
21591.64705991318
 21
6665.597975104873
 31
0.0
  0
LINE
  5
25506
  8
寸法
  6
CONTINUOUS
 10
20271.07783531657
 20
6617.597975104873
 30
0.0
 11
21591.64705991318
 21
6617.597975104873
 31
0.0
  0
LINE
  5
25507
  8
寸法
  6
CONTINUOUS
 10
20271.07783531657
 20
8617.597975104873
 30
0.0
 11
21591.64705991318
 21
8617.59797510487
 31
0.0
  0
TEXT
  5
25508
  8
DEFPOINTS
  6
CONTINUOUS
 10
2066.834129481907
 20
549.4367434438218
 30
0.0
 40
180.0
  1
弓道場H=5
 41
0.75
  7
1_100
 11
2066.834129481907
 21
549.4367434438218
 31
0.0
 73
     1
  0
TEXT
  5
25509
  8
DEFPOINTS
  6
CONTINUOUS
 10
1033.410630022226
 20
549.3051949489529
 30
0.0
 40
180.0
  1
1/60
 41
0.75
  7
1_100
 11
1033.410630022226
 21
549.3051949489529
 31
0.0
 73
     1
  0
POLYLINE
  5
2550A
  8
寸法
  6
CONTINUOUS
 66
     1
 10
0.0
 20
0.0
 30
0.0
  0
VERTEX
  5
278C8
  8
寸法
  6
CONTINUOUS
 10
14613.62568005296
 20
4947.032785184607
 30
0.0
  0
VERTEX
  5
278C9
  8
寸法
  6
CONTINUOUS
 10
14863.62568005296
 20
4880.045487684613
 30
0.0
  0
VERTEX
  5
278CA
  8
寸法
  6
CONTINUOUS
 10
14613.62568005296
 20
4813.058190184607
 30
0.0
  0
SEQEND
  5
27A5F
  8
寸法
  6
CONTINUOUS
  0
POLYLINE
  5
2550B
  8
寸法
  6
CONTINUOUS
 66
     1
 10
0.0
 20
0.0
 30
0.0
  0
VERTEX
  5
278CB
  8
寸法
  6
CONTINUOUS
 10
14863.62568005296
 20
4880.045487684613
 30
0.0
  0
VERTEX
  5
278CC
  8
寸法
  6
CONTINUOUS
 10
11348.7899170566
 20
4880.045487684547
 30
0.0
  0
SEQEND
  5
27A60
  8
寸法
  6
CONTINUOUS
  0
TEXT
  5
2550C
  8
寸法
  6
CONTINUOUS
 10
20322.90361759245
 20
14626.23737931577
 30
0.0
 40
180.0
  1
主柱KSポールφ216.3厚さ6.3mm
 41
0.75
  7
1_100
  0
POLYLINE
  5
2550D
  8
寸法引出
  6
CONTINUOUS
 66
     1
 10
0.0
 20
0.0
 30
0.0
  0
VERTEX
  5
278CD
  8
寸法引出
  6
CONTINUOUS
 10
19199.7970599132
 20
13444.98404174572
 30
0.0
  0
VERTEX
  5
278CE
  8
寸法引出
  6
CONTINUOUS
 10
20214.90361759245
 20
14566.23737931577
 30
0.0
  0
VERTEX
  5
278CF
  8
寸法引出
  6
CONTINUOUS
 10
23142.47504616388
 20
14566.23737931577
 30
0.0
  0
SEQEND
  5
27A61
  8
寸法引出
  6
CONTINUOUS
  0
DIMENSION
  5
25520
  8
寸法
  6
CONTINUOUS
  2
*D1
 10
19199.7970599132
 20
14037.59797510493
 30
0.0
 11
19091.64705991312
 21
14217.59797510493
 31
0.0
 70
    32
  1
φ<>
  3
1_60
 13
18983.49705991304
 23
13617.59797510441
 33
0.0
 14
19199.7970599132
 24
13617.59797510493
 34
0.0
  0
LINE
  5
25528
  8
画層1
  6
CONTINUOUS
 10
19041.64705991318
 20
13557.59797510493
 30
0.0
 11
19141.64705991318
 21
13557.59797510493
 31
0.0
  0
LINE
  5
25529
  8
画層1
  6
CONTINUOUS
 10
19066.64705991318
 20
13532.59797510441
 30
0.0
 11
19066.64705991318
 21
13582.59797510441
 31
0.0
  0
LINE
  5
2552A
  8
画層1
  6
CONTINUOUS
 10
19116.64705991318
 20
13532.59797510441
 30
0.0
 11
19116.64705991318
 21
13582.59797510441
 31
0.0
  0
DIMENSION
  5
2552C
  8
寸法
  6
CONTINUOUS
  2
*D2
 10
20991.64705991318
 20
13557.59797510493
 30
0.0
 11
20824.50420277032
 21
12732.5979751049
 31
0.0
 70
    32
  3
1_60
 13
20091.07783531657
 23
11907.59797510487
 33
0.0
 14
20091.07783531657
 24
13557.59797510493
 34
0.0
 50
90.0
  0
DIMENSION
  5
2552D
  8
寸法
  6
CONTINUOUS
  2
*D3
 10
20991.64705991318
 20
11907.59797510487
 30
0.0
 11
20824.50420277032
 21
11082.59797510487
 31
0.0
 70
    32
  3
1_60
 13
20091.07783531657
 23
10257.59797510487
 33
0.0
 14
20091.07783531657
 24
11907.59797510487
 34
0.0
 50
90.0
  0
DIMENSION
  5
2552F
  8
寸法
  6
CONTINUOUS
  2
*D4
 10
20991.64705991318
 20
13617.59797510493
 30
0.0
 11
20809.39834436557
 21
13777.7054539395
 31
0.0
 70
   160
  3
1_60
 13
20091.07783531657
 23
13557.59797510493
 33
0.0
 14
20091.07783531657
 24
13617.59797510493
 34
0.0
 50
90.0
  0
LINE
  5
25530
  8
画層1
  6
CONTINUOUS
 10
11348.7899170566
 20
13557.59797510493
 30
0.0
 11
14860.15463385304
 21
13557.59797510388
 31
0.0
  0
TEXT
  5
25531
  8
寸法
  6
CONTINUOUS
 10
12344.57364328768
 20
13136.80970264447
 30
0.0
 40
180.0
  1
メッセンワイヤー38m㎡
 41
0.75
  7
1_100
1001
ACAD
1000
ASC_BOUNDS
1002
{
1070
    19
1005
256F4
1002
}
  0
POLYLINE
  5
25532
  8
寸法引出
  6
CONTINUOUS
 66
     1
 10
0.0
 20
0.0
 30
0.0
  0
VERTEX
  5
278D0
  8
寸法引出
  6
CONTINUOUS
 10
12058.12717784782
 20
13557.59797510481
 30
0.0
  0
VERTEX
  5
278D1
  8
寸法引出
  6
CONTINUOUS
 10
12259.07364328768
 20
13076.80970264447
 30
0.0
  0
VERTEX
  5
278D2
  8
寸法引出
  6
CONTINUOUS
 10
14203.07364328768
 20
13076.80970264447
 30
0.0
  0
SEQEND
  5
27A62
  8
寸法引出
  6
CONTINUOUS
  0
INSERT
  5
25533
  8
寸法
  6
CONTINUOUS
  2
*X25
 10
0.0
 20
0.0
 30
0.0
  0
POLYLINE
  5
25534
  8
寸法引出
  6
CONTINUOUS
 66
     1
 10
0.0
 20
0.0
 30
0.0
  0
VERTEX
  5
278D6
  8
寸法引出
  6
CONTINUOUS
 10
8715.87805431059
 20
10763.62653646299
 30
0.0
  0
VERTEX
  5
278D7
  8
寸法引出
  6
CONTINUOUS
 10
8929.686156100404
 20
11021.11437248083
 30
0.0
  0
VERTEX
  5
278D8
  8
寸法引出
  6
CONTINUOUS
 10
10873.6861561004
 20
11021.11437248083
 30
0.0
  0
SEQEND
  5
27A63
  8
寸法引出
  6
CONTINUOUS
  0
LINE
  5
25535
  8
寸法引出
  6
CONTINUOUS
 10
8929.686156100404
 20
11021.11437248083
 30
0.0
 11
8647.097481897883
 21
11328.20963126987
 31
0.0
  0
CIRCLE
  5
25536
  8
画層1-2
 10
7948.789917056602
 20
10257.59797510487
 30
0.0
 40
10.0
  0
CIRCLE
  5
25537
  8
画層1-2
 10
8148.789917056602
 20
10257.59797510487
 30
0.0
 40
10.0
  0
CIRCLE
  5
25538
  8
画層1-2
 10
8348.789917056602
 20
10257.59797510487
 30
0.0
 40
10.0
  0
CIRCLE
  5
25539
  8
画層1-2
 10
8548.789917056602
 20
10257.59797510487
 30
0.0
 40
10.0
  0
CIRCLE
  5
2553A
  8
画層1-2
 10
8748.789917056602
 20
10257.59797510487
 30
0.0
 40
10.0
  0
CIRCLE
  5
2553B
  8
画層1-2
 10
7948.789917056602
 20
11907.59797510487
 30
0.0
 40
10.0
  0
CIRCLE
  5
2553C
  8
画層1-2
 10
8148.789917056602
 20
11907.59797510487
 30
0.0
 40
10.0
  0
CIRCLE
  5
2553D
  8
画層1-2
 10
8348.789917056602
 20
11907.59797510487
 30
0.0
 40
10.0
  0
CIRCLE
  5
2553E
  8
画層1-2
 10
8548.789917056602
 20
11907.59797510487
 30
0.0
 40
10.0
  0
CIRCLE
  5
2553F
  8
画層1-2
 10
8748.789917056602
 20
11907.59797510487
 30
0.0
 40
10.0
  0
TEXT
  5
25540
  8
寸法
  6
CONTINUOUS
 10
10167.99429098293
 20
9826.510776982512
 30
0.0
 40
180.0
  1
バンド金具
 41
0.75
  7
1_100
  0
POLYLINE
  5
25541
  8
寸法引出
  6
CONTINUOUS
 66
     1
 10
0.0
 20
0.0
 30
0.0
  0
VERTEX
  5
278D9
  8
寸法引出
  6
CONTINUOUS
 10
11220.41285852602
 20
10232.59797510482
 30
0.0
  0
VERTEX
  5
278DA
  8
寸法引出
  6
CONTINUOUS
 10
11049.99429098293
 20
9766.510776982512
 30
0.0
  0
VERTEX
  5
278DB
  8
寸法引出
  6
CONTINUOUS
 10
10172.49429098293
 20
9766.510776982512
 30
0.0
  0
SEQEND
  5
27A64
  8
寸法引出
  6
CONTINUOUS
  0
CIRCLE
  5
25542
  8
画層1-2
 10
8948.789917056602
 20
10257.59797510487
 30
0.0
 40
10.0
  0
CIRCLE
  5
25543
  8
画層1-2
 10
9148.789917056602
 20
10257.59797510487
 30
0.0
 40
10.0
  0
CIRCLE
  5
25544
  8
画層1-2
 10
9548.789917056602
 20
10257.59797510487
 30
0.0
 40
10.0
  0
CIRCLE
  5
25545
  8
画層1-2
 10
9348.789917056602
 20
10257.59797510487
 30
0.0
 40
10.0
  0
CIRCLE
  5
25546
  8
画層1-2
 10
9748.789917056602
 20
10257.59797510487
 30
0.0
 40
10.0
  0
CIRCLE
  5
25547
  8
画層1-2
 10
9948.789917056602
 20
10257.59797510487
 30
0.0
 40
10.0
  0
CIRCLE
  5
25548
  8
画層1-2
 10
10148.7899170566
 20
10257.59797510487
 30
0.0
 40
10.0
  0
CIRCLE
  5
25549
  8
画層1-2
 10
10348.7899170566
 20
10257.59797510487
 30
0.0
 40
10.0
  0
CIRCLE
  5
2554A
  8
画層1-2
 10
10548.7899170566
 20
10257.59797510487
 30
0.0
 40
10.0
  0
CIRCLE
  5
2554B
  8
画層1-2
 10
11148.7899170566
 20
10257.59797510487
 30
0.0
 40
10.0
  0
CIRCLE
  5
2554C
  8
画層1-2
 10
10748.7899170566
 20
10257.59797510487
 30
0.0
 40
10.0
  0
CIRCLE
  5
2554D
  8
画層1-2
 10
10948.7899170566
 20
10257.59797510487
 30
0.0
 40
10.0
  0
CIRCLE
  5
2554E
  8
画層1-2
 10
11348.7899170566
 20
10257.59797510487
 30
0.0
 40
10.0
  0
CIRCLE
  5
2554F
  8
画層1-2
 10
11548.7899170566
 20
10257.59797510487
 30
0.0
 40
10.0
  0
CIRCLE
  5
25550
  8
画層1-2
 10
11748.7899170566
 20
10257.59797510487
 30
0.0
 40
10.0
  0
CIRCLE
  5
25551
  8
画層1-2
 10
11948.7899170566
 20
10257.59797510487
 30
0.0
 40
10.0
  0
CIRCLE
  5
25552
  8
画層1-2
 10
12148.7899170566
 20
10257.59797510487
 30
0.0
 40
10.0
  0
CIRCLE
  5
25553
  8
画層1-2
 10
12348.7899170566
 20
10257.59797510487
 30
0.0
 40
10.0
  0
CIRCLE
  5
25554
  8
画層1-2
 10
8948.789917056602
 20
11907.59797510487
 30
0.0
 40
10.0
  0
CIRCLE
  5
25555
  8
画層1-2
 10
9148.789917056602
 20
11907.59797510487
 30
0.0
 40
10.0
  0
CIRCLE
  5
25556
  8
画層1-2
 10
9548.789917056602
 20
11907.59797510487
 30
0.0
 40
10.0
  0
CIRCLE
  5
25557
  8
画層1-2
 10
9348.789917056602
 20
11907.59797510487
 30
0.0
 40
10.0
  0
CIRCLE
  5
25558
  8
画層1-2
 10
9748.789917056602
 20
11907.59797510487
 30
0.0
 40
10.0
  0
CIRCLE
  5
25559
  8
画層1-2
 10
9948.789917056602
 20
11907.59797510487
 30
0.0
 40
10.0
  0
CIRCLE
  5
2555A
  8
画層1-2
 10
10148.7899170566
 20
11907.59797510487
 30
0.0
 40
10.0
  0
CIRCLE
  5
2555B
  8
画層1-2
 10
10348.7899170566
 20
11907.59797510487
 30
0.0
 40
10.0
  0
CIRCLE
  5
2555C
  8
画層1-2
 10
10548.7899170566
 20
11907.59797510487
 30
0.0
 40
10.0
  0
CIRCLE
  5
2555D
  8
画層1-2
 10
11148.7899170566
 20
11907.59797510487
 30
0.0
 40
10.0
  0
CIRCLE
  5
2555E
  8
画層1-2
 10
10748.7899170566
 20
11907.59797510487
 30
0.0
 40
10.0
  0
CIRCLE
  5
2555F
  8
画層1-2
 10
10948.7899170566
 20
11907.59797510487
 30
0.0
 40
10.0
  0
CIRCLE
  5
25560
  8
画層1-2
 10
11348.7899170566
 20
11907.59797510487
 30
0.0
 40
10.0
  0
CIRCLE
  5
25561
  8
画層1-2
 10
11548.7899170566
 20
11907.59797510487
 30
0.0
 40
10.0
  0
CIRCLE
  5
25562
  8
画層1-2
 10
11748.7899170566
 20
11907.59797510487
 30
0.0
 40
10.0
  0
CIRCLE
  5
25563
  8
画層1-2
 10
11948.7899170566
 20
11907.59797510487
 30
0.0
 40
10.0
  0
CIRCLE
  5
25564
  8
画層1-2
 10
12148.7899170566
 20
11907.59797510487
 30
0.0
 40
10.0
  0
CIRCLE
  5
25565
  8
画層1-2
 10
12348.7899170566
 20
11907.59797510487
 30
0.0
 40
10.0
  0
TEXT
  5
25566
  8
寸法
  6
CONTINUOUS
 10
8007.146225092611
 20
13866.17198691027
 30
0.0
 40
180.0
  1
（STK-400鋼管）
 41
0.75
  7
1_100
  0
CIRCLE
  5
25567
  8
画層1-2
 10
7948.789917056602
 20
13557.59797510493
 30
0.0
 40
10.0
  0
CIRCLE
  5
25568
  8
画層1-2
 10
8148.789917056602
 20
13557.59797510493
 30
0.0
 40
10.0
  0
CIRCLE
  5
25569
  8
画層1-2
 10
8348.789917056602
 20
13557.59797510493
 30
0.0
 40
10.0
  0
CIRCLE
  5
2556A
  8
画層1-2
 10
8548.789917056602
 20
13557.59797510493
 30
0.0
 40
10.0
  0
CIRCLE
  5
2556B
  8
画層1-2
 10
8748.789917056602
 20
13557.59797510493
 30
0.0
 40
10.0
  0
CIRCLE
  5
2556C
  8
画層1-2
 10
8948.789917056602
 20
13557.59797510493
 30
0.0
 40
10.0
  0
CIRCLE
  5
2556D
  8
画層1-2
 10
9148.789917056602
 20
13557.59797510493
 30
0.0
 40
10.0
  0
CIRCLE
  5
2556E
  8
画層1-2
 10
9548.789917056602
 20
13557.59797510493
 30
0.0
 40
10.0
  0
CIRCLE
  5
2556F
  8
画層1-2
 10
9348.789917056602
 20
13557.59797510493
 30
0.0
 40
10.0
  0
CIRCLE
  5
25570
  8
画層1-2
 10
9748.789917056602
 20
13557.59797510493
 30
0.0
 40
10.0
  0
CIRCLE
  5
25573
  8
画層1-2
 10
9948.789917056602
 20
13557.59797510493
 30
0.0
 40
10.0
  0
LINE
  5
25574
  8
画層1
 10
11190.63991705646
 20
13507.59797510492
 30
0.0
 11
11140.63991705669
 21
13507.59797510492
 31
0.0
  0
CIRCLE
  5
25575
  8
画層1-2
 10
10148.7899170566
 20
13557.59797510493
 30
0.0
 40
10.0
  0
CIRCLE
  5
25576
  8
画層1-2
 10
10348.7899170566
 20
13557.59797510493
 30
0.0
 40
10.0
  0
CIRCLE
  5
25577
  8
画層1-2
 10
10548.7899170566
 20
13557.59797510493
 30
0.0
 40
10.0
  0
CIRCLE
  5
25578
  8
画層1-2
 10
11148.7899170566
 20
13557.59797510493
 30
0.0
 40
10.0
  0
CIRCLE
  5
25579
  8
画層1-2
 10
10748.7899170566
 20
13557.59797510493
 30
0.0
 40
10.0
  0
CIRCLE
  5
2557A
  8
画層1-2
 10
10948.7899170566
 20
13557.59797510493
 30
0.0
 40
10.0
  0
CIRCLE
  5
2557B
  8
画層1-2
 10
11348.7899170566
 20
13557.59797510493
 30
0.0
 40
10.0
  0
CIRCLE
  5
2557C
  8
画層1-2
 10
11548.7899170566
 20
13557.59797510493
 30
0.0
 40
10.0
  0
CIRCLE
  5
2557D
  8
画層1-2
 10
11748.7899170566
 20
13557.59797510493
 30
0.0
 40
10.0
  0
CIRCLE
  5
2557E
  8
画層1-2
 10
11948.7899170566
 20
13557.59797510493
 30
0.0
 40
10.0
  0
CIRCLE
  5
2557F
  8
画層1-2
 10
12148.7899170566
 20
13557.59797510493
 30
0.0
 40
10.0
  0
CIRCLE
  5
25580
  8
画層1-2
 10
12348.7899170566
 20
13557.59797510493
 30
0.0
 40
10.0
  0
CIRCLE
  5
25581
  8
画層1-2
 10
14348.7899170566
 20
10257.59797510487
 30
0.0
 40
10.0
  0
CIRCLE
  5
25582
  8
画層1-2
 10
12748.7899170566
 20
10257.59797510487
 30
0.0
 40
10.0
  0
CIRCLE
  5
25583
  8
画層1-2
 10
12548.7899170566
 20
10257.59797510487
 30
0.0
 40
10.0
  0
CIRCLE
  5
25584
  8
画層1-2
 10
12948.7899170566
 20
10257.59797510487
 30
0.0
 40
10.0
  0
CIRCLE
  5
25585
  8
画層1-2
 10
13148.7899170566
 20
10257.59797510487
 30
0.0
 40
10.0
  0
CIRCLE
  5
25586
  8
画層1-2
 10
13348.7899170566
 20
10257.59797510487
 30
0.0
 40
10.0
  0
CIRCLE
  5
25587
  8
画層1-2
 10
13548.7899170566
 20
10257.59797510487
 30
0.0
 40
10.0
  0
CIRCLE
  5
25588
  8
画層1-2
 10
13748.7899170566
 20
10257.59797510487
 30
0.0
 40
10.0
  0
CIRCLE
  5
25589
  8
画層1-2
 10
13948.7899170566
 20
10257.59797510487
 30
0.0
 40
10.0
  0
CIRCLE
  5
2558A
  8
画層1-2
 10
14148.7899170566
 20
10257.59797510487
 30
0.0
 40
10.0
  0
CIRCLE
  5
2558B
  8
画層1-2
 10
14548.7899170566
 20
10257.59797510487
 30
0.0
 40
10.0
  0
CIRCLE
  5
2558C
  8
画層1-2
 10
14748.7899170566
 20
10257.59797510487
 30
0.0
 40
10.0
  0
CIRCLE
  5
2558D
  8
画層1-2
 10
14348.7899170566
 20
11907.59797510487
 30
0.0
 40
10.0
  0
CIRCLE
  5
2558E
  8
画層1-2
 10
12748.7899170566
 20
11907.59797510487
 30
0.0
 40
10.0
  0
CIRCLE
  5
2558F
  8
画層1-2
 10
12548.7899170566
 20
11907.59797510487
 30
0.0
 40
10.0
  0
CIRCLE
  5
25590
  8
画層1-2
 10
12948.7899170566
 20
11907.59797510487
 30
0.0
 40
10.0
  0
CIRCLE
  5
25591
  8
画層1-2
 10
13148.7899170566
 20
11907.59797510487
 30
0.0
 40
10.0
  0
CIRCLE
  5
25592
  8
画層1-2
 10
13348.7899170566
 20
11907.59797510487
 30
0.0
 40
10.0
  0
CIRCLE
  5
25593
  8
画層1-2
 10
13548.7899170566
 20
11907.59797510487
 30
0.0
 40
10.0
  0
CIRCLE
  5
25594
  8
画層1-2
 10
13748.7899170566
 20
11907.59797510487
 30
0.0
 40
10.0
  0
CIRCLE
  5
25595
  8
画層1-2
 10
13948.7899170566
 20
11907.59797510487
 30
0.0
 40
10.0
  0
CIRCLE
  5
25596
  8
画層1-2
 10
14148.7899170566
 20
11907.59797510487
 30
0.0
 40
10.0
  0
CIRCLE
  5
25597
  8
画層1-2
 10
14548.7899170566
 20
11907.59797510487
 30
0.0
 40
10.0
  0
CIRCLE
  5
25598
  8
画層1-2
 10
14748.7899170566
 20
11907.59797510487
 30
0.0
 40
10.0
  0
TEXT
  5
25599
  8
寸法
  6
CONTINUOUS
 10
13258.18141678209
 20
13913.2905162049
 30
0.0
 40
180.0
  1
（ラダー加工）
 41
0.75
  7
1_100
  0
CIRCLE
  5
2559A
  8
画層1-2
 10
14348.7899170566
 20
13557.59797510493
 30
0.0
 40
10.0
  0
CIRCLE
  5
2559B
  8
画層1-2
 10
12748.7899170566
 20
13557.59797510493
 30
0.0
 40
10.0
  0
CIRCLE
  5
2559C
  8
画層1-2
 10
12548.7899170566
 20
13557.59797510493
 30
0.0
 40
10.0
  0
CIRCLE
  5
2559D
  8
画層1-2
 10
12948.7899170566
 20
13557.59797510493
 30
0.0
 40
10.0
  0
CIRCLE
  5
2559E
  8
画層1-2
 10
13148.7899170566
 20
13557.59797510493
 30
0.0
 40
10.0
  0
CIRCLE
  5
2559F
  8
画層1-2
 10
13348.7899170566
 20
13557.59797510493
 30
0.0
 40
10.0
  0
CIRCLE
  5
255A0
  8
画層1-2
 10
13548.7899170566
 20
13557.59797510493
 30
0.0
 40
10.0
  0
CIRCLE
  5
255A1
  8
画層1-2
 10
13748.7899170566
 20
13557.59797510493
 30
0.0
 40
10.0
  0
CIRCLE
  5
255A2
  8
画層1-2
 10
13948.7899170566
 20
13557.59797510493
 30
0.0
 40
10.0
  0
CIRCLE
  5
255A3
  8
画層1-2
 10
14148.7899170566
 20
13557.59797510493
 30
0.0
 40
10.0
  0
CIRCLE
  5
255A4
  8
画層1-2
 10
14548.7899170566
 20
13557.59797510493
 30
0.0
 40
10.0
  0
CIRCLE
  5
255A5
  8
画層1-2
 10
14748.7899170566
 20
13557.59797510493
 30
0.0
 40
10.0
  0
DIMENSION
  5
255A6
  8
寸法
  6
CONTINUOUS
  2
*D5
 10
16258.7899170559
 20
13557.59797510493
 30
0.0
 11
16091.64705991304
 21
12732.5979751049
 31
0.0
 70
    32
  3
1_60
 13
15398.78991705602
 23
11907.59797510487
 33
0.0
 14
15358.7899170559
 24
13557.59797510493
 34
0.0
 50
90.0
  0
DIMENSION
  5
255A7
  8
寸法
  6
CONTINUOUS
  2
*D6
 10
16258.7899170559
 20
11907.59797510487
 30
0.0
 11
16091.64705991304
 21
11082.59797510487
 31
0.0
 70
    32
  3
1_60
 13
15398.7899170559
 23
10257.59797510487
 33
0.0
 14
15398.78991705602
 24
11907.59797510487
 34
0.0
 50
90.0
  0
TEXT
  5
255A8
  8
寸法
  6
CONTINUOUS
 10
13123.80089562577
 20
14226.89905587403
 30
0.0
 40
180.0
  1
38m㎡ワイヤーに上中下段に4mmロープで結束
 41
0.75
  7
1_100
  0
POLYLINE
  5
255A9
  8
寸法引出
  6
CONTINUOUS
 66
     1
 10
0.0
 20
0.0
 30
0.0
  0
VERTEX
  5
278DC
  8
寸法引出
  6
CONTINUOUS
 10
12698.43354094211
 20
13557.59797636105
 30
0.0
  0
VERTEX
  5
278DD
  8
寸法引出
  6
CONTINUOUS
 10
13035.08660991149
 20
14166.89905587403
 30
0.0
  0
VERTEX
  5
278DE
  8
寸法引出
  6
CONTINUOUS
 10
16806.08660991149
 20
14166.89905587403
 30
0.0
  0
SEQEND
  5
27A65
  8
寸法引出
  6
CONTINUOUS
  0
DIMENSION
  5
255AA
  8
寸法
  6
CONTINUOUS
  2
*D7
 10
16258.7899170559
 20
13617.59797510493
 30
0.0
 11
16120.05725292015
 21
13807.11029083823
 31
0.0
 70
   160
  3
1_60
 13
15358.7899170559
 23
13557.59797510493
 33
0.0
 14
15358.7899170559
 24
13617.59797510493
 34
0.0
 50
90.0
  0
TEXT
  5
255AB
  8
寸法
  6
CONTINUOUS
 10
3074.167656973008
 20
10771.21007486066
 30
0.0
 40
180.0
  1
タ-ンバックル12mm
 41
0.75
  7
1_100
  0
POLYLINE
  5
255AC
  8
寸法引出
  6
CONTINUOUS
 66
     1
 10
0.0
 20
0.0
 30
0.0
  0
VERTEX
  5
278DF
  8
寸法引出
  6
CONTINUOUS
 10
5659.664917056602
 20
10277.5989694189
 30
0.0
  0
VERTEX
  5
278E0
  8
寸法引出
  6
CONTINUOUS
 10
4938.453371258722
 20
10711.21007486066
 30
0.0
  0
VERTEX
  5
278E1
  8
寸法引出
  6
CONTINUOUS
 10
3094.417656973008
 20
10711.21007486066
 30
0.0
  0
SEQEND
  5
27A66
  8
寸法引出
  6
CONTINUOUS
  0
TEXT
  5
255AD
  8
寸法
  6
CONTINUOUS
 10
2767.658878927505
 20
11914.59822172415
 30
0.0
 40
180.0
  1
メッセンワイヤー38m㎡
 41
0.75
  7
1_100
  0
POLYLINE
  5
255AE
  8
寸法引出
  6
CONTINUOUS
 66
     1
 10
0.0
 20
0.0
 30
0.0
  0
VERTEX
  5
278E2
  8
寸法引出
  6
CONTINUOUS
 10
5348.789917056602
 20
11503.30285982933
 30
0.0
  0
VERTEX
  5
278E3
  8
寸法引出
  6
CONTINUOUS
 10
4734.158878927505
 20
11854.59822172415
 30
0.0
  0
VERTEX
  5
278E4
  8
寸法引出
  6
CONTINUOUS
 10
2790.158878927505
 20
11854.59822172415
 30
0.0
  0
SEQEND
  5
27A67
  8
寸法引出
  6
CONTINUOUS
  0
TEXT
  5
255AF
  8
寸法
  6
CONTINUOUS
 10
1863.529278678091
 20
13276.41938802059
 30
0.0
 40
180.0
  1
主柱KSポールφ216.3厚さ6.3mm
 41
0.75
  7
1_100
  0
POLYLINE
  5
255B0
  8
寸法引出
  6
CONTINUOUS
 66
     1
 10
0.0
 20
0.0
 30
0.0
  0
VERTEX
  5
278E5
  8
寸法引出
  6
CONTINUOUS
 10
5240.639917056462
 20
12903.28925162018
 30
0.0
  0
VERTEX
  5
278E6
  8
寸法引出
  6
CONTINUOUS
 10
4791.100707249519
 20
13216.41938802059
 30
0.0
  0
VERTEX
  5
278E7
  8
寸法引出
  6
CONTINUOUS
 10
1863.529278678091
 20
13216.41938802059
 30
0.0
  0
SEQEND
  5
27A68
  8
寸法引出
  6
CONTINUOUS
  0
DIMENSION
  5
255B1
  8
寸法
  6
CONTINUOUS
  2
*D8
 10
5456.939917056624
 20
14037.59797510493
 30
0.0
 11
5348.789917056543
 21
14217.59797510493
 31
0.0
 70
    32
  1
φ<>
  3
1_60
 13
5240.639917056462
 23
13617.59797510493
 33
0.0
 14
5456.939917056624
 24
13617.59797510493
 34
0.0
  0
TEXT
  5
255B2
  8
寸法
  6
CONTINUOUS
 10
2780.044535823552
 20
14124.28347927413
 30
0.0
 40
180.0
  1
上部ネット下り防止付き
 41
0.75
  7
1_100
  0
POLYLINE
  5
255B3
  8
寸法引出
  6
CONTINUOUS
 66
     1
 10
0.0
 20
0.0
 30
0.0
  0
VERTEX
  5
278E8
  8
寸法引出
  6
CONTINUOUS
 10
5348.789917056602
 20
13617.59797510493
 30
0.0
  0
VERTEX
  5
278E9
  8
寸法引出
  6
CONTINUOUS
 10
4618.294535823552
 20
14064.28347927413
 30
0.0
  0
VERTEX
  5
278EA
  8
寸法引出
  6
CONTINUOUS
 10
2780.044535823552
 20
14064.28347927413
 30
0.0
  0
SEQEND
  5
27A69
  8
寸法引出
  6
CONTINUOUS
  0
TEXT
  5
255B4
  8
寸法
  6
CONTINUOUS
 10
2657.004844641481
 20
12927.58550246537
 30
0.0
 40
180.0
  1
（STKT-590鋼管）
 41
0.75
  7
1_100
  0
CIRCLE
  5
255B5
  8
画層1-2
 10
5348.789917056602
 20
9557.59797510493
 30
0.0
 40
10.0
  0
CIRCLE
  5
255B6
  8
画層1-2
 10
5348.789917056602
 20
9957.59797510493
 30
0.0
 40
10.0
  0
CIRCLE
  5
255B7
  8
画層1-2
 10
5348.789917056602
 20
9757.59797510493
 30
0.0
 40
10.0
  0
POLYLINE
  5
255B8
  8
画層1-1
 66
     1
 10
0.0
 20
0.0
 30
0.0
 70
     1
  0
VERTEX
  5
278EB
  8
画層1-1
 10
5582.389917056462
 20
10277.5989694189
 30
0.0
  0
VERTEX
  5
278EC
  8
画層1-1
 10
5736.939917056625
 20
10277.5989694189
 30
0.0
  0
VERTEX
  5
278ED
  8
画層1-1
 10
5736.939917056625
 20
10237.5989694189
 30
0.0
  0
VERTEX
  5
278EE
  8
画層1-1
 10
5582.389917056462
 20
10237.5989694189
 30
0.0
  0
SEQEND
  5
27A6A
  8
画層1-1
  0
CIRCLE
  5
255B9
  8
画層1-2
 10
5348.789917056602
 20
10157.59797510493
 30
0.0
 40
10.0
  0
CIRCLE
  5
255BA
  8
画層1-2
 10
5348.789917056602
 20
10357.59797510493
 30
0.0
 40
10.0
  0
CIRCLE
  5
255BB
  8
画層1-2
 10
5548.789917056602
 20
10257.59797510487
 30
0.0
 40
10.0
  0
CIRCLE
  5
255BC
  8
画層1-2
 10
5348.789917056602
 20
10557.59797510493
 30
0.0
 40
10.0
  0
CIRCLE
  5
255BD
  8
画層1-2
 10
5748.789917056602
 20
10257.59797510487
 30
0.0
 40
10.0
  0
CIRCLE
  5
255BE
  8
画層1-2
 10
5948.789917056602
 20
10257.59797510487
 30
0.0
 40
10.0
  0
CIRCLE
  5
255BF
  8
画層1-2
 10
6348.789917056602
 20
10257.59797510487
 30
0.0
 40
10.0
  0
CIRCLE
  5
255C0
  8
画層1-2
 10
6148.789917056602
 20
10257.59797510487
 30
0.0
 40
10.0
  0
CIRCLE
  5
255C1
  8
画層1-2
 10
6548.789917056602
 20
10257.59797510487
 30
0.0
 40
10.0
  0
CIRCLE
  5
255C2
  8
画層1-2
 10
6748.789917056602
 20
10257.59797510487
 30
0.0
 40
10.0
  0
CIRCLE
  5
255C3
  8
画層1-2
 10
6948.789917056602
 20
10257.59797510487
 30
0.0
 40
10.0
  0
CIRCLE
  5
255C4
  8
画層1-2
 10
7148.789917056602
 20
10257.59797510487
 30
0.0
 40
10.0
  0
CIRCLE
  5
255C5
  8
画層1-2
 10
7348.789917056602
 20
10257.59797510487
 30
0.0
 40
10.0
  0
CIRCLE
  5
255C6
  8
画層1-2
 10
7548.789917056602
 20
10257.59797510487
 30
0.0
 40
10.0
  0
CIRCLE
  5
255C7
  8
画層1-2
 10
7748.789917056602
 20
10257.59797510487
 30
0.0
 40
10.0
  0
CIRCLE
  5
255C8
  8
画層1-2
 10
5348.789917056602
 20
10957.59797510493
 30
0.0
 40
10.0
  0
CIRCLE
  5
255C9
  8
画層1-2
 10
5348.789917056602
 20
10757.59797510493
 30
0.0
 40
10.0
  0
CIRCLE
  5
255CA
  8
画層1-2
 10
5348.789917056602
 20
11157.59797510493
 30
0.0
 40
10.0
  0
POLYLINE
  5
255CB
  8
画層1-1
 66
     1
 10
0.0
 20
0.0
 30
0.0
 70
     1
  0
VERTEX
  5
278EF
  8
画層1-1
 10
5582.389917056462
 20
11927.5989694189
 30
0.0
  0
VERTEX
  5
278F0
  8
画層1-1
 10
5736.939917056625
 20
11927.5989694189
 30
0.0
  0
VERTEX
  5
278F1
  8
画層1-1
 10
5736.939917056625
 20
11887.5989694189
 30
0.0
  0
VERTEX
  5
278F2
  8
画層1-1
 10
5582.389917056462
 20
11887.5989694189
 30
0.0
  0
SEQEND
  5
27A6B
  8
画層1-1
  0
CIRCLE
  5
255CC
  8
画層1-2
 10
5348.789917056602
 20
11557.59797510493
 30
0.0
 40
10.0
  0
CIRCLE
  5
255CD
  8
画層1-2
 10
5348.789917056602
 20
11357.59797510493
 30
0.0
 40
10.0
  0
CIRCLE
  5
255CE
  8
画層1-2
 10
5348.789917056602
 20
11757.59797510493
 30
0.0
 40
10.0
  0
CIRCLE
  5
255CF
  8
画層1-2
 10
5348.789917056602
 20
11957.59797510493
 30
0.0
 40
10.0
  0
CIRCLE
  5
255D0
  8
画層1-2
 10
5548.789917056602
 20
11907.59797510487
 30
0.0
 40
10.0
  0
CIRCLE
  5
255D1
  8
画層1-2
 10
5748.789917056602
 20
11907.59797510487
 30
0.0
 40
10.0
  0
CIRCLE
  5
255D2
  8
画層1-2
 10
5948.789917056602
 20
11907.59797510487
 30
0.0
 40
10.0
  0
CIRCLE
  5
255D3
  8
画層1-2
 10
6348.789917056602
 20
11907.59797510487
 30
0.0
 40
10.0
  0
CIRCLE
  5
255D4
  8
画層1-2
 10
6148.789917056602
 20
11907.59797510487
 30
0.0
 40
10.0
  0
CIRCLE
  5
255D5
  8
画層1-2
 10
6548.789917056602
 20
11907.59797510487
 30
0.0
 40
10.0
  0
CIRCLE
  5
255D6
  8
画層1-2
 10
6748.789917056602
 20
11907.59797510487
 30
0.0
 40
10.0
  0
CIRCLE
  5
255D7
  8
画層1-2
 10
6948.789917056602
 20
11907.59797510487
 30
0.0
 40
10.0
  0
CIRCLE
  5
255D8
  8
画層1-2
 10
5348.789917056602
 20
12157.59797510493
 30
0.0
 40
10.0
  0
CIRCLE
  5
255D9
  8
画層1-2
 10
5348.789917056602
 20
12357.59797510493
 30
0.0
 40
10.0
  0
CIRCLE
  5
255DA
  8
画層1-2
 10
5348.789917056602
 20
12557.59797510493
 30
0.0
 40
10.0
  0
CIRCLE
  5
255DB
  8
画層1-2
 10
5348.789917056602
 20
12957.59797510493
 30
0.0
 40
10.0
  0
CIRCLE
  5
255DC
  8
画層1-2
 10
5348.789917056602
 20
12757.59797510493
 30
0.0
 40
10.0
  0
CIRCLE
  5
255DD
  8
画層1-2
 10
5348.789917056602
 20
13157.59797510493
 30
0.0
 40
10.0
  0
CIRCLE
  5
255DE
  8
画層1-2
 10
7148.789917056602
 20
11907.59797510487
 30
0.0
 40
10.0
  0
CIRCLE
  5
255DF
  8
画層1-2
 10
7348.789917056602
 20
11907.59797510487
 30
0.0
 40
10.0
  0
CIRCLE
  5
255E0
  8
画層1-2
 10
7548.789917056602
 20
11907.59797510487
 30
0.0
 40
10.0
  0
CIRCLE
  5
255E1
  8
画層1-2
 10
7748.789917056602
 20
11907.59797510487
 30
0.0
 40
10.0
  0
POLYLINE
  5
255E2
  8
画層1
 66
     1
 10
0.0
 20
0.0
 30
0.0
 70
     1
  0
VERTEX
  5
278F3
  8
画層1
 10
5582.389917056461
 20
13577.37425444361
 30
0.0
  0
VERTEX
  5
278F4
  8
画層1
 10
5736.939917056624
 20
13577.37425444361
 30
0.0
  0
VERTEX
  5
278F5
  8
画層1
 10
5736.939917056624
 20
13537.37425444361
 30
0.0
  0
VERTEX
  5
278F6
  8
画層1
 10
5582.389917056461
 20
13537.37425444361
 30
0.0
  0
SEQEND
  5
27A6C
  8
画層1
  0
CIRCLE
  5
255E4
  8
画層1-2
 10
5348.789917056602
 20
13357.59797510493
 30
0.0
 40
10.0
  0
CIRCLE
  5
255E5
  8
画層1-2
 10
5348.789917056602
 20
13557.59797510493
 30
0.0
 40
10.0
  0
LINE
  5
255E6
  8
画層1
 10
5556.93991705674
 20
13507.59797510491
 30
0.0
 11
5506.939917056624
 21
13507.59797510491
 31
0.0
  0
CIRCLE
  5
255E7
  8
画層1-2
 10
5548.789917056602
 20
13557.59797510493
 30
0.0
 40
10.0
  0
CIRCLE
  5
255E9
  8
画層1-2
 10
5748.789917056602
 20
13557.59797510493
 30
0.0
 40
10.0
  0
CIRCLE
  5
255EA
  8
画層1-2
 10
5948.789917056602
 20
13557.59797510493
 30
0.0
 40
10.0
  0
CIRCLE
  5
255EB
  8
画層1-2
 10
6348.789917056602
 20
13557.59797510493
 30
0.0
 40
10.0
  0
CIRCLE
  5
255EC
  8
画層1-2
 10
6148.789917056602
 20
13557.59797510493
 30
0.0
 40
10.0
  0
CIRCLE
  5
255ED
  8
画層1-2
 10
6548.789917056602
 20
13557.59797510493
 30
0.0
 40
10.0
  0
CIRCLE
  5
255EE
  8
画層1-2
 10
6748.789917056602
 20
13557.59797510493
 30
0.0
 40
10.0
  0
CIRCLE
  5
255EF
  8
画層1-2
 10
6948.789917056602
 20
13557.59797510493
 30
0.0
 40
10.0
  0
CIRCLE
  5
255F0
  8
画層1-2
 10
7148.789917056602
 20
13557.59797510493
 30
0.0
 40
10.0
  0
CIRCLE
  5
255F1
  8
画層1-2
 10
7348.789917056602
 20
13557.59797510493
 30
0.0
 40
10.0
  0
CIRCLE
  5
255F2
  8
画層1-2
 10
7548.789917056602
 20
13557.59797510493
 30
0.0
 40
10.0
  0
CIRCLE
  5
255F3
  8
画層1-2
 10
7748.789917056602
 20
13557.59797510493
 30
0.0
 40
10.0
  0
LINE
  5
255F4
  8
画層1-2
  6
DASHED
 10
14860.15463385304
 20
10277.59797510487
 30
0.0
 11
5368.789917056602
 21
10277.59797510487
 31
0.0
1001
ACAD
1000
ASC_BOUNDS
1002
{
1070
    19
1005
256F4
1002
}
  0
LINE
  5
255F5
  8
画層1-2
  6
DASHED
 10
14860.15463385304
 20
10237.59797510487
 30
0.0
 11
5368.789917056602
 21
10237.59797510487
 31
0.0
1001
ACAD
1000
ASC_BOUNDS
1002
{
1070
    19
1005
256F4
1002
}
  0
LINE
  5
255F6
  8
画層1-1
  6
CONTINUOUS
 10
5348.789917056602
 20
10257.59797510487
 30
0.0
 11
14860.15463385304
 21
10257.59797510487
 31
0.0
  0
LINE
  5
255F7
  8
画層1-2
  6
DASHED
 10
14860.15463385304
 20
11887.59797510487
 30
0.0
 11
5368.789917056602
 21
11887.59797510487
 31
0.0
1001
ACAD
1000
ASC_BOUNDS
1002
{
1070
    19
1005
256F4
1002
}
  0
LINE
  5
255F8
  8
画層1-2
  6
DASHED
 10
14860.15463385304
 20
11927.59797510487
 30
0.0
 11
5368.789917056602
 21
11927.59797510487
 31
0.0
1001
ACAD
1000
ASC_BOUNDS
1002
{
1070
    19
1005
256F4
1002
}
  0
LINE
  5
255F9
  8
画層1-1
  6
CONTINUOUS
 10
5348.789917056602
 20
11907.59797510487
 30
0.0
 11
14860.15463385304
 21
11907.59797510493
 31
0.0
  0
LINE
  5
255FA
  8
画層1-2
  6
CONTINUOUS
 10
14860.15463385304
 20
13577.59797510493
 30
0.0
 11
5328.789917056602
 21
13577.59797510493
 31
0.0
  0
LINE
  5
255FB
  8
画層1-2
  6
CONTINUOUS
 10
14860.15463385304
 20
13537.59797510493
 30
0.0
 11
5368.789917056602
 21
13537.59797510493
 31
0.0
1001
ACAD
1000
ASC_BOUNDS
1002
{
1070
    19
1005
256F4
1002
}
  0
TEXT
  5
255FC
  8
寸法
  6
CONTINUOUS
 10
6760.159452816009
 20
12660.58801598432
 30
0.0
 40
180.0
  1
210D/30本2.9×3.9mm目
 41
0.75
  7
1_100
  0
TEXT
  5
255FD
  8
寸法
  6
CONTINUOUS
 10
6796.344359621093
 20
13029.07008991
 30
0.0
 40
180.0
  1
防矢ネット
 41
0.75
  7
1_100
  0
POLYLINE
  5
255FE
  8
寸法引出
  6
CONTINUOUS
 66
     1
 10
0.0
 20
0.0
 30
0.0
  0
VERTEX
  5
278F7
  8
寸法引出
  6
CONTINUOUS
 10
6325.175347799239
 20
12310.99528455496
 30
0.0
  0
VERTEX
  5
278F8
  8
寸法引出
  6
CONTINUOUS
 10
6697.344359621093
 20
12969.07008991
 30
0.0
  0
VERTEX
  5
278F9
  8
寸法引出
  6
CONTINUOUS
 10
7534.344359621093
 20
12969.07008991
 30
0.0
  0
SEQEND
  5
27A6D
  8
寸法引出
  6
CONTINUOUS
  0
POLYLINE
  5
255FF
  8
画層1
 66
     1
 10
0.0
 20
0.0
 30
0.0
 70
     1
  0
VERTEX
  5
278FA
  8
画層1
 10
5556.93991705674
 20
13564.74797510488
 30
0.0
  0
VERTEX
  5
278FB
  8
画層1
 10
11140.63991705669
 20
13564.74797510488
 30
0.0
  0
VERTEX
  5
278FC
  8
画層1
 10
11140.63991705669
 20
13450.44797510489
 30
0.0
  0
VERTEX
  5
278FD
  8
画層1
 10
5556.93991705674
 20
13450.44797510489
 30
0.0
  0
SEQEND
  5
27A6E
  8
画層1
  0
LINE
  5
25600
  8
画層1
  6
CONTINUOUS
 10
11348.7899170566
 20
13557.59797510493
 30
0.0
 11
5348.789917056602
 21
13557.59797510493
 31
0.0
  0
TEXT
  5
25601
  8
寸法
  6
CONTINUOUS
 10
7679.073568120752
 20
14194.47047473292
 30
0.0
 40
180.0
  1
端末・コーナー補強ポールφ114.3×3.5mm
 41
0.75
  7
1_100
  0
POLYLINE
  5
25602
  8
寸法引出
  6
CONTINUOUS
 66
     1
 10
0.0
 20
0.0
 30
0.0
  0
VERTEX
  5
278FE
  8
寸法引出
  6
CONTINUOUS
 10
7229.859152324767
 20
13494.64668483561
 30
0.0
  0
VERTEX
  5
278FF
  8
寸法引出
  6
CONTINUOUS
 10
7571.073568120752
 20
14134.47047473292
 30
0.0
  0
VERTEX
  5
27900
  8
寸法引出
  6
CONTINUOUS
 10
11207.07356812075
 20
14134.47047473292
 30
0.0
  0
SEQEND
  5
27A6F
  8
寸法引出
  6
CONTINUOUS
  0
DIMENSION
  5
25603
  8
寸法
  6
CONTINUOUS
  2
*D9
 10
19341.64705991318
 20
5677.597975104407
 30
0.0
 11
19091.64705991318
 21
5527.597975104407
 31
0.0
 70
    32
  1
□<>
  3
1_60
 13
18841.64705991318
 23
6517.597975104407
 33
0.0
 14
19341.64705991318
 24
6517.597975104291
 34
0.0
1001
ACAD
1000
DSTYLE
1002
{
1070
    77
1070
     2
1070
   174
1070
     1
1002
}
  0
DIMENSION
  5
25604
  8
寸法
  6
CONTINUOUS
  2
*D10
 10
19316.64705991318
 20
5997.597975104407
 30
0.0
 11
18484.72017878146
 21
6074.795300047379
 31
0.0
 70
   160
  1
φ<>
  3
1_60
 13
18866.64705991318
 23
6517.597975104407
 33
0.0
 14
19316.64705991318
 24
6517.597975104407
 34
0.0
  0
DIMENSION
  5
25605
  8
寸法
  6
CONTINUOUS
  2
*D11
 10
20991.64705991318
 20
6617.597975104873
 30
0.0
 11
20826.68783981531
 21
6263.089544836956
 31
0.0
 70
   160
  3
1_60
 13
20091.07783531657
 23
6517.597975104873
 33
0.0
 14
20091.07783531657
 24
6617.597975104873
 34
0.0
 50
90.0
  0
LINE
  5
25606
  8
画層2
  6
CONTINUOUS
 10
18002.08636117532
 20
8617.597975104873
 30
0.0
 11
20501.88898548802
 21
8617.597975104873
 31
0.0
  0
TEXT
  5
25607
  8
寸法
  6
CONTINUOUS
 10
18190.97555431729
 20
8662.397287634318
 30
0.0
 40
180.0
  1
▽GL
 41
0.75
  7
1_100
 72
     2
 11
18590.83269717443
 21
8662.397287634318
 31
0.0
 73
     1
  0
LINE
  5
2560F
  8
画層1
  6
CONTINUOUS
 10
19112.76592145398
 20
8997.597975104407
 30
0.0
 11
19072.76592145398
 21
8997.597975104407
 31
0.0
  0
LINE
  5
25610
  8
画層1
  6
CONTINUOUS
 10
19072.76592145398
 20
8817.597975104407
 30
0.0
 11
19112.76592145398
 21
8817.597975104407
 31
0.0
  0
LINE
  5
25611
  8
画層1
  6
CONTINUOUS
 10
19072.76592145398
 20
8997.597975104407
 30
0.0
 11
19072.76592145398
 21
8817.597975104407
 31
0.0
  0
LINE
  5
25612
  8
画層1
  6
CONTINUOUS
 10
19112.76592145398
 20
8817.597975104407
 30
0.0
 11
19112.76592145398
 21
8997.597975104407
 31
0.0
  0
DIMENSION
  5
25613
  8
寸法
  6
CONTINUOUS
  2
*D12
 10
20991.64705991318
 20
8617.59797510487
 30
0.0
 11
21139.54081256004
 21
8390.025050489465
 31
0.0
 70
   160
  3
1_60
 13
20091.07783531657
 23
8417.597975104873
 33
0.0
 14
20091.07783531657
 24
8617.597975104873
 34
0.0
 50
90.0
  0
LINE
  5
25614
  8
ﾊｯﾁﾝｸﾞ
  6
CONTINUOUS
 10
18402.28586426602
 20
8605.123673070746
 30
0.0
 11
18348.5230152832
 21
8551.36082408781
 31
0.0
  0
LINE
  5
25615
  8
ﾊｯﾁﾝｸﾞ
  6
CONTINUOUS
 10
18389.81156223189
 20
8617.597975104873
 30
0.0
 11
18509.81156223283
 21
8497.597975104873
 31
0.0
  0
LINE
  5
25616
  8
ﾊｯﾁﾝｸﾞ
  6
CONTINUOUS
 10
18469.00752172495
 20
8617.597975104873
 30
0.0
 11
18560.67778325236
 21
8525.92771357781
 31
0.0
  0
LINE
  5
25617
  8
ﾊｯﾁﾝｸﾞ
  6
CONTINUOUS
 10
18548.203481218
 20
8617.597975104989
 30
0.0
 11
18600.27576299888
 21
8565.525693324336
 31
0.0
  0
LINE
  5
25618
  8
ﾊｯﾁﾝｸﾞ
  6
CONTINUOUS
 10
18441.88384401255
 20
8565.525693324336
 30
0.0
 11
18373.9561257932
 21
8497.597975104873
 31
0.0
  0
LINE
  5
25619
  8
ﾊｯﾁﾝｸﾞ
  6
CONTINUOUS
 10
18481.48182375907
 20
8525.927713577868
 30
0.0
 11
18453.15208528625
 21
8497.597975104814
 31
0.0
  0
LINE
  5
2561A
  8
ﾊｯﾁﾝｸﾞ
  6
CONTINUOUS
 10
18639.87374274541
 20
8605.123673070746
 30
0.0
 11
18532.34804477954
 21
8497.597975104873
 31
0.0
  0
LINE
  5
2561B
  8
ﾊｯﾁﾝｸﾞ
  6
CONTINUOUS
 10
18679.4717224917
 20
8565.525693324336
 30
0.0
 11
18611.54400427236
 21
8497.597975104873
 31
0.0
  0
LINE
  5
2561C
  8
ﾊｯﾁﾝｸﾞ
  6
CONTINUOUS
 10
18719.06970223823
 20
8525.927713577868
 30
0.0
 11
18690.73996376564
 21
8497.597975104814
 31
0.0
  0
LINE
  5
2561D
  8
ﾊｯﾁﾝｸﾞ
  6
CONTINUOUS
 10
18627.39944071105
 20
8617.59797510493
 30
0.0
 11
18747.39944071175
 21
8497.597975104814
 31
0.0
  0
LINE
  5
2561E
  8
ﾊｯﾁﾝｸﾞ
  6
CONTINUOUS
 10
18706.5954002041
 20
8617.59797510493
 30
0.0
 11
18826.59540020503
 21
8497.597975104814
 31
0.0
  0
LINE
  5
2561F
  8
ﾊｯﾁﾝｸﾞ
  6
CONTINUOUS
 10
18785.79135969739
 20
8617.597975104814
 30
0.0
 11
18841.64705991318
 21
8561.742274889257
 31
0.0
  0
LINE
  5
25620
  8
ﾊｯﾁﾝｸﾞ
  6
CONTINUOUS
 10
19701.81229606752
 20
8525.927713577868
 30
0.0
 11
19730.14203454011
 21
8497.597975104814
 31
0.0
  0
LINE
  5
25621
  8
ﾊｯﾁﾝｸﾞ
  6
CONTINUOUS
 10
19741.41027581381
 20
8565.525693324336
 30
0.0
 11
19809.33799403339
 21
8497.597975104873
 31
0.0
  0
LINE
  5
25622
  8
ﾊｯﾁﾝｸﾞ
  6
CONTINUOUS
 10
19714.28659810164
 20
8617.597975104873
 30
0.0
 11
19622.616336574
 21
8525.927713577868
 31
0.0
  0
LINE
  5
25623
  8
ﾊｯﾁﾝｸﾞ
  6
CONTINUOUS
 10
19793.4825575947
 20
8617.597975104873
 30
0.0
 11
19673.48255759376
 21
8497.597975104873
 31
0.0
  0
LINE
  5
25624
  8
ﾊｯﾁﾝｸﾞ
  6
CONTINUOUS
 10
19781.00825556034
 20
8605.123673070746
 30
0.0
 11
19834.77110454339
 21
8551.36082408781
 31
0.0
  0
LINE
  5
25625
  8
ﾊｯﾁﾝｸﾞ
  6
CONTINUOUS
 10
19397.5027601292
 20
8617.597975104814
 30
0.0
 11
19341.64705991318
 21
8561.742274889257
 31
0.0
  0
LINE
  5
25626
  8
ﾊｯﾁﾝｸﾞ
  6
CONTINUOUS
 10
19476.69871962225
 20
8617.59797510493
 30
0.0
 11
19356.69871962156
 21
8497.597975104814
 31
0.0
  0
LINE
  5
25627
  8
ﾊｯﾁﾝｸﾞ
  6
CONTINUOUS
 10
19555.89467911531
 20
8617.59797510493
 30
0.0
 11
19435.89467911461
 21
8497.597975104814
 31
0.0
  0
LINE
  5
25628
  8
ﾊｯﾁﾝｸﾞ
  6
CONTINUOUS
 10
19464.22441758813
 20
8525.927713577868
 30
0.0
 11
19492.55415606095
 21
8497.597975104814
 31
0.0
  0
LINE
  5
25629
  8
ﾊｯﾁﾝｸﾞ
  6
CONTINUOUS
 10
19503.82239733465
 20
8565.525693324336
 30
0.0
 11
19571.750115554
 21
8497.597975104873
 31
0.0
  0
LINE
  5
2562A
  8
ﾊｯﾁﾝｸﾞ
  6
CONTINUOUS
 10
19543.42037708118
 20
8605.123673070746
 30
0.0
 11
19650.94607504705
 21
8497.597975104873
 31
0.0
  0
LINE
  5
2562B
  8
ﾊｯﾁﾝｸﾞ
  6
CONTINUOUS
 10
19635.09063860836
 20
8617.597975104989
 30
0.0
 11
19583.01835682747
 21
8565.525693324336
 31
0.0
  0
INSERT
  5
2562C
  8
ﾊｯﾁﾝｸﾞ
  2
*X26
 10
0.0
 20
0.0
 30
0.0
1001
ACAD
1000
HATCH
1002
{
1070
    19
1000
PLAST
1040
2000.0
1040
0.7853981633974483
1000
R14_HATCH_DATA
1000
2562C
1011
1.0
1021
0.0
1031
0.0
1021
0.0
1031
0.0
1011
0.0
1021
1.0
1031
0.0
1021
1.0
1031
0.0
1011
0.0
1021
0.0
1031
1.0
1021
0.0
1031
1.0
1040
0.0
1010
0.0
1020
0.0
1030
1.0
1020
0.0
1030
1.0
1000
PLAST
1070
     0
1070
     1
1071
        2
1071
        7
1070
     0
1070
     1
1071
        6
1040
19316.64705991318
1040
8417.597975104814
1040
19341.64705991318
1040
8417.597975104814
1040
19341.6470599133
1040
8617.597975104873
1040
19091.64705991318
1040
8617.59797510493
1040
19091.64705991306
1040
6617.597975104814
1040
19316.64705991318
1040
6617.597975104814
1071
        0
1071
        7
1070
     0
1070
     1
1071
        6
1040
19091.64705991306
1040
8617.597975104873
1040
18841.64705991318
1040
8617.597975104873
1040
18841.64705991318
1040
8417.597975104814
1040
18866.64705991306
1040
8417.597975104814
1040
18866.64705991318
1040
6617.597975104814
1040
19091.64705991318
1040
6617.597975104814
1071
        0
1070
     0
1070
     1
1040
0.7853981633974483
1040
2000.0
1070
     0
1070
     3
1040
0.7853981633974483
1040
-599388.1200781711
1040
-335202.2113723563
1040
-353.5533905932737
1040
353.5533905932738
1070
     0
1040
0.7853981633974483
1040
-599432.3142519954
1040
-335158.0171985321
1040
-353.5533905932737
1040
353.5533905932738
1070
     0
1040
0.7853981633974483
1040
-599476.5084258195
1040
-335113.823024708
1040
-353.5533905932737
1040
353.5533905932738
1070
     0
1040
4.802052958333107
1071
        2
1040
19245.25831555101
1040
7980.283182305167
1040
0.0
1040
18971.34134619628
1040
7965.877038318315
1040
0.0
1002
}
  0
POLYLINE
  5
2562D
  8
画層2
 66
     1
 10
0.0
 20
0.0
 30
0.0
  0
VERTEX
  5
27914
  8
画層2
 10
18841.64705991318
 20
8617.597975104873
 30
0.0
  0
VERTEX
  5
27915
  8
画層2
 10
18841.64705991318
 20
8417.597975104814
 30
0.0
  0
VERTEX
  5
27916
  8
画層2
 10
18866.64705991318
 20
8417.597975104814
 30
0.0
  0
VERTEX
  5
27917
  8
画層2
 10
18866.64705991318
 20
6517.597975104814
 30
0.0
  0
VERTEX
  5
27918
  8
画層2
 10
19316.64705991318
 20
6517.597975104814
 30
0.0
  0
VERTEX
  5
27919
  8
画層2
 10
19316.64705991318
 20
8417.597975104814
 30
0.0
  0
VERTEX
  5
2791A
  8
画層2
 10
19341.64705991318
 20
8417.597975104814
 30
0.0
  0
VERTEX
  5
2791B
  8
画層2
 10
19341.64705991318
 20
8617.597975104873
 30
0.0
  0
SEQEND
  5
27A70
  8
画層2
  0
LINE
  5
2562E
  8
ﾊｯﾁﾝｸﾞ
  6
CONTINUOUS
 10
19146.45468104856
 20
6517.597975104814
 30
0.0
 11
19204.18970796761
 21
6617.597975104814
 31
0.0
  0
LINE
  5
2562F
  8
ﾊｯﾁﾝｸﾞ
  6
CONTINUOUS
 10
19159.29296490821
 20
6539.834535031579
 30
0.0
 11
19172.13124876764
 21
6517.597975104814
 31
0.0
  0
LINE
  5
25630
  8
ﾊｯﾁﾝｸﾞ
  6
CONTINUOUS
 10
19175.47146906649
 20
6617.597975104814
 30
0.0
 11
19191.57860237375
 21
6595.754899476538
 31
0.0
  0
LINE
  5
25631
  8
ﾊｯﾁﾝｸﾞ
  6
CONTINUOUS
 10
19233.05722142701
 20
6517.597975104814
 30
0.0
 11
19290.79224834583
 21
6617.597975104814
 31
0.0
  0
LINE
  5
25632
  8
ﾊｯﾁﾝｸﾞ
  6
CONTINUOUS
 10
19245.89550528644
 20
6539.834535031579
 30
0.0
 11
19258.7337891461
 21
6517.597975104814
 31
0.0
  0
LINE
  5
25633
  8
ﾊｯﾁﾝｸﾞ
  6
CONTINUOUS
 10
19262.07400944495
 20
6617.597975104814
 30
0.0
 11
19278.18114275198
 21
6595.754899476538
 31
0.0
  0
LINE
  5
25634
  8
ﾊｯﾁﾝｸﾞ
  6
CONTINUOUS
 10
19059.8521406701
 20
6517.597975104814
 30
0.0
 11
19117.58716758915
 21
6617.597975104814
 31
0.0
  0
LINE
  5
25635
  8
ﾊｯﾁﾝｸﾞ
  6
CONTINUOUS
 10
19072.69042452976
 20
6539.834535031579
 30
0.0
 11
19085.52870838918
 21
6517.597975104814
 31
0.0
  0
LINE
  5
25636
  8
ﾊｯﾁﾝｸﾞ
  6
CONTINUOUS
 10
19088.86892868803
 20
6617.597975104814
 30
0.0
 11
19104.97606199506
 21
6595.754899476538
 31
0.0
  0
LINE
  5
25637
  8
ﾊｯﾁﾝｸﾞ
  6
CONTINUOUS
 10
18973.24960029164
 20
6517.597975104814
 30
0.0
 11
19030.98462721069
 21
6617.597975104814
 31
0.0
  0
LINE
  5
25638
  8
ﾊｯﾁﾝｸﾞ
  6
CONTINUOUS
 10
18986.0878841513
 20
6539.834535031579
 30
0.0
 11
18998.92616801072
 21
6517.597975104814
 31
0.0
  0
LINE
  5
25639
  8
ﾊｯﾁﾝｸﾞ
  6
CONTINUOUS
 10
19002.26638830957
 20
6617.597975104814
 30
0.0
 11
19018.37352161684
 21
6595.754899476538
 31
0.0
  0
LINE
  5
2563A
  8
ﾊｯﾁﾝｸﾞ
  6
CONTINUOUS
 10
18886.64705991318
 20
6517.597975104814
 30
0.0
 11
18944.38208683223
 21
6617.597975104814
 31
0.0
  0
LINE
  5
2563B
  8
ﾊｯﾁﾝｸﾞ
  6
CONTINUOUS
 10
18899.48534377284
 20
6539.834535031579
 30
0.0
 11
18912.32362763226
 21
6517.597975104814
 31
0.0
  0
LINE
  5
2563C
  8
ﾊｯﾁﾝｸﾞ
  6
CONTINUOUS
 10
18915.66384793112
 20
6617.597975104814
 30
0.0
 11
18931.77098123814
 21
6595.754899476538
 31
0.0
  0
LINE
  5
2563D
  8
画層2
 10
19316.64705991318
 20
6617.597975104814
 30
0.0
 11
18866.64705991318
 21
6617.597975104814
 31
0.0
  0
TEXT
  5
2563E
  8
寸法
  6
CONTINUOUS
 10
8737.307009239568
 20
7959.76738560613
 30
0.0
 40
180.0
  1
タ-ンバックル12mm
 41
0.75
  7
1_100
  0
POLYLINE
  5
2563F
  8
寸法引出
  6
CONTINUOUS
 66
     1
 10
0.0
 20
0.0
 30
0.0
  0
VERTEX
  5
2791C
  8
寸法引出
  6
CONTINUOUS
 10
11039.51474699495
 20
8765.809526816358
 30
0.0
  0
VERTEX
  5
2791D
  8
寸法引出
  6
CONTINUOUS
 10
10601.59272352528
 20
7899.76738560613
 30
0.0
  0
VERTEX
  5
2791E
  8
寸法引出
  6
CONTINUOUS
 10
8757.557009239568
 20
7899.76738560613
 30
0.0
  0
SEQEND
  5
27A71
  8
寸法引出
  6
CONTINUOUS
  0
CIRCLE
  5
25640
  8
画層1-2
 10
7948.789917056602
 20
8642.597975104873
 30
0.0
 40
10.0
  0
CIRCLE
  5
25641
  8
画層1-2
 10
8148.789917056602
 20
8642.597975104873
 30
0.0
 40
10.0
  0
CIRCLE
  5
25642
  8
画層1-2
 10
8348.789917056602
 20
8642.597975104873
 30
0.0
 40
10.0
  0
CIRCLE
  5
25643
  8
画層1-2
 10
8548.789917056602
 20
8642.597975104873
 30
0.0
 40
10.0
  0
CIRCLE
  5
25644
  8
画層1-2
 10
8748.789917056602
 20
8642.597975104873
 30
0.0
 40
10.0
  0
CIRCLE
  5
25645
  8
画層1-2
 10
8948.789917056602
 20
8642.597975104873
 30
0.0
 40
10.0
  0
CIRCLE
  5
25646
  8
画層1-2
 10
9148.789917056602
 20
8642.597975104873
 30
0.0
 40
10.0
  0
CIRCLE
  5
25647
  8
画層1-2
 10
9548.789917056602
 20
8642.597975104873
 30
0.0
 40
10.0
  0
CIRCLE
  5
25648
  8
画層1-2
 10
9348.789917056602
 20
8642.597975104873
 30
0.0
 40
10.0
  0
CIRCLE
  5
25649
  8
画層1-2
 10
9748.789917056602
 20
8642.597975104873
 30
0.0
 40
10.0
  0
POLYLINE
  5
2564A
  8
画層1-1
 66
     1
 10
0.0
 20
0.0
 30
0.0
 70
     1
  0
VERTEX
  5
2791F
  8
画層1-1
 10
10993.64533234327
 20
8857.187948931369
 30
0.0
  0
VERTEX
  5
27920
  8
画層1-1
 10
10967.7661032041
 20
8826.687694847988
 30
0.0
  0
VERTEX
  5
27921
  8
画層1-1
 10
11105.01724657958
 20
8710.23116372103
 30
0.0
  0
VERTEX
  5
27922
  8
画層1-1
 10
11130.89647571899
 20
8740.731417804529
 30
0.0
  0
SEQEND
  5
27A72
  8
画層1-1
  0
CIRCLE
  5
2564B
  8
画層1-2
 10
9948.789917056602
 20
8642.597975104873
 30
0.0
 40
10.0
  0
CIRCLE
  5
2564C
  8
画層1-2
 10
10148.7899170566
 20
8642.597975104873
 30
0.0
 40
10.0
  0
CIRCLE
  5
2564D
  8
画層1-2
 10
10348.7899170566
 20
8642.597975104873
 30
0.0
 40
10.0
  0
CIRCLE
  5
2564E
  8
画層1-2
 10
10548.7899170566
 20
8642.597975104873
 30
0.0
 40
10.0
  0
CIRCLE
  5
2564F
  8
画層1-2
 10
11148.7899170566
 20
8642.597975104873
 30
0.0
 40
10.0
  0
CIRCLE
  5
25650
  8
画層1-2
 10
10748.7899170566
 20
8642.597975104873
 30
0.0
 40
10.0
  0
CIRCLE
  5
25651
  8
画層1-2
 10
10948.7899170566
 20
8642.597975104873
 30
0.0
 40
10.0
  0
CIRCLE
  5
25652
  8
画層1-2
 10
11348.7899170566
 20
8642.597975104873
 30
0.0
 40
10.0
  0
CIRCLE
  5
25653
  8
画層1-2
 10
11548.7899170566
 20
8642.597975104873
 30
0.0
 40
10.0
  0
CIRCLE
  5
25654
  8
画層1-2
 10
11748.7899170566
 20
8642.597975104873
 30
0.0
 40
10.0
  0
CIRCLE
  5
25655
  8
画層1-2
 10
11948.7899170566
 20
8642.597975104873
 30
0.0
 40
10.0
  0
CIRCLE
  5
25656
  8
画層1-2
 10
12148.7899170566
 20
8642.597975104873
 30
0.0
 40
10.0
  0
CIRCLE
  5
25657
  8
画層1-2
 10
12348.7899170566
 20
8642.597975104873
 30
0.0
 40
10.0
  0
TEXT
  5
25658
  8
寸法
  6
CONTINUOUS
 10
12540.77856962922
 20
4951.145823008148
 30
0.0
 40
180.0
  1
6,000
 41
0.75
  7
1_100
  0
CIRCLE
  5
25659
  8
画層1-2
 10
14348.7899170566
 20
8642.597975104873
 30
0.0
 40
10.0
  0
CIRCLE
  5
2565A
  8
画層1-2
 10
12748.7899170566
 20
8642.597975104873
 30
0.0
 40
10.0
  0
CIRCLE
  5
2565B
  8
画層1-2
 10
12548.7899170566
 20
8642.597975104873
 30
0.0
 40
10.0
  0
CIRCLE
  5
2565C
  8
画層1-2
 10
12948.7899170566
 20
8642.597975104873
 30
0.0
 40
10.0
  0
CIRCLE
  5
2565D
  8
画層1-2
 10
13148.7899170566
 20
8642.597975104873
 30
0.0
 40
10.0
  0
CIRCLE
  5
2565E
  8
画層1-2
 10
13348.7899170566
 20
8642.597975104873
 30
0.0
 40
10.0
  0
CIRCLE
  5
2565F
  8
画層1-2
 10
13548.7899170566
 20
8642.597975104873
 30
0.0
 40
10.0
  0
CIRCLE
  5
25660
  8
画層1-2
 10
13748.7899170566
 20
8642.597975104873
 30
0.0
 40
10.0
  0
CIRCLE
  5
25661
  8
画層1-2
 10
13948.7899170566
 20
8642.597975104873
 30
0.0
 40
10.0
  0
CIRCLE
  5
25662
  8
画層1-2
 10
14148.7899170566
 20
8642.597975104873
 30
0.0
 40
10.0
  0
CIRCLE
  5
25663
  8
画層1-2
 10
14548.7899170566
 20
8642.597975104873
 30
0.0
 40
10.0
  0
CIRCLE
  5
25664
  8
画層1-2
 10
14748.7899170566
 20
8642.597975104873
 30
0.0
 40
10.0
  0
LINE
  5
25665
  8
ﾊｯﾁﾝｸﾞ
  6
CONTINUOUS
 10
10659.42872140944
 20
8605.123673070746
 30
0.0
 11
10605.66587242662
 21
8551.36082408781
 31
0.0
  0
LINE
  5
25666
  8
ﾊｯﾁﾝｸﾞ
  6
CONTINUOUS
 10
10646.95441937532
 20
8617.597975104873
 30
0.0
 11
10766.95441937625
 21
8497.597975104873
 31
0.0
  0
LINE
  5
25667
  8
ﾊｯﾁﾝｸﾞ
  6
CONTINUOUS
 10
10726.15037886837
 20
8617.597975104873
 30
0.0
 11
10817.82064039578
 21
8525.92771357781
 31
0.0
  0
LINE
  5
25668
  8
ﾊｯﾁﾝｸﾞ
  6
CONTINUOUS
 10
10805.34633836142
 20
8617.597975104989
 30
0.0
 11
10857.41862014231
 21
8565.525693324336
 31
0.0
  0
LINE
  5
25669
  8
ﾊｯﾁﾝｸﾞ
  6
CONTINUOUS
 10
10699.02670115597
 20
8565.525693324336
 30
0.0
 11
10631.09898293662
 21
8497.597975104873
 31
0.0
  0
LINE
  5
2566A
  8
ﾊｯﾁﾝｸﾞ
  6
CONTINUOUS
 10
10738.6246809025
 20
8525.927713577868
 30
0.0
 11
10710.29494242967
 21
8497.597975104814
 31
0.0
  0
LINE
  5
2566B
  8
ﾊｯﾁﾝｸﾞ
  6
CONTINUOUS
 10
10897.01659988883
 20
8605.123673070746
 30
0.0
 11
10789.49090192296
 21
8497.597975104873
 31
0.0
  0
LINE
  5
2566C
  8
ﾊｯﾁﾝｸﾞ
  6
CONTINUOUS
 10
10936.61457963513
 20
8565.525693324336
 30
0.0
 11
10868.68686141578
 21
8497.597975104873
 31
0.0
  0
LINE
  5
2566D
  8
ﾊｯﾁﾝｸﾞ
  6
CONTINUOUS
 10
10976.21255938165
 20
8525.927713577868
 30
0.0
 11
10947.88282090906
 21
8497.597975104814
 31
0.0
  0
LINE
  5
2566E
  8
ﾊｯﾁﾝｸﾞ
  6
CONTINUOUS
 10
10884.54229785447
 20
8617.59797510493
 30
0.0
 11
11004.54229785517
 21
8497.597975104814
 31
0.0
  0
LINE
  5
2566F
  8
ﾊｯﾁﾝｸﾞ
  6
CONTINUOUS
 10
10963.73825734753
 20
8617.59797510493
 30
0.0
 11
11083.73825734846
 21
8497.597975104814
 31
0.0
  0
LINE
  5
25670
  8
ﾊｯﾁﾝｸﾞ
  6
CONTINUOUS
 10
11042.93421684081
 20
8617.597975104814
 30
0.0
 11
11098.7899170566
 21
8561.742274889257
 31
0.0
  0
LINE
  5
25671
  8
ﾊｯﾁﾝｸﾞ
  6
CONTINUOUS
 10
11958.95515321094
 20
8525.927713577868
 30
0.0
 11
11987.28489168353
 21
8497.597975104814
 31
0.0
  0
LINE
  5
25672
  8
ﾊｯﾁﾝｸﾞ
  6
CONTINUOUS
 10
11998.55313295723
 20
8565.525693324336
 30
0.0
 11
12066.48085117681
 21
8497.597975104873
 31
0.0
  0
LINE
  5
25673
  8
ﾊｯﾁﾝｸﾞ
  6
CONTINUOUS
 10
11971.42945524507
 20
8617.597975104873
 30
0.0
 11
11879.75919371742
 21
8525.927713577868
 31
0.0
  0
LINE
  5
25674
  8
ﾊｯﾁﾝｸﾞ
  6
CONTINUOUS
 10
12050.62541473812
 20
8617.597975104873
 30
0.0
 11
11930.62541473719
 21
8497.597975104873
 31
0.0
  0
LINE
  5
25675
  8
ﾊｯﾁﾝｸﾞ
  6
CONTINUOUS
 10
12038.15111270376
 20
8605.123673070746
 30
0.0
 11
12091.91396168681
 21
8551.36082408781
 31
0.0
  0
LINE
  5
25676
  8
ﾊｯﾁﾝｸﾞ
  6
CONTINUOUS
 10
11654.64561727262
 20
8617.597975104814
 30
0.0
 11
11598.7899170566
 21
8561.742274889257
 31
0.0
  0
LINE
  5
25677
  8
ﾊｯﾁﾝｸﾞ
  6
CONTINUOUS
 10
11733.84157676568
 20
8617.59797510493
 30
0.0
 11
11613.84157676498
 21
8497.597975104814
 31
0.0
  0
LINE
  5
25678
  8
ﾊｯﾁﾝｸﾞ
  6
CONTINUOUS
 10
11813.03753625873
 20
8617.59797510493
 30
0.0
 11
11693.03753625803
 21
8497.597975104814
 31
0.0
  0
LINE
  5
25679
  8
ﾊｯﾁﾝｸﾞ
  6
CONTINUOUS
 10
11721.36727473155
 20
8525.927713577868
 30
0.0
 11
11749.69701320437
 21
8497.597975104814
 31
0.0
  0
LINE
  5
2567A
  8
ﾊｯﾁﾝｸﾞ
  6
CONTINUOUS
 10
11760.96525447808
 20
8565.525693324336
 30
0.0
 11
11828.89297269742
 21
8497.597975104873
 31
0.0
  0
LINE
  5
2567B
  8
ﾊｯﾁﾝｸﾞ
  6
CONTINUOUS
 10
11800.5632342246
 20
8605.123673070746
 30
0.0
 11
11908.08893219048
 21
8497.597975104873
 31
0.0
  0
LINE
  5
2567C
  8
ﾊｯﾁﾝｸﾞ
  6
CONTINUOUS
 10
11892.23349575178
 20
8617.597975104989
 30
0.0
 11
11840.1612139709
 21
8565.525693324336
 31
0.0
  0
INSERT
  5
2567D
  8
ﾊｯﾁﾝｸﾞ
  2
*X27
 10
0.0
 20
0.0
 30
0.0
1001
ACAD
1000
HATCH
1002
{
1070
    19
1000
PLAST
1040
2000.0
1040
0.7853981633974483
1000
R14_HATCH_DATA
1000
2567D
1011
1.0
1021
0.0
1031
0.0
1021
0.0
1031
0.0
1011
0.0
1021
1.0
1031
0.0
1021
1.0
1031
0.0
1011
0.0
1021
0.0
1031
1.0
1021
0.0
1031
1.0
1040
0.0
1010
0.0
1020
0.0
1030
1.0
1020
0.0
1030
1.0
1000
PLAST
1070
     0
1070
     1
1071
        2
1071
        7
1070
     0
1070
     1
1071
        6
1040
11573.7899170566
1040
8417.597975104814
1040
11598.7899170566
1040
8417.597975104814
1040
11598.78991705672
1040
8617.597975104873
1040
11348.7899170566
1040
8617.59797510493
1040
11348.78991705649
1040
6617.597975104814
1040
11573.7899170566
1040
6617.597975104814
1071
        0
1071
        7
1070
     0
1070
     1
1071
        6
1040
11348.78991705649
1040
8617.597975104873
1040
11098.7899170566
1040
8617.597975104873
1040
11098.7899170566
1040
8417.597975104814
1040
11123.78991705649
1040
8417.597975104814
1040
11123.7899170566
1040
6617.597975104814
1040
11348.7899170566
1040
6617.597975104814
1071
        0
1070
     0
1070
     1
1040
0.7853981633974483
1040
2000.0
1070
     0
1070
     3
1040
0.7853981633974483
1040
-607130.9772210277
1040
-335202.2113723563
1040
-353.5533905932737
1040
353.5533905932738
1070
     0
1040
0.7853981633974483
1040
-607175.171394852
1040
-335158.0171985321
1040
-353.5533905932737
1040
353.5533905932738
1070
     0
1040
0.7853981633974483
1040
-607219.365568676
1040
-335113.823024708
1040
-353.5533905932737
1040
353.5533905932738
1070
     0
1040
4.802052958333107
1071
        2
1040
11502.40117269444
1040
7980.283182305167
1040
0.0
1040
11228.48420333971
1040
7965.877038318315
1040
0.0
1002
}
  0
POLYLINE
  5
2567E
  8
画層2
 66
     1
 10
0.0
 20
0.0
 30
0.0
  0
VERTEX
  5
27936
  8
画層2
 10
11098.7899170566
 20
8617.597975104873
 30
0.0
  0
VERTEX
  5
27937
  8
画層2
 10
11098.7899170566
 20
8417.597975104814
 30
0.0
  0
VERTEX
  5
27938
  8
画層2
 10
11123.7899170566
 20
8417.597975104814
 30
0.0
  0
VERTEX
  5
27939
  8
画層2
 10
11123.7899170566
 20
6517.597975104814
 30
0.0
  0
VERTEX
  5
2793A
  8
画層2
 10
11573.7899170566
 20
6517.597975104814
 30
0.0
  0
VERTEX
  5
2793B
  8
画層2
 10
11573.7899170566
 20
8417.597975104814
 30
0.0
  0
VERTEX
  5
2793C
  8
画層2
 10
11598.7899170566
 20
8417.597975104814
 30
0.0
  0
VERTEX
  5
2793D
  8
画層2
 10
11598.7899170566
 20
8617.597975104873
 30
0.0
  0
SEQEND
  5
27A73
  8
画層2
  0
LINE
  5
2567F
  8
ﾊｯﾁﾝｸﾞ
  6
CONTINUOUS
 10
11403.59753819198
 20
6517.597975104814
 30
0.0
 11
11461.33256511103
 21
6617.597975104814
 31
0.0
  0
LINE
  5
25680
  8
ﾊｯﾁﾝｸﾞ
  6
CONTINUOUS
 10
11416.43582205164
 20
6539.834535031579
 30
0.0
 11
11429.27410591106
 21
6517.597975104814
 31
0.0
  0
LINE
  5
25681
  8
ﾊｯﾁﾝｸﾞ
  6
CONTINUOUS
 10
11432.61432620991
 20
6617.597975104814
 30
0.0
 11
11448.72145951718
 21
6595.754899476538
 31
0.0
  0
LINE
  5
25682
  8
ﾊｯﾁﾝｸﾞ
  6
CONTINUOUS
 10
11490.20007857044
 20
6517.597975104814
 30
0.0
 11
11547.93510548925
 21
6617.597975104814
 31
0.0
  0
LINE
  5
25683
  8
ﾊｯﾁﾝｸﾞ
  6
CONTINUOUS
 10
11503.03836242986
 20
6539.834535031579
 30
0.0
 11
11515.87664628952
 21
6517.597975104814
 31
0.0
  0
LINE
  5
25684
  8
ﾊｯﾁﾝｸﾞ
  6
CONTINUOUS
 10
11519.21686658837
 20
6617.597975104814
 30
0.0
 11
11535.3239998954
 21
6595.754899476538
 31
0.0
  0
LINE
  5
25685
  8
ﾊｯﾁﾝｸﾞ
  6
CONTINUOUS
 10
11316.99499781352
 20
6517.597975104814
 30
0.0
 11
11374.73002473257
 21
6617.597975104814
 31
0.0
  0
LINE
  5
25686
  8
ﾊｯﾁﾝｸﾞ
  6
CONTINUOUS
 10
11329.83328167318
 20
6539.834535031579
 30
0.0
 11
11342.6715655326
 21
6517.597975104814
 31
0.0
  0
LINE
  5
25687
  8
ﾊｯﾁﾝｸﾞ
  6
CONTINUOUS
 10
11346.01178583146
 20
6617.597975104814
 30
0.0
 11
11362.11891913848
 21
6595.754899476538
 31
0.0
  0
LINE
  5
25688
  8
ﾊｯﾁﾝｸﾞ
  6
CONTINUOUS
 10
11230.39245743506
 20
6517.597975104814
 30
0.0
 11
11288.12748435411
 21
6617.597975104814
 31
0.0
  0
LINE
  5
25689
  8
ﾊｯﾁﾝｸﾞ
  6
CONTINUOUS
 10
11243.23074129472
 20
6539.834535031579
 30
0.0
 11
11256.06902515415
 21
6517.597975104814
 31
0.0
  0
LINE
  5
2568A
  8
ﾊｯﾁﾝｸﾞ
  6
CONTINUOUS
 10
11259.409245453
 20
6617.597975104814
 30
0.0
 11
11275.51637876026
 21
6595.754899476538
 31
0.0
  0
LINE
  5
2568B
  8
ﾊｯﾁﾝｸﾞ
  6
CONTINUOUS
 10
11143.7899170566
 20
6517.597975104814
 30
0.0
 11
11201.52494397565
 21
6617.597975104814
 31
0.0
  0
LINE
  5
2568C
  8
ﾊｯﾁﾝｸﾞ
  6
CONTINUOUS
 10
11156.62820091626
 20
6539.834535031579
 30
0.0
 11
11169.46648477569
 21
6517.597975104814
 31
0.0
  0
LINE
  5
2568D
  8
ﾊｯﾁﾝｸﾞ
  6
CONTINUOUS
 10
11172.80670507454
 20
6617.597975104814
 30
0.0
 11
11188.91383838157
 21
6595.754899476538
 31
0.0
  0
LINE
  5
2568E
  8
画層2
 10
11573.7899170566
 20
6617.597975104814
 30
0.0
 11
11123.7899170566
 21
6617.597975104814
 31
0.0
  0
DIMENSION
  5
2568F
  8
寸法
  6
CONTINUOUS
  2
*D13
 10
16858.78991705579
 20
6617.597975104931
 30
0.0
 11
16691.64705991293
 21
7617.597975104904
 31
0.0
 70
    32
  3
1_60
 13
15358.7899170559
 23
8617.597975104873
 33
0.0
 14
15358.7899170559
 24
6617.597975104931
 34
0.0
 50
90.0
  0
DIMENSION
  5
25690
  8
寸法
  6
CONTINUOUS
  2
*D14
 10
16258.7899170559
 20
8417.59797510493
 30
0.0
 11
16091.64705991304
 21
7517.597975104934
 31
0.0
 70
    32
  3
1_60
 13
15358.7899170559
 23
6617.597975104931
 33
0.0
 14
15358.7899170559
 24
8417.59797510493
 34
0.0
 50
90.0
  0
DIMENSION
  5
25691
  8
寸法
  6
CONTINUOUS
  2
*D15
 10
16258.7899170559
 20
6617.597975104931
 30
0.0
 11
16124.47861244359
 21
6263.089544836956
 31
0.0
 70
   160
  3
1_60
 13
15358.7899170559
 23
6517.597975104931
 33
0.0
 14
15358.7899170559
 24
6617.597975104931
 34
0.0
 50
90.0
  0
DIMENSION
  5
25692
  8
寸法
  6
CONTINUOUS
  2
*D16
 10
16258.7899170559
 20
8617.597975104873
 30
0.0
 11
16411.79403284859
 21
8400.053784187941
 31
0.0
 70
   160
  3
1_60
 13
15358.7899170559
 23
8417.59797510493
 33
0.0
 14
15358.7899170559
 24
8617.597975104873
 34
0.0
 50
90.0
  0
DIMENSION
  5
25693
  8
寸法
  6
CONTINUOUS
  2
*D17
 10
5573.789917056602
 20
5997.597975104931
 30
0.0
 11
4691.695106427571
 21
6076.435297842894
 31
0.0
 70
   160
  1
φ<>
  3
1_60
 13
5123.789917056602
 23
6517.597975104931
 33
0.0
 14
5573.789917056602
 24
6517.597975104931
 34
0.0
  0
DIMENSION
  5
25694
  8
寸法
  6
CONTINUOUS
  2
*D18
 10
5598.789917056602
 20
5677.597975104931
 30
0.0
 11
5348.789917056602
 21
5527.597975104931
 31
0.0
 70
    32
  1
□<>
  3
1_60
 13
5098.789917056602
 23
6517.597975104931
 33
0.0
 14
5598.789917056602
 24
6517.597975104814
 34
0.0
1001
ACAD
1000
DSTYLE
1002
{
1070
    77
1070
     2
1070
   174
1070
     1
1002
}
  0
TEXT
  5
25695
  8
寸法
  6
CONTINUOUS
 10
6135.694092417521
 20
7640.036925109802
 30
0.0
 40
180.0
  1
コンクリート
 41
0.75
  7
1_100
  0
POLYLINE
  5
25696
  8
寸法引出
  6
CONTINUOUS
 66
     1
 10
0.0
 20
0.0
 30
0.0
  0
VERTEX
  5
2793E
  8
寸法引出
  6
CONTINUOUS
 10
5573.789917056602
 20
7190.476216304814
 30
0.0
  0
VERTEX
  5
2793F
  8
寸法引出
  6
CONTINUOUS
 10
6047.944092417521
 20
7580.036925109802
 30
0.0
  0
VERTEX
  5
27940
  8
寸法引出
  6
CONTINUOUS
 10
7035.694092417521
 20
7580.036925109802
 30
0.0
  0
SEQEND
  5
27A74
  8
寸法引出
  6
CONTINUOUS
  0
TEXT
  5
25697
  8
寸法
  6
CONTINUOUS
 10
6192.535421656132
 20
7064.185512238822
 30
0.0
 40
180.0
  1
砕石
 41
0.75
  7
1_100
  0
POLYLINE
  5
25698
  8
寸法引出
  6
CONTINUOUS
 66
     1
 10
0.0
 20
0.0
 30
0.0
  0
VERTEX
  5
27941
  8
寸法引出
  6
CONTINUOUS
 10
5573.789917056602
 20
6567.597975104931
 30
0.0
  0
VERTEX
  5
27942
  8
寸法引出
  6
CONTINUOUS
 10
6084.535421656132
 20
7004.185512238822
 30
0.0
  0
VERTEX
  5
27943
  8
寸法引出
  6
CONTINUOUS
 10
6480.535421656132
 20
7004.185512238822
 30
0.0
  0
SEQEND
  5
27A75
  8
寸法引出
  6
CONTINUOUS
  0
TEXT
  5
25699
  8
寸法
  6
CONTINUOUS
 10
3769.764663482969
 20
9033.13644470676
 30
0.0
 40
180.0
  1
FRPカバー
 41
0.75
  7
1_100
  0
POLYLINE
  5
2569A
  8
寸法引出
  6
CONTINUOUS
 66
     1
 10
0.0
 20
0.0
 30
0.0
  0
VERTEX
  5
27944
  8
寸法引出
  6
CONTINUOUS
 10
5255.73071681572
 20
8688.102835697297
 30
0.0
  0
VERTEX
  5
27945
  8
寸法引出
  6
CONTINUOUS
 10
4706.728949197255
 20
8973.13644470676
 30
0.0
  0
VERTEX
  5
27946
  8
寸法引出
  6
CONTINUOUS
 10
3795.478949197255
 20
8973.13644470676
 30
0.0
  0
SEQEND
  5
27A76
  8
寸法引出
  6
CONTINUOUS
  0
TEXT
  5
2569B
  8
寸法
  6
CONTINUOUS
 10
2856.859599290934
 20
8673.463423860027
 30
0.0
 40
180.0
  1
▽GL
 41
0.75
  7
1_100
 72
     2
 11
3256.716742148077
 21
8673.463423860027
 31
0.0
 73
     1
  0
TEXT
  5
2569C
  8
寸法
  6
CONTINUOUS
 10
3917.880855893934
 20
8709.755938235263
 30
0.0
 40
180.0
  1
（250）
 41
0.75
  7
1_100
  0
POLYLINE
  5
2569D
  8
画層1-1
 66
     1
 10
0.0
 20
0.0
 30
0.0
 70
     1
  0
VERTEX
  5
27947
  8
画層1-1
 10
5701.798384473718
 20
8855.375469965958
 30
0.0
  0
VERTEX
  5
27948
  8
画層1-1
 10
5727.677613613005
 20
8824.875215882521
 30
0.0
  0
VERTEX
  5
27949
  8
画層1-1
 10
5590.426470237529
 20
8708.418684755612
 30
0.0
  0
VERTEX
  5
2794A
  8
画層1-1
 10
5564.547241098242
 20
8738.918938838935
 30
0.0
  0
SEQEND
  5
27A77
  8
画層1-1
  0
CIRCLE
  5
2569E
  8
画層1-2
 10
5348.789917056602
 20
8757.59797510493
 30
0.0
 40
10.0
  0
POLYLINE
  5
2569F
  8
画層1
 66
     1
 10
0.0
 20
0.0
 30
0.0
 70
     1
  0
VERTEX
  5
2794B
  8
画層1
 10
5569.589917056648
 20
8622.374254443625
 30
0.0
  0
VERTEX
  5
2794C
  8
画層1
 10
5724.589917056648
 20
8622.374254443625
 30
0.0
  0
VERTEX
  5
2794D
  8
画層1
 10
5724.589917056648
 20
8662.374254443625
 30
0.0
  0
VERTEX
  5
2794E
  8
画層1
 10
5569.589917056648
 20
8662.374254443625
 30
0.0
  0
SEQEND
  5
27A78
  8
画層1
  0
CIRCLE
  5
256A0
  8
画層1-2
 10
5348.789917056602
 20
8642.597975104873
 30
0.0
 40
10.0
  0
CIRCLE
  5
256A1
  8
画層1-2
 10
5548.789917056602
 20
8642.597975104873
 30
0.0
 40
10.0
  0
CIRCLE
  5
256A2
  8
画層1-2
 10
5748.789917056602
 20
8642.597975104873
 30
0.0
 40
10.0
  0
CIRCLE
  5
256A3
  8
画層1-2
 10
5948.789917056602
 20
8642.597975104873
 30
0.0
 40
10.0
  0
CIRCLE
  5
256A4
  8
画層1-2
 10
5348.789917056602
 20
8957.59797510493
 30
0.0
 40
10.0
  0
POLYLINE
  5
256A5
  8
画層1
 66
     1
 10
0.0
 20
0.0
 30
0.0
 70
     1
  0
VERTEX
  5
2794F
  8
画層1
 10
5328.789917056602
 20
8997.597975104873
 30
0.0
  0
VERTEX
  5
27950
  8
画層1
 10
5368.789917056602
 20
8997.597975104873
 30
0.0
  0
VERTEX
  5
27951
  8
画層1
 10
5368.789917056602
 20
8817.597975104873
 30
0.0
  0
VERTEX
  5
27952
  8
画層1
 10
5328.789917056602
 20
8817.597975104873
 30
0.0
  0
SEQEND
  5
27A79
  8
画層1
  0
CIRCLE
  5
256A6
  8
画層1-2
 10
5348.789917056602
 20
9157.59797510493
 30
0.0
 40
10.0
  0
CIRCLE
  5
256A7
  8
画層1-2
 10
5348.789917056602
 20
9357.59797510493
 30
0.0
 40
10.0
  0
CIRCLE
  5
256A8
  8
画層1-2
 10
6348.789917056602
 20
8642.597975104873
 30
0.0
 40
10.0
  0
CIRCLE
  5
256A9
  8
画層1-2
 10
6148.789917056602
 20
8642.597975104873
 30
0.0
 40
10.0
  0
CIRCLE
  5
256AA
  8
画層1-2
 10
6548.789917056602
 20
8642.597975104873
 30
0.0
 40
10.0
  0
CIRCLE
  5
256AB
  8
画層1-2
 10
6748.789917056602
 20
8642.597975104873
 30
0.0
 40
10.0
  0
CIRCLE
  5
256AC
  8
画層1-2
 10
6948.789917056602
 20
8642.597975104873
 30
0.0
 40
10.0
  0
CIRCLE
  5
256AD
  8
画層1-2
 10
7148.789917056602
 20
8642.597975104873
 30
0.0
 40
10.0
  0
CIRCLE
  5
256AE
  8
画層1-2
 10
7348.789917056602
 20
8642.597975104873
 30
0.0
 40
10.0
  0
CIRCLE
  5
256AF
  8
画層1-2
 10
7548.789917056602
 20
8642.597975104873
 30
0.0
 40
10.0
  0
CIRCLE
  5
256B0
  8
画層1-2
 10
7748.789917056602
 20
8642.597975104873
 30
0.0
 40
10.0
  0
LINE
  5
256B1
  8
ﾊｯﾁﾝｸﾞ
  6
CONTINUOUS
 10
4659.428721409444
 20
8605.123673070746
 30
0.0
 11
4605.665872426624
 21
8551.36082408781
 31
0.0
  0
LINE
  5
256B2
  8
ﾊｯﾁﾝｸﾞ
  6
CONTINUOUS
 10
4646.954419375317
 20
8617.597975104873
 30
0.0
 11
4766.954419376249
 21
8497.597975104873
 31
0.0
  0
LINE
  5
256B3
  8
ﾊｯﾁﾝｸﾞ
  6
CONTINUOUS
 10
4726.150378868369
 20
8617.597975104873
 30
0.0
 11
4817.820640395781
 21
8525.92771357781
 31
0.0
  0
LINE
  5
256B4
  8
ﾊｯﾁﾝｸﾞ
  6
CONTINUOUS
 10
4805.346338361422
 20
8617.597975104989
 30
0.0
 11
4857.418620142307
 21
8565.525693324336
 31
0.0
  0
LINE
  5
256B5
  8
ﾊｯﾁﾝｸﾞ
  6
CONTINUOUS
 10
4699.02670115597
 20
8565.525693324336
 30
0.0
 11
4631.098982936623
 21
8497.597975104873
 31
0.0
  0
LINE
  5
256B6
  8
ﾊｯﾁﾝｸﾞ
  6
CONTINUOUS
 10
4738.624680902496
 20
8525.927713577868
 30
0.0
 11
4710.294942429675
 21
8497.597975104814
 31
0.0
  0
LINE
  5
256B7
  8
ﾊｯﾁﾝｸﾞ
  6
CONTINUOUS
 10
4897.016599888833
 20
8605.123673070746
 30
0.0
 11
4789.49090192296
 21
8497.597975104873
 31
0.0
  0
LINE
  5
256B8
  8
ﾊｯﾁﾝｸﾞ
  6
CONTINUOUS
 10
4936.614579635127
 20
8565.525693324336
 30
0.0
 11
4868.686861415779
 21
8497.597975104873
 31
0.0
  0
LINE
  5
256B9
  8
ﾊｯﾁﾝｸﾞ
  6
CONTINUOUS
 10
4976.212559381653
 20
8525.927713577868
 30
0.0
 11
4947.882820909064
 21
8497.597975104814
 31
0.0
  0
LINE
  5
256BA
  8
ﾊｯﾁﾝｸﾞ
  6
CONTINUOUS
 10
4884.542297854474
 20
8617.59797510493
 30
0.0
 11
5004.542297855172
 21
8497.597975104814
 31
0.0
  0
LINE
  5
256BB
  8
ﾊｯﾁﾝｸﾞ
  6
CONTINUOUS
 10
4963.738257347526
 20
8617.59797510493
 30
0.0
 11
5083.738257348457
 21
8497.597975104814
 31
0.0
  0
LINE
  5
256BC
  8
ﾊｯﾁﾝｸﾞ
  6
CONTINUOUS
 10
5042.934216840811
 20
8617.597975104814
 30
0.0
 11
5098.789917056602
 21
8561.742274889257
 31
0.0
  0
LINE
  5
256BD
  8
ﾊｯﾁﾝｸﾞ
  6
CONTINUOUS
 10
5958.95515321094
 20
8525.927713577868
 30
0.0
 11
5987.284891683528
 21
8497.597975104814
 31
0.0
  0
LINE
  5
256BE
  8
ﾊｯﾁﾝｸﾞ
  6
CONTINUOUS
 10
5998.553132957233
 20
8565.525693324336
 30
0.0
 11
6066.480851176813
 21
8497.597975104873
 31
0.0
  0
LINE
  5
256BF
  8
ﾊｯﾁﾝｸﾞ
  6
CONTINUOUS
 10
5971.429455245066
 20
8617.597975104873
 30
0.0
 11
5879.759193717422
 21
8525.927713577868
 31
0.0
  0
LINE
  5
256C0
  8
ﾊｯﾁﾝｸﾞ
  6
CONTINUOUS
 10
6050.625414738119
 20
8617.597975104873
 30
0.0
 11
5930.625414737187
 21
8497.597975104873
 31
0.0
  0
LINE
  5
256C1
  8
ﾊｯﾁﾝｸﾞ
  6
CONTINUOUS
 10
6038.151112703759
 20
8605.123673070746
 30
0.0
 11
6091.913961686812
 21
8551.36082408781
 31
0.0
  0
LINE
  5
256C2
  8
ﾊｯﾁﾝｸﾞ
  6
CONTINUOUS
 10
5654.645617272625
 20
8617.597975104814
 30
0.0
 11
5598.789917056602
 21
8561.742274889257
 31
0.0
  0
LINE
  5
256C3
  8
ﾊｯﾁﾝｸﾞ
  6
CONTINUOUS
 10
5733.841576765677
 20
8617.59797510493
 30
0.0
 11
5613.841576764979
 21
8497.597975104814
 31
0.0
  0
LINE
  5
256C4
  8
ﾊｯﾁﾝｸﾞ
  6
CONTINUOUS
 10
5813.037536258729
 20
8617.59797510493
 30
0.0
 11
5693.037536258031
 21
8497.597975104814
 31
0.0
  0
LINE
  5
256C5
  8
ﾊｯﾁﾝｸﾞ
  6
CONTINUOUS
 10
5721.36727473155
 20
8525.927713577868
 30
0.0
 11
5749.697013204372
 21
8497.597975104814
 31
0.0
  0
LINE
  5
256C6
  8
ﾊｯﾁﾝｸﾞ
  6
CONTINUOUS
 10
5760.965254478077
 20
8565.525693324336
 30
0.0
 11
5828.892972697424
 21
8497.597975104873
 31
0.0
  0
LINE
  5
256C7
  8
ﾊｯﾁﾝｸﾞ
  6
CONTINUOUS
 10
5800.563234224603
 20
8605.123673070746
 30
0.0
 11
5908.088932190476
 21
8497.597975104873
 31
0.0
  0
LINE
  5
256C8
  8
ﾊｯﾁﾝｸﾞ
  6
CONTINUOUS
 10
5892.233495751781
 20
8617.597975104989
 30
0.0
 11
5840.161213970896
 21
8565.525693324336
 31
0.0
  0
INSERT
  5
256C9
  8
ﾊｯﾁﾝｸﾞ
  2
*X28
 10
0.0
 20
0.0
 30
0.0
1001
ACAD
1000
HATCH
1002
{
1070
    19
1000
PLAST
1040
2000.0
1040
0.7853981633974483
1000
R14_HATCH_DATA
1000
256C9
1011
1.0
1021
0.0
1031
0.0
1021
0.0
1031
0.0
1011
0.0
1021
1.0
1031
0.0
1021
1.0
1031
0.0
1011
0.0
1021
0.0
1031
1.0
1021
0.0
1031
1.0
1040
0.0
1010
0.0
1020
0.0
1030
1.0
1020
0.0
1030
1.0
1000
PLAST
1070
     0
1070
     1
1071
        2
1071
        7
1070
     0
1070
     1
1071
        6
1040
5573.789917056602
1040
8417.597975104814
1040
5598.789917056602
1040
8417.597975104814
1040
5598.789917056718
1040
8617.597975104873
1040
5348.789917056602
1040
8617.59797510493
1040
5348.789917056485
1040
6617.597975104814
1040
5573.789917056602
1040
6617.597975104814
1071
        0
1071
        7
1070
     0
1070
     1
1071
        6
1040
5348.789917056485
1040
8617.597975104873
1040
5098.789917056602
1040
8617.597975104873
1040
5098.789917056602
1040
8417.597975104814
1040
5123.789917056485
1040
8417.597975104814
1040
5123.789917056602
1040
6617.597975104814
1040
5348.789917056602
1040
6617.597975104814
1071
        0
1070
     0
1070
     1
1040
0.7853981633974483
1040
2000.0
1070
     0
1070
     3
1040
0.7853981633974483
1040
-613130.9772210277
1040
-335202.2113723563
1040
-353.5533905932737
1040
353.5533905932738
1070
     0
1040
0.7853981633974483
1040
-613175.171394852
1040
-335158.0171985321
1040
-353.5533905932737
1040
353.5533905932738
1070
     0
1040
0.7853981633974483
1040
-613219.365568676
1040
-335113.823024708
1040
-353.5533905932737
1040
353.5533905932738
1070
     0
1040
4.802052958333107
1071
        2
1040
5502.401172694437
1040
7980.283182305167
1040
0.0
1040
5228.484203339707
1040
7965.877038318315
1040
0.0
1002
}
  0
POLYLINE
  5
256CA
  8
画層2
 66
     1
 10
0.0
 20
0.0
 30
0.0
  0
VERTEX
  5
27966
  8
画層2
 10
5098.789917056602
 20
8617.597975104873
 30
0.0
  0
VERTEX
  5
27967
  8
画層2
 10
5098.789917056602
 20
8417.597975104814
 30
0.0
  0
VERTEX
  5
27968
  8
画層2
 10
5123.789917056602
 20
8417.597975104814
 30
0.0
  0
VERTEX
  5
27969
  8
画層2
 10
5123.789917056602
 20
6517.597975104814
 30
0.0
  0
VERTEX
  5
2796A
  8
画層2
 10
5573.789917056602
 20
6517.597975104814
 30
0.0
  0
VERTEX
  5
2796B
  8
画層2
 10
5573.789917056602
 20
8417.597975104814
 30
0.0
  0
VERTEX
  5
2796C
  8
画層2
 10
5598.789917056602
 20
8417.597975104814
 30
0.0
  0
VERTEX
  5
2796D
  8
画層2
 10
5598.789917056602
 20
8617.597975104873
 30
0.0
  0
SEQEND
  5
27A7A
  8
画層2
  0
LINE
  5
256CB
  8
ﾊｯﾁﾝｸﾞ
  6
CONTINUOUS
 10
5403.597538191978
 20
6517.597975104814
 30
0.0
 11
5461.332565111028
 21
6617.597975104814
 31
0.0
  0
LINE
  5
256CC
  8
ﾊｯﾁﾝｸﾞ
  6
CONTINUOUS
 10
5416.435822051637
 20
6539.834535031579
 30
0.0
 11
5429.274105911063
 21
6517.597975104814
 31
0.0
  0
LINE
  5
256CD
  8
ﾊｯﾁﾝｸﾞ
  6
CONTINUOUS
 10
5432.614326209914
 20
6617.597975104814
 30
0.0
 11
5448.721459517175
 21
6595.754899476538
 31
0.0
  0
LINE
  5
256CE
  8
ﾊｯﾁﾝｸﾞ
  6
CONTINUOUS
 10
5490.200078570437
 20
6517.597975104814
 30
0.0
 11
5547.935105489254
 21
6617.597975104814
 31
0.0
  0
LINE
  5
256CF
  8
ﾊｯﾁﾝｸﾞ
  6
CONTINUOUS
 10
5503.038362429863
 20
6539.834535031579
 30
0.0
 11
5515.876646289522
 21
6517.597975104814
 31
0.0
  0
LINE
  5
256D0
  8
ﾊｯﾁﾝｸﾞ
  6
CONTINUOUS
 10
5519.216866588373
 20
6617.597975104814
 30
0.0
 11
5535.323999895401
 21
6595.754899476538
 31
0.0
  0
LINE
  5
256D1
  8
ﾊｯﾁﾝｸﾞ
  6
CONTINUOUS
 10
5316.994997813519
 20
6517.597975104814
 30
0.0
 11
5374.730024732569
 21
6617.597975104814
 31
0.0
  0
LINE
  5
256D2
  8
ﾊｯﾁﾝｸﾞ
  6
CONTINUOUS
 10
5329.833281673178
 20
6539.834535031579
 30
0.0
 11
5342.671565532604
 21
6517.597975104814
 31
0.0
  0
LINE
  5
256D3
  8
ﾊｯﾁﾝｸﾞ
  6
CONTINUOUS
 10
5346.011785831455
 20
6617.597975104814
 30
0.0
 11
5362.118919138484
 21
6595.754899476538
 31
0.0
  0
LINE
  5
256D4
  8
ﾊｯﾁﾝｸﾞ
  6
CONTINUOUS
 10
5230.39245743506
 20
6517.597975104814
 30
0.0
 11
5288.12748435411
 21
6617.597975104814
 31
0.0
  0
LINE
  5
256D5
  8
ﾊｯﾁﾝｸﾞ
  6
CONTINUOUS
 10
5243.230741294719
 20
6539.834535031579
 30
0.0
 11
5256.069025154145
 21
6517.597975104814
 31
0.0
  0
LINE
  5
256D6
  8
ﾊｯﾁﾝｸﾞ
  6
CONTINUOUS
 10
5259.409245452996
 20
6617.597975104814
 30
0.0
 11
5275.516378760258
 21
6595.754899476538
 31
0.0
  0
LINE
  5
256D7
  8
ﾊｯﾁﾝｸﾞ
  6
CONTINUOUS
 10
5143.789917056602
 20
6517.597975104814
 30
0.0
 11
5201.524943975652
 21
6617.597975104814
 31
0.0
  0
LINE
  5
256D8
  8
ﾊｯﾁﾝｸﾞ
  6
CONTINUOUS
 10
5156.628200916261
 20
6539.834535031579
 30
0.0
 11
5169.466484775687
 21
6517.597975104814
 31
0.0
  0
LINE
  5
256D9
  8
ﾊｯﾁﾝｸﾞ
  6
CONTINUOUS
 10
5172.806705074538
 20
6617.597975104814
 30
0.0
 11
5188.913838381566
 21
6595.754899476538
 31
0.0
  0
LINE
  5
256DA
  8
画層2
 10
5573.789917056602
 20
6617.597975104814
 30
0.0
 11
5123.789917056602
 21
6617.597975104814
 31
0.0
  0
LINE
  5
256DB
  8
画層1
  6
CONTINUOUS
 10
14860.15463385304
 20
8642.597975104873
 30
0.0
 11
5348.789917056602
 21
8642.597975104873
 31
0.0
  0
LINE
  5
256DC
  8
画層2
  6
CONTINUOUS
 10
14860.15463385304
 20
8617.597975104873
 30
0.0
 11
2732.735710386572
 21
8617.597975104873
 31
0.0
  0
LINE
  5
256DD
  8
画層1-2
  6
CONTINUOUS
 10
14860.15463385304
 20
8622.597975104873
 30
0.0
 11
5328.789917056602
 21
8622.597975104873
 31
0.0
  0
LINE
  5
256DE
  8
画層1-2
  6
CONTINUOUS
 10
14860.15463385304
 20
8662.597975104873
 30
0.0
 11
5368.789917056602
 21
8662.597975104873
 31
0.0
1001
ACAD
1000
ASC_BOUNDS
1002
{
1070
    19
1005
256F4
1002
}
  0
DIMENSION
  5
256DF
  8
寸法
  6
CONTINUOUS
  2
*D19
 10
11348.7899170566
 20
4880.045487684547
 30
0.0
 11
8348.789917056602
 21
5047.188344827404
 31
0.0
 70
    32
  3
1_60
 13
5348.789917056602
 23
5450.097975104931
 33
0.0
 14
11348.7899170566
 24
6375.13050331152
 34
0.0
  0
TEXT
  5
256E0
  8
寸法
  6
CONTINUOUS
 10
12517.65775895437
 20
9444.183752472512
 30
0.0
 40
180.0
  1
メッセンワイヤー38m㎡
 41
0.75
  7
1_100
1001
ACAD
1000
ASC_BOUNDS
1002
{
1070
    19
1005
256F4
1002
}
  0
POLYLINE
  5
256E1
  8
寸法引出
  6
CONTINUOUS
 66
     1
 10
0.0
 20
0.0
 30
0.0
  0
VERTEX
  5
2796E
  8
寸法引出
  6
CONTINUOUS
 10
12062.28444850216
 20
10257.59797510487
 30
0.0
  0
VERTEX
  5
2796F
  8
寸法引出
  6
CONTINUOUS
 10
12432.15775895437
 20
9384.183752472512
 30
0.0
  0
VERTEX
  5
27970
  8
寸法引出
  6
CONTINUOUS
 10
14376.15775895437
 20
9384.183752472512
 30
0.0
  0
SEQEND
  5
27A7B
  8
寸法引出
  6
CONTINUOUS
  0
LINE
  5
256E2
  8
通り芯
  6
DASHDOT
 10
5348.789917056602
 20
6375.13050331152
 30
0.0
 11
5348.789917056602
 21
13678.06063480751
 31
0.0
  0
LINE
  5
256E3
  8
通り芯
  6
DASHDOT
 10
11348.7899170566
 20
6375.13050331152
 30
0.0
 11
11348.7899170566
 21
13678.06063480751
 31
0.0
  0
LINE
  5
256E4
  8
画層1-1
  6
CONTINUOUS
 10
11215.63991705646
 20
13507.59797510492
 30
0.0
 11
5481.939917056624
 21
8642.597975104858
 31
0.0
  0
LINE
  5
256E5
  8
画層1-2
  6
CONTINUOUS
 10
5328.789917056602
 20
8622.597975104873
 30
0.0
 11
5328.789917056602
 21
13577.59797510493
 31
0.0
  0
LINE
  5
256E6
  8
画層1-2
  6
CONTINUOUS
 10
5368.789917056602
 20
8662.597975104873
 30
0.0
 11
5368.789917056602
 21
13537.59797510493
 31
0.0
  0
LINE
  5
256E7
  8
画層1
  6
CONTINUOUS
 10
5348.789917056602
 20
13582.59797510493
 30
0.0
 11
5348.789917056602
 21
8617.597975104873
 31
0.0
  0
LINE
  5
256E8
  8
DEFPOINTS
 10
6207.50801800358
 20
13614.7479751049
 30
0.0
 11
7035.506971104223
 21
8617.597975104873
 31
0.0
  0
LINE
  5
256E9
  8
画層1-1
  6
CONTINUOUS
 10
11215.63991705646
 20
8642.597975104858
 30
0.0
 11
5481.939917056624
 21
13507.59797510491
 31
0.0
  0
LINE
  5
256EA
  8
通り芯
  6
DASHDOT
 10
19091.64705991318
 20
6375.13050331152
 30
0.0
 11
19091.64705991318
 21
13678.06063480751
 31
0.0
  0
LINE
  5
256EB
  8
画層1
  6
CONTINUOUS
 10
19091.64705991318
 20
13597.59797510493
 30
0.0
 11
19091.64705991318
 21
8642.597975104873
 31
0.0
  0
DIMENSION
  5
256ED
  8
寸法
  6
CONTINUOUS
  2
*D20
 10
16858.78991705579
 20
8617.597975104873
 30
0.0
 11
16691.64705991292
 21
11117.5979751049
 31
0.0
 70
    32
  3
1_60
 13
15358.7899170559
 23
13617.59797510493
 33
0.0
 14
15358.7899170559
 24
8617.597975104873
 34
0.0
 50
90.0
  0
LINE
  5
256EE
  8
DEFPOINTS
 10
14860.15463385304
 20
13577.59797510493
 30
0.0
 11
14860.15463385304
 21
8617.597975104873
 31
0.0
1001
ACAD
1000
ASC_BOUNDS
1002
{
1070
    19
1005
256F4
1005
256F4
1005
256F4
1002
}
  0
LINE
  5
256EF
  8
DEFPOINTS
 10
13478.19559954355
 20
13577.59797510493
 30
0.0
 11
14300.03901176438
 21
8617.597975104873
 31
0.0
1001
ACAD
1000
ASC_BOUNDS
1002
{
1070
    19
1005
256F4
1005
256F4
1005
256F4
1002
}
  0
DIMENSION
  5
256F0
  8
寸法
  6
CONTINUOUS
  2
*D21
 10
16258.7899170559
 20
10257.59797510487
 30
0.0
 11
16091.64705991304
 21
9437.597975104874
 31
0.0
 70
    32
  3
1_60
 13
15358.7899170559
 23
8617.597975104873
 33
0.0
 14
15398.7899170559
 24
10257.59797510487
 34
0.0
 50
90.0
  0
DIMENSION
  5
256F1
  8
寸法
  6
CONTINUOUS
  2
*D22
 10
21591.64705991318
 20
8617.59797510487
 30
0.0
 11
21424.50420277032
 21
11117.5979751049
 31
0.0
 70
    32
  3
1_60
 13
20091.07783531657
 23
13617.59797510493
 33
0.0
 14
20091.07783531657
 24
8617.597975104873
 34
0.0
 50
90.0
  0
DIMENSION
  5
256F2
  8
寸法
  6
CONTINUOUS
  2
*D23
 10
20991.64705991318
 20
10257.59797510487
 30
0.0
 11
20824.50420277032
 21
9437.597975104874
 31
0.0
 70
    32
  3
1_60
 13
20091.07783531657
 23
8617.597975104873
 33
0.0
 14
20091.07783531657
 24
10257.59797510487
 34
0.0
 50
90.0
  0
INSERT
  5
256F4
  8
ﾈｯﾄ
 62
   230
  2
*X29
 10
0.0
 20
0.0
 30
0.0
1001
ACAD
1000
HATCH
1002
{
1070
    19
1000
NET
1040
360.0
1040
0.0
1000
ASC_BOUNDS
1070
     5
1070
     2
1070
     4
1005
255FB
1005
256EF
1005
255F8
1005
256EE
1070
     2
1070
     4
1005
255F7
1005
256EF
1005
255F4
1005
256EE
1070
     2
1070
     4
1005
255F5
1005
256EF
1005
256DE
1005
256EE
1070
     2
1070
     1
1005
25531
1070
     2
1070
     1
1005
256E0
1000
ASC_SEEDPOINT
1011
14675.22976285747
1021
12611.94596882246
1031
0.0
1021
12611.94596882246
1031
0.0
1000
R14_HATCH_DATA
1000
256F4
1011
1.0
1021
0.0
1031
0.0
1021
0.0
1031
0.0
1011
0.0
1021
1.0
1031
0.0
1021
1.0
1031
0.0
1011
0.0
1021
0.0
1031
1.0
1021
0.0
1031
1.0
1040
0.0
1010
0.0
1020
0.0
1030
1.0
1020
0.0
1030
1.0
1000
NET
1070
     0
1070
     1
1071
        5
1071
        7
1070
     0
1070
     1
1071
        4
1040
14860.15463385304
1040
13537.59797510493
1040
13484.82336899694
1040
13537.59797510493
1040
13751.59108949605
1040
11927.59797510487
1040
14860.15463385304
1040
11927.59797510487
1071
        4
1005
255FB
1005
256EF
1005
255F8
1005
256EE
1071
        7
1070
     0
1070
     1
1071
        4
1040
14860.15463385304
1040
11887.59797510487
1040
13758.21885894944
1040
11887.59797510487
1040
14024.98657944854
1040
10277.59797510487
1040
14860.15463385304
1040
10277.59797510487
1071
        4
1005
255F7
1005
256EF
1005
255F4
1005
256EE
1071
        7
1070
     0
1070
     1
1071
        4
1040
14031.61434890193
1040
10237.59797510487
1040
14292.58277112931
1040
8662.597975104874
1040
14860.15463385304
1040
8662.597975104873
1040
14860.15463385304
1040
10237.59797510487
1071
        4
1005
255F5
1005
256EF
1005
256DE
1005
256EE
1071
        9
1071
        4
1070
     1
1040
12322.07364328768
1040
13389.80970264447
1040
14272.07364328768
1040
13389.80970264447
1070
     1
1040
14272.07364328768
1040
13389.80970264447
1040
14272.07364328768
1040
13091.80970264447
1070
     1
1040
14272.07364328768
1040
13091.80970264447
1040
12322.07364328768
1040
13091.80970264447
1070
     1
1040
12322.07364328768
1040
13091.80970264447
1040
12322.07364328768
1040
13389.80970264447
1071
        1
1005
25531
1071
        9
1071
        4
1070
     1
1040
12495.15775895437
1040
9697.183752472512
1040
14445.15775895437
1040
9697.183752472512
1070
     1
1040
14445.15775895437
1040
9697.183752472512
1040
14445.15775895437
1040
9399.183752472512
1070
     1
1040
14445.15775895437
1040
9399.183752472512
1040
12495.15775895437
1040
9399.183752472512
1070
     1
1040
12495.15775895437
1040
9399.183752472512
1040
12495.15775895437
1040
9697.183752472512
1071
        1
1005
256E0
1070
     0
1070
     1
1040
0.0
1040
360.0
1070
     0
1070
     2
1040
0.0
1040
828.7902984328607
1040
574.1719143584121
1040
0.0
1040
45.0
1070
     0
1040
1.570796326794897
1040
828.7902984328607
1040
574.1719143584121
1040
-45.0
1040
0.0000000000000028
1070
     0
1040
19.33582896483517
1071
        3
1040
14675.22976285747
1040
12611.94596882246
1040
0.0
1040
14636.5151321978
1040
11277.77381635259
1040
0.0
1040
14655.87344476177
1040
10078.95258068282
1040
0.0
1002
}
  0
POLYLINE
  5
256F8
  8
図面枠
 66
     1
 10
0.0
 20
0.0
 30
0.0
 70
     1
  0
VERTEX
  5
27A38
  8
図面枠
 10
828.7899170562155
 20
874.1718374864574
 30
0.0
  0
VERTEX
  5
27A39
  8
図面枠
 10
24228.78991705621
 20
874.1718374864574
 30
0.0
  0
VERTEX
  5
27A3A
  8
図面枠
 10
24228.78991705621
 20
16174.17183748648
 30
0.0
  0
VERTEX
  5
27A3B
  8
図面枠
 10
828.7899170562155
 20
16174.17183748648
 30
0.0
  0
SEQEND
  5
27A7C
  8
図面枠
  0
TEXT
  5
259B3
  8
画層1
 10
8628.789887264764
 20
2462.642198412106
 30
0.0
 40
240.0000000003384
  1
設計条件
 41
0.75
  7
1_100
  0
TEXT
  5
259B4
  8
画層1
 10
8628.789887264764
 20
3602.642198413712
 30
0.0
 40
240.0000000003384
  1
提出書類
 41
0.75
  7
1_100
  0
TEXT
  5
259B7
  8
画層1
 10
2628.789887265179
 20
2402.642198412019
 30
0.0
 40
180.0000000002537
  1
・ネット仕様は210D/30本2.9×3.9mm目とする
 41
0.75
  7
1_100
  0
TEXT
  5
259B8
  8
画層1
 10
2328.789917055161
 20
3634.171837490841
 30
0.0
 40
240.0000000003384
  1
仕様について
 41
0.75
  7
1_100
 11
2328.789917055161
 21
3634.171837490841
 31
0.0
 73
     1
  0
TEXT
  5
259B9
  8
画層1
 10
2628.789887265179
 20
2702.642198412437
 30
0.0
 40
180.0000000002537
  1
・上部（補強ポール・ネット）下り防止金具付きとする
 41
0.75
  7
1_100
  0
TEXT
  5
259BA
  8
画層1
 10
2628.789887265179
 20
3002.642198412874
 30
0.0
 40
180.0000000002537
  1
・主柱ポール基礎部（ＧＬ）はＦＲＰカバーとする
 41
0.75
  7
1_100
  0
TEXT
  5
259BB
  8
画層1
 10
2628.789887265179
 20
3302.642198413294
 30
0.0
 40
180.0000000002537
  1
・主柱．端末ポール．バンド金具．ボルトは溶融亜鉛メッキ仕上げとする
 41
0.75
  7
1_100
  0
TEXT
  5
259BF
  8
画層1
 10
8928.789887265179
 20
3302.642198413294
 30
0.0
 40
180.0000000002537
  1
・【施工前】構造計算書・材料承認願いを提出し、承認後施工のこと。
 41
0.75
  7
1_100
  0
TEXT
  5
259C0
  8
画層1
 10
8928.789887265179
 20
1862.642198411249
 30
0.0
 40
180.0000000002537
  1
・速度圧　q=0.6EVo （N/㎡）　
 41
0.75
  7
1_100
  0
TEXT
  5
259C1
  8
画層1
 10
10711.31700399888
 20
1994.257204519756
 30
0.0
 40
78.00000000010995
  1
2
 41
0.75
  7
1_100
  0
TEXT
  5
259C2
  8
画層1
 10
13003.3186314843
 20
1860.243562104629
 30
0.0
 40
180.0000000002537
  1
Ⅲ
 41
0.75
  7
STYLE1
  0
TEXT
  5
259C4
  8
画層1
 10
8928.789887265179
 20
2162.642198411686
 30
0.0
 40
180.0000000002537
  1
・設計荷重。建築基準法・同施工令（平成12年6月）に基づく風圧力に依る、基準風速。
 41
0.75
  7
1_100
  0
TEXT
  5
259C5
  8
画層1
 10
11649.01427189242
 20
1862.642198411249
 30
0.0
 40
180.0000000002537
  1
・地表面粗度区分　　　・基礎　普通土質 [B] を選定
 41
0.75
  7
1_100
  0
TEXT
  5
259C6
  8
画層3
 10
23740.21848848478
 20
1084.171837486458
 30
0.0
 40
180.0
  1
22
 41
0.75
  7
1_100
 72
     1
 11
23868.78991705621
 21
1084.171837486458
 31
0.0
 73
     1
  0
LINE
  5
26C69
  8
画層1
  6
CONTINUOUS
 10
5240.639917056462
 20
13617.59797510493
 30
0.0
 11
5240.639917056462
 21
6617.597975104814
 31
0.0
  0
LINE
  5
26C6B
  8
画層1
  6
CONTINUOUS
 10
5240.639917056462
 20
13617.59797510493
 30
0.0
 11
5456.939917056625
 21
13617.59797510493
 31
0.0
  0
LINE
  5
26C6C
  8
画層1
  6
CONTINUOUS
 10
5240.639917056462
 20
13597.59797510493
 30
0.0
 11
5456.939917056625
 21
13597.59797510493
 31
0.0
  0
LINE
  5
26C6D
  8
画層1
  6
CONTINUOUS
 10
5456.939917056625
 20
6617.597975104814
 30
0.0
 11
5456.939917056625
 21
13617.59797510493
 31
0.0
  0
LINE
  5
26C87
  8
画層1
  6
CONTINUOUS
 10
11240.63991705646
 20
13617.59797510493
 30
0.0
 11
11240.63991705646
 21
6617.597975104814
 31
0.0
  0
LINE
  5
26C89
  8
画層1
  6
CONTINUOUS
 10
11240.63991705646
 20
13617.59797510493
 30
0.0
 11
11456.93991705662
 21
13617.59797510493
 31
0.0
  0
LINE
  5
26C8A
  8
画層1
  6
CONTINUOUS
 10
11240.63991705646
 20
13597.59797510493
 30
0.0
 11
11456.93991705662
 21
13597.59797510493
 31
0.0
  0
LINE
  5
26C8B
  8
画層1
  6
CONTINUOUS
 10
11456.93991705662
 20
6617.597975104814
 30
0.0
 11
11456.93991705662
 21
13617.59797510493
 31
0.0
  0
LINE
  5
26CA5
  8
画層1
  6
CONTINUOUS
 10
18983.49705991304
 20
13617.59797510441
 30
0.0
 11
18983.49705991304
 21
6617.597975104813
 31
0.0
  0
LINE
  5
26CA7
  8
画層1
  6
CONTINUOUS
 10
18983.49705991304
 20
13617.59797510441
 30
0.0
 11
19199.7970599132
 21
13617.59797510441
 31
0.0
  0
LINE
  5
26CA8
  8
画層1
  6
CONTINUOUS
 10
18983.49705991304
 20
13597.59797510441
 30
0.0
 11
19199.7970599132
 21
13597.59797510441
 31
0.0
  0
LINE
  5
26CA9
  8
画層1
  6
CONTINUOUS
 10
19199.7970599132
 20
6617.597975104813
 30
0.0
 11
19199.7970599132
 21
13617.59797510441
 31
0.0
  0
LINE
  5
26CC5
  8
画層1
  6
CONTINUOUS
 10
18933.49705991321
 20
13582.59797510441
 30
0.0
 11
18933.49705991321
 21
13532.59797510441
 31
0.0
  0
LINE
  5
26CC6
  8
画層1
  6
CONTINUOUS
 10
19116.64705991312
 20
13532.59797510441
 30
0.0
 11
19199.79705991314
 21
13532.59797510441
 31
0.0
  0
LINE
  5
26CC7
  8
画層1
  6
CONTINUOUS
 10
18983.49705991321
 20
13532.59797510441
 30
0.0
 11
19066.64705991312
 21
13532.59797510441
 31
0.0
  0
LINE
  5
26CC8
  8
画層1
  6
CONTINUOUS
 10
19199.79705991314
 20
13582.59797510441
 30
0.0
 11
19116.64705991312
 21
13582.59797510441
 31
0.0
  0
LINE
  5
26CCA
  8
画層1
  6
CONTINUOUS
 10
19066.64705991312
 20
13582.59797510441
 30
0.0
 11
18983.49705991321
 21
13582.59797510441
 31
0.0
  0
LINE
  5
26CCB
  8
画層1
  6
CONTINUOUS
 10
18933.49705991321
 20
13557.59797510493
 30
0.0
 11
18983.49705991321
 21
13557.59797510493
 31
0.0
  0
LINE
  5
26CCC
  8
画層1-1
  6
DASHED
 10
18958.49705991321
 20
13557.59797510441
 30
0.0
 11
18958.49705991321
 21
8642.597975104873
 31
0.0
  0
LINE
  5
26CCD
  8
画層1
  6
CONTINUOUS
 10
19199.79705991314
 20
11932.59797510441
 30
0.0
 11
19116.64705991312
 21
11932.59797510441
 31
0.0
  0
LINE
  5
26CCE
  8
画層1
  6
CONTINUOUS
 10
19116.64705991312
 20
11882.59797510441
 30
0.0
 11
19199.79705991314
 21
11882.59797510441
 31
0.0
  0
LINE
  5
26CCF
  8
画層1
  6
CONTINUOUS
 10
19041.64705991312
 20
11907.59797510487
 30
0.0
 11
19141.64705991312
 21
11907.59797510487
 31
0.0
  0
LINE
  5
26CD0
  8
画層1
  6
CONTINUOUS
 10
19066.64705991312
 20
11932.59797510441
 30
0.0
 11
18983.49705991321
 21
11932.59797510441
 31
0.0
  0
LINE
  5
26CD1
  8
画層1
  6
CONTINUOUS
 10
18983.49705991321
 20
11882.59797510441
 30
0.0
 11
19066.64705991312
 21
11882.59797510441
 31
0.0
  0
LINE
  5
26CD2
  8
画層1
  6
CONTINUOUS
 10
19066.64705991312
 20
11882.59797510441
 30
0.0
 11
19066.64705991312
 21
11932.59797510441
 31
0.0
  0
LINE
  5
26CD3
  8
画層1
  6
CONTINUOUS
 10
19116.64705991312
 20
11882.59797510441
 30
0.0
 11
19116.64705991312
 21
11932.59797510441
 31
0.0
  0
LINE
  5
26CD4
  8
画層1
  6
CONTINUOUS
 10
18933.49705991321
 20
11932.59797510441
 30
0.0
 11
18933.49705991321
 21
11882.59797510441
 31
0.0
  0
LINE
  5
26CD5
  8
画層1
  6
CONTINUOUS
 10
18933.49705991321
 20
11907.59797510487
 30
0.0
 11
18983.49705991321
 21
11907.59797510487
 31
0.0
  0
LINE
  5
26CD6
  8
画層1
  6
CONTINUOUS
 10
19066.64705991312
 20
10232.59797510435
 30
0.0
 11
19066.64705991312
 21
10282.59797510435
 31
0.0
  0
LINE
  5
26CD7
  8
画層1
  6
CONTINUOUS
 10
19116.64705991312
 20
10232.59797510435
 30
0.0
 11
19116.64705991312
 21
10282.59797510435
 31
0.0
  0
LINE
  5
26CD8
  8
画層1
  6
CONTINUOUS
 10
18933.49705991321
 20
10282.59797510435
 30
0.0
 11
18933.49705991321
 21
10232.59797510435
 31
0.0
  0
LINE
  5
26CD9
  8
画層1
  6
CONTINUOUS
 10
19116.64705991312
 20
10232.59797510435
 30
0.0
 11
19199.79705991314
 21
10232.59797510435
 31
0.0
  0
LINE
  5
26CDA
  8
画層1
  6
CONTINUOUS
 10
19041.64705991312
 20
10257.59797510487
 30
0.0
 11
19141.64705991312
 21
10257.59797510487
 31
0.0
  0
LINE
  5
26CDB
  8
画層1
  6
CONTINUOUS
 10
18983.49705991321
 20
10232.59797510435
 30
0.0
 11
19066.64705991312
 21
10232.59797510435
 31
0.0
  0
LINE
  5
26CDC
  8
画層1
  6
CONTINUOUS
 10
18933.49705991321
 20
10257.59797510487
 30
0.0
 11
18983.49705991321
 21
10257.59797510487
 31
0.0
  0
LINE
  5
26CDD
  8
画層1
  6
CONTINUOUS
 10
19199.79705991314
 20
10282.59797510435
 30
0.0
 11
19116.64705991312
 21
10282.59797510435
 31
0.0
  0
LINE
  5
26CDE
  8
画層1
  6
CONTINUOUS
 10
19066.64705991312
 20
10282.59797510435
 30
0.0
 11
18983.49705991321
 21
10282.59797510435
 31
0.0
  0
LINE
  5
26D14
  8
画層1
  6
CONTINUOUS
 10
19199.7970599132
 20
8667.597975104407
 30
0.0
 11
19116.64705991318
 21
8667.597975104407
 31
0.0
  0
LINE
  5
26D15
  8
画層1
  6
CONTINUOUS
 10
19066.64705991318
 20
8617.597975104407
 30
0.0
 11
19066.64705991318
 21
8667.597975104407
 31
0.0
  0
LINE
  5
26D16
  8
画層1
  6
CONTINUOUS
 10
19116.64705991318
 20
8617.597975104407
 30
0.0
 11
19116.64705991318
 21
8667.597975104407
 31
0.0
  0
LINE
  5
26D17
  8
画層1
  6
CONTINUOUS
 10
18933.49705991327
 20
8667.597975104407
 30
0.0
 11
18933.49705991327
 21
8617.597975104407
 31
0.0
  0
LINE
  5
26D18
  8
画層1
  6
CONTINUOUS
 10
19041.64705991318
 20
8642.597975104873
 30
0.0
 11
19141.64705991318
 21
8642.597975104873
 31
0.0
  0
LINE
  5
26D19
  8
画層1
  6
CONTINUOUS
 10
19066.64705991318
 20
8667.597975104407
 30
0.0
 11
18983.49705991327
 21
8667.597975104407
 31
0.0
  0
LINE
  5
26D1A
  8
画層1
  6
CONTINUOUS
 10
18933.49705991327
 20
8642.597975104873
 30
0.0
 11
18983.49705991327
 21
8642.597975104873
 31
0.0
  0
POLYLINE
  5
26D50
  8
画層1
  6
CONTINUOUS
 66
     1
 10
0.0
 20
0.0
 30
0.0
 70
     1
  0
VERTEX
  5
27A3C
  8
画層1
  6
CONTINUOUS
 10
11190.63991705644
 20
10282.59797510482
 30
0.0
  0
VERTEX
  5
27A3D
  8
画層1
  6
CONTINUOUS
 10
11506.9399170566
 20
10282.59797510482
 30
0.0
  0
VERTEX
  5
27A3E
  8
画層1
  6
CONTINUOUS
 10
11506.9399170566
 20
10232.59797510482
 30
0.0
  0
VERTEX
  5
27A3F
  8
画層1
  6
CONTINUOUS
 10
11190.63991705644
 20
10232.59797510482
 30
0.0
  0
SEQEND
  5
27A7D
  8
画層1
  6
CONTINUOUS
  0
CIRCLE
  5
26D51
  8
画層1
  6
CONTINUOUS
 10
11481.9399170566
 20
10257.59797510482
 30
0.0
 40
10.9509940156
  0
CIRCLE
  5
26D52
  8
画層1
  6
CONTINUOUS
 10
11215.63991705644
 20
10257.59797510482
 30
0.0
 40
10.9509940156
  0
LINE
  5
26D53
  8
画層1
  6
CONTINUOUS
 10
11373.78991705658
 20
10232.59797510482
 30
0.0
 11
11373.78991705658
 21
10282.59797510482
 31
0.0
  0
LINE
  5
26D54
  8
画層1
  6
CONTINUOUS
 10
11323.78991705658
 20
10232.59797510482
 30
0.0
 11
11323.78991705658
 21
10282.59797510482
 31
0.0
  0
POLYLINE
  5
26D55
  8
画層1
  6
CONTINUOUS
 66
     1
 10
0.0
 20
0.0
 30
0.0
 70
     1
  0
VERTEX
  5
27A40
  8
画層1
  6
CONTINUOUS
 10
5190.63991705644
 20
11932.59797510486
 30
0.0
  0
VERTEX
  5
27A41
  8
画層1
  6
CONTINUOUS
 10
5506.939917056603
 20
11932.59797510486
 30
0.0
  0
VERTEX
  5
27A42
  8
画層1
  6
CONTINUOUS
 10
5506.939917056603
 20
11882.59797510486
 30
0.0
  0
VERTEX
  5
27A43
  8
画層1
  6
CONTINUOUS
 10
5190.63991705644
 20
11882.59797510486
 30
0.0
  0
SEQEND
  5
27A7E
  8
画層1
  6
CONTINUOUS
  0
CIRCLE
  5
26D56
  8
画層1
  6
CONTINUOUS
 10
5481.939917056603
 20
11907.59797510486
 30
0.0
 40
10.9509940156
  0
CIRCLE
  5
26D57
  8
画層1
  6
CONTINUOUS
 10
5215.63991705644
 20
11907.59797510486
 30
0.0
 40
10.9509940156
  0
LINE
  5
26D58
  8
画層1
  6
CONTINUOUS
 10
5373.78991705658
 20
11882.59797510486
 30
0.0
 11
5373.78991705658
 21
11932.59797510486
 31
0.0
  0
LINE
  5
26D59
  8
画層1
  6
CONTINUOUS
 10
5323.78991705658
 20
11882.59797510486
 30
0.0
 11
5323.78991705658
 21
11932.59797510486
 31
0.0
  0
LINE
  5
26D5A
  8
画層1
  6
CONTINUOUS
 10
5323.78991705658
 20
10232.59797510482
 30
0.0
 11
5323.78991705658
 21
10282.59797510482
 31
0.0
  0
LINE
  5
26D5B
  8
画層1
  6
CONTINUOUS
 10
5373.78991705658
 20
10232.59797510482
 30
0.0
 11
5373.78991705658
 21
10282.59797510482
 31
0.0
  0
CIRCLE
  5
26D5C
  8
画層1
  6
CONTINUOUS
 10
5215.63991705644
 20
10257.59797510482
 30
0.0
 40
10.9509940156
  0
CIRCLE
  5
26D5D
  8
画層1
  6
CONTINUOUS
 10
5481.939917056603
 20
10257.59797510482
 30
0.0
 40
10.9509940156
  0
POLYLINE
  5
26D5E
  8
画層1
  6
CONTINUOUS
 66
     1
 10
0.0
 20
0.0
 30
0.0
 70
     1
  0
VERTEX
  5
27A44
  8
画層1
  6
CONTINUOUS
 10
5190.63991705644
 20
10282.59797510482
 30
0.0
  0
VERTEX
  5
27A45
  8
画層1
  6
CONTINUOUS
 10
5506.939917056603
 20
10282.59797510482
 30
0.0
  0
VERTEX
  5
27A46
  8
画層1
  6
CONTINUOUS
 10
5506.939917056603
 20
10232.59797510482
 30
0.0
  0
VERTEX
  5
27A47
  8
画層1
  6
CONTINUOUS
 10
5190.63991705644
 20
10232.59797510482
 30
0.0
  0
SEQEND
  5
27A7F
  8
画層1
  6
CONTINUOUS
  0
TEXT
  5
26E30
  8
画層1
 10
2628.789887265179
 20
2102.642198411599
 30
0.0
 40
180.0000000002537
  1
・ネット周囲はラダー加工、中段はハトメ加工とする
 41
0.75
  7
1_100
  0
TEXT
  5
26E31
  8
画層1
 10
8928.789887265179
 20
3002.642198412874
 30
0.0
 40
180.0000000002537
  1
・【完成後】検査証明書を提出のこと。
 41
0.75
  7
1_100
  0
LINE
  5
26E6A
  8
画層1-1
  6
CONTINUOUS
 10
11481.93991705674
 20
8642.597975104858
 30
0.0
 11
14860.15463385304
 21
11508.98697299708
 31
0.0
  0
POLYLINE
  5
26E6B
  8
画層1-1
 66
     1
 10
0.0
 20
0.0
 30
0.0
 70
     1
  0
VERTEX
  5
27A48
  8
画層1-1
 10
11703.93450176993
 20
8857.187948931369
 30
0.0
  0
VERTEX
  5
27A49
  8
画層1-1
 10
11729.8137309091
 20
8826.687694847988
 30
0.0
  0
VERTEX
  5
27A4A
  8
画層1-1
 10
11592.56258753362
 20
8710.23116372103
 30
0.0
  0
VERTEX
  5
27A4B
  8
画層1-1
 10
11566.68335839422
 20
8740.731417804529
 30
0.0
  0
SEQEND
  5
27A80
  8
画層1-1
  0
LINE
  5
26E6C
  8
画層1-1
  6
CONTINUOUS
 10
11481.93991705674
 20
13507.59797510492
 30
0.0
 11
14860.15463385304
 21
10641.20897721269
 31
0.0
  0
TEXT
  5
27683
  8
寸法字
  6
CONTINUOUS
 10
20308.33693930705
 20
14253.65933766296
 30
0.0
 40
180.0
  1
（溶融亜鉛メッキ500g/㎡）
 41
0.75
  7
1_100
  0
LINE
  5
277C5
  8
画層1
  6
CONTINUOUS
 10
9932.733997095691
 20
15196.66802816611
 30
0.0
 11
15124.84583701783
 21
15196.66802816611
 31
0.0
  0
LINE
  5
277C6
  8
画層1
  6
CONTINUOUS
 10
9932.733997095691
 20
15232.66802816388
 30
0.0
 11
15124.84583701783
 21
15232.66802816388
 31
0.0
  0
TEXT
  5
277C7
  8
画層1
  6
CONTINUOUS
 10
10891.73373728093
 20
14886.94775448252
 30
0.0
 40
210.0
  1
側面用　(溶融亜鉛メッキ仕上げ)
 41
0.8
  7
ＭＳ_Ｐ明朝
 72
     1
 11
12528.78991705621
 21
14844.47584437016
 31
0.0
 73
     1
  0
TEXT
  5
277C8
  8
画層1
  6
CONTINUOUS
 10
10429.46407436014
 20
15323.34218546725
 30
0.0
 40
300.0
  1
弓道場　KS-Ⅰ型　Ｈ＝5,000
 41
0.8
  7
ＭＳ_Ｐ明朝
 72
     1
 11
12528.78991705677
 21
15262.66802816388
 31
0.0
 73
     1
1001
IJCAD_JWWIMPORT_APPID
1002
{
1000
CDataMojiHeightWidthSpace
1010
5000.0
1020
3750.0
1030
0.0
1020
3750.0
1030
0.0
1002
}
  0
VIEWPORT
  5
10C0A
 67
     1
  8
0
  6
CONTINUOUS
 10
9.360416442390502
 20
6.328472105536874
 30
0.0
 40
23.99273679107676
 41
13.08295620080672
 68
     1
 69
     1
1001
ACAD
1000
MVIEW
1002
{
1070
    16
1010
0.0
1020
0.0
1030
0.0
1020
0.0
1030
0.0
1010
0.0
1020
0.0
1030
1.0
1020
0.0
1030
1.0
1040
0.0
1040
13.08295620080672
1040
9.360416442390502
1040
6.328472105536874
1040
50.0
1040
0.0
1040
0.0
1070
     0
1070
   100
1070
     0
1070
     1
1070
     0
1070
     0
1070
     0
1070
     0
1040
0.0
1040
0.0
1040
0.0
1040
10.0
1040
10.0
1040
10.0
1040
10.0
1070
     0
1002
{
1002
}
1002
}
  0
ENDSEC
  0
EOF
