  0
SECTION
  2
HEADER
  9
$ACADVER
  1
AC1009
  9
$DWGCODEPAGE
  3
ansi_932
  9
$INSBASE
 10
0.0
 20
0.0
 30
0.0
  9
$EXTMIN
 10
553.4410237495322
 20
109.7983047074595
 30
0.0
  9
$EXTMAX
 10
23953.44102374953
 20
15794.66501017905
 30
0.0
  9
$LIMMIN
 10
0.0
 20
0.0
  9
$LIMMAX
 10
420.0
 20
297.0
  9
$ORTHOMODE
 70
     0
  9
$REGENMODE
 70
     1
  9
$FILLMODE
 70
     1
  9
$QTEXTMODE
 70
     0
  9
$MIRRTEXT
 70
     0
  9
$DRAGMODE
 70
     2
  9
$LTSCALE
 40
1.0
  9
$OSMODE
 70
 16383
  9
$ATTMODE
 70
     1
  9
$TEXTSIZE
 40
2.5
  9
$TRACEWID
 40
1.0
  9
$TEXTSTYLE
  7
STANDARD
  9
$CLAYER
  8
ﾊｯﾁﾝｸﾞ
  9
$CELTYPE
  6
BYLAYER
  9
$CECOLOR
 62
     5
  9
$DIMSCALE
 40
50.0
  9
$DIMASZ
 40
0.6
  9
$DIMEXO
 40
3.0
  9
$DIMDLI
 40
10.0
  9
$DIMRND
 40
0.0
  9
$DIMDLE
 40
0.0
  9
$DIMEXE
 40
0.0
  9
$DIMTP
 40
0.0
  9
$DIMTM
 40
0.0
  9
$DIMTXT
 40
3.0
  9
$DIMCEN
 40
0.0
  9
$DIMTSZ
 40
0.0
  9
$DIMTOL
 70
     0
  9
$DIMLIM
 70
     0
  9
$DIMTIH
 70
     0
  9
$DIMTOH
 70
     0
  9
$DIMSE1
 70
     0
  9
$DIMSE2
 70
     0
  9
$DIMTAD
 70
     1
  9
$DIMZIN
 70
    12
  9
$DIMBLK
  1

  9
$DIMASO
 70
     1
  9
$DIMSHO
 70
     1
  9
$DIMPOST
  1

  9
$DIMAPOST
  1

  9
$DIMALT
 70
     0
  9
$DIMALTD
 70
     2
  9
$DIMALTF
 40
25.4
  9
$DIMLFAC
 40
1.0
  9
$DIMTOFL
 70
     1
  9
$DIMTVP
 40
0.0
  9
$DIMTIX
 70
     0
  9
$DIMSOXD
 70
     0
  9
$DIMSAH
 70
     1
  9
$DIMBLK1
  1
ORIGIN
  9
$DIMBLK2
  1
ORIGIN
  9
$DIMSTYLE
  2
1_50
  9
$DIMCLRD
 70
   256
  9
$DIMCLRE
 70
   256
  9
$DIMCLRT
 70
   256
  9
$DIMTFAC
 40
1.0
  9
$DIMGAP
 40
1.0
  9
$LUNITS
 70
     2
  9
$LUPREC
 70
     4
  9
$SKETCHINC
 40
1.0
  9
$FILLETRAD
 40
0.0
  9
$AUNITS
 70
     0
  9
$AUPREC
 70
     0
  9
$MENU
  1
.
  9
$ELEVATION
 40
0.0
  9
$PELEVATION
 40
0.0
  9
$THICKNESS
 40
0.0
  9
$LIMCHECK
 70
     0
  9
$CHAMFERA
 40
0.0
  9
$CHAMFERB
 40
0.0
  9
$SKPOLY
 70
     0
  9
$TDCREATE
 40
2454361.396257766
  9
$TDUPDATE
 40
2459775.52126471
  9
$TDINDWG
 40
0.3244106597
  9
$TDUSRTIMER
 40
0.3244104745
  9
$USRTIMER
 70
     1
  9
$ANGBASE
 50
0.0
  9
$ANGDIR
 70
     0
  9
$PDMODE
 70
     0
  9
$PDSIZE
 40
0.0
  9
$PLINEWID
 40
0.0
  9
$COORDS
 70
     0
  9
$SPLFRAME
 70
     0
  9
$SPLINETYPE
 70
     6
  9
$SPLINESEGS
 70
     8
  9
$ATTDIA
 70
     1
  9
$ATTREQ
 70
     1
  9
$HANDLING
 70
     1
  9
$HANDSEED
  5
4DBA
  9
$SURFTAB1
 70
     6
  9
$SURFTAB2
 70
     6
  9
$SURFTYPE
 70
     6
  9
$SURFU
 70
     6
  9
$SURFV
 70
     6
  9
$UCSNAME
  2

  9
$UCSORG
 10
0.0
 20
0.0
 30
0.0
  9
$UCSXDIR
 10
1.0
 20
0.0
 30
0.0
  9
$UCSYDIR
 10
0.0
 20
1.0
 30
0.0
  9
$PUCSNAME
  2

  9
$PUCSORG
 10
0.0
 20
0.0
 30
0.0
  9
$PUCSXDIR
 10
1.0
 20
0.0
 30
0.0
  9
$PUCSYDIR
 10
0.0
 20
1.0
 30
0.0
  9
$USERI1
 70
     0
  9
$USERI2
 70
     0
  9
$USERI3
 70
     0
  9
$USERI4
 70
     0
  9
$USERI5
 70
     0
  9
$USERR1
 40
0.0
  9
$USERR2
 40
0.0
  9
$USERR3
 40
0.0
  9
$USERR4
 40
0.0
  9
$USERR5
 40
0.0
  9
$WORLDVIEW
 70
     1
  9
$SHADEDGE
 70
     3
  9
$SHADEDIF
 70
    70
  9
$TILEMODE
 70
     1
  9
$MAXACTVP
 70
    64
  9
$PLIMCHECK
 70
     0
  9
$PEXTMIN
 10
0.0
 20
0.0
 30
0.0
  9
$PEXTMAX
 10
0.0
 20
0.0
 30
0.0
  9
$PLIMMIN
 10
0.0
 20
0.0
  9
$PLIMMAX
 10
12.0
 20
9.0
  9
$UNITMODE
 70
     0
  9
$VISRETAIN
 70
     1
  9
$PLINEGEN
 70
     0
  9
$PSLTSCALE
 70
     1
  0
ENDSEC
  0
SECTION
  2
TABLES
  0
TABLE
  2
VPORT
 70
     1
  0
VPORT
  2
*ACTIVE
 70
     0
 10
0.0
 20
0.0
 11
1.0
 21
1.0
 12
12253.44102374953
 22
7952.231657443261
 13
0.0
 23
0.0
 14
10.0
 24
10.0
 15
10.0
 25
10.0
 16
0.0
 26
0.0
 36
1.0
 17
0.0
 27
0.0
 37
0.0
 40
19745.52058111381
 41
1.196556671449067
 42
50.0
 43
0.0
 44
0.0
 50
0.0
 51
0.0
 71
     0
 72
  1000
 73
     1
 74
     1
 75
     0
 76
     0
 77
     0
 78
     0
  0
ENDTAB
  0
TABLE
  2
LTYPE
 70
     3
  0
LTYPE
  2
CONTINUOUS
 70
     0
  3
Solid line
 72
    65
 73
     0
 40
0.0
  0
LTYPE
  2
DASHED
 70
     0
  3
__ __ __ __ __ __ __ __ __ __ __ __ __ __ __
 72
    65
 73
     2
 40
3.0
 49
2.0
 49
-1.0
  0
LTYPE
  2
DASHDOT
 70
     0
  3
__ . __ . __ . __ . __ . __ . __ . __ . __ . __
 72
    65
 73
     4
 40
8.5
 49
6.0
 49
-1.0
 49
0.5
 49
-1.0
  0
ENDTAB
  0
TABLE
  2
LAYER
 70
    19
  0
LAYER
  2
0
 70
     0
 62
     7
  6
CONTINUOUS
  0
LAYER
  2
DEFPOINTS
 70
     0
 62
     4
  6
CONTINUOUS
  0
LAYER
  2
寸法
 70
     0
 62
     6
  6
CONTINUOUS
  0
LAYER
  2
画層1-1
 70
     0
 62
    82
  6
CONTINUOUS
  0
LAYER
  2
図面枠
 70
     0
 62
     7
  6
CONTINUOUS
  0
LAYER
  2
ﾊｯﾁﾝｸﾞ
 70
     0
 62
     1
  6
CONTINUOUS
  0
LAYER
  2
画層2
 70
     0
 62
    42
  6
CONTINUOUS
  0
LAYER
  2
通り芯
 70
     0
 62
     4
  6
CONTINUOUS
  0
LAYER
  2
画層1
 70
     0
 62
     7
  6
CONTINUOUS
  0
LAYER
  2
画層3-1
 70
     0
 62
     3
  6
CONTINUOUS
  0
LAYER
  2
画層3-2
 70
     0
 62
    60
  6
CONTINUOUS
  0
LAYER
  2
画層3-3
 70
     0
 62
   230
  6
CONTINUOUS
  0
LAYER
  2
画層3-通り芯
 70
     0
 62
     4
  6
CONTINUOUS
  0
LAYER
  2
ﾈｯﾄ
 70
     0
 62
   230
  6
CONTINUOUS
  0
LAYER
  2
画層2-1
 70
     0
 62
     5
  6
CONTINUOUS
  0
LAYER
  2
寸法文字
 70
     0
 62
     6
  6
CONTINUOUS
  0
LAYER
  2
寸法引出
 70
     0
 62
     7
  6
CONTINUOUS
  0
LAYER
  2
画層3
 70
     0
 62
   190
  6
CONTINUOUS
  0
LAYER
  2
画層3-寸法
 70
     0
 62
     6
  6
CONTINUOUS
  0
ENDTAB
  0
TABLE
  2
STYLE
 70
     4
  0
STYLE
  2
STANDARD
 70
     0
 40
0.0
 41
1.0
 50
0.0
 71
     0
 42
2.5
  3
txt
  4

  0
STYLE
  2
1_100
 70
     0
 40
0.0
 41
0.75
 50
0.0
 71
     0
 42
2.5
  3
romans.shx
  4
extfont2.shx
  0
STYLE
  2
STYLE1
 70
     0
 40
0.0
 41
0.75
 50
0.0
 71
     0
 42
0.2
  3
HGRSKP.TTF
  4

  0
STYLE
  2
ＭＳ_Ｐ明朝
 70
     0
 40
0.0
 41
1.0
 50
0.0
 71
     0
 42
0.2
  3
msmincho.ttc
  4

  0
ENDTAB
  0
TABLE
  2
VIEW
 70
     0
  0
ENDTAB
  0
TABLE
  2
UCS
 70
     0
  0
ENDTAB
  0
TABLE
  2
APPID
 70
    10
  0
APPID
  2
ACAD
 70
     0
  0
APPID
  2
ACDBBLOCKREPETAG
 70
     0
  0
APPID
  2
ACAD_MLEADERVER
 70
     0
  0
APPID
  2
ACAD_EXEMPT_FROM_CAD_STAND
 70
     0
  0
APPID
  2
ACAD_PSEXT
 70
     0
  0
APPID
  2
ACAD_NAV_VCDISPLAY
 70
     0
  0
APPID
  2
IJCAD_JWWIMPORT_APPID
 70
     0
  0
APPID
  2
ACADANNOTATIVE
 70
     0
  0
APPID
  2
ACAECLAYERSTANDARD
 70
     0
  0
APPID
  2
ACCMTRANSPARENCY
 70
     0
  0
ENDTAB
  0
TABLE
  2
DIMSTYLE
 70
     4
  0
DIMSTYLE
  2
STANDARD
 70
     0
  3

  4

  5

  6

  7

 40
1.0
 41
0.18
 42
0.0625
 43
0.38
 44
0.18
 45
0.0
 46
0.0
 47
0.0
 48
0.0
140
0.18
141
0.09
142
0.0
143
25.4
144
1.0
145
0.0
146
1.0
147
0.09
 71
     0
 72
     0
 73
     1
 74
     1
 75
     0
 76
     0
 77
     0
 78
     0
170
     0
171
     2
172
     0
173
     0
174
     0
175
     0
176
     0
177
     0
178
     0
  0
DIMSTYLE
  2
1_50
 70
     0
  3

  4

  5

  6
ORIGIN
  7
ORIGIN
 40
50.0
 41
0.6
 42
3.0
 43
10.0
 44
0.0
 45
0.0
 46
0.0
 47
0.0
 48
0.0
140
3.0
141
0.0
142
0.0
143
25.4
144
1.0
145
0.0
146
1.0
147
1.0
 71
     0
 72
     0
 73
     0
 74
     0
 75
     0
 76
     0
 77
     1
 78
    12
170
     0
171
     2
172
     1
173
     1
174
     0
175
     0
176
   256
177
   256
178
   256
  0
DIMSTYLE
  2
1_60
 70
     0
  3

  4

  5

  6
ORIGIN
  7
ORIGIN
 40
60.0
 41
0.6
 42
3.0
 43
10.0
 44
0.0
 45
0.0
 46
0.0
 47
0.0
 48
0.0
140
3.0
141
0.0
142
0.0
143
25.4
144
1.0
145
0.0
146
1.0
147
1.0
 71
     0
 72
     0
 73
     0
 74
     0
 75
     0
 76
     0
 77
     1
 78
     8
170
     0
171
     2
172
     1
173
     1
174
     0
175
     0
176
   256
177
   256
178
   256
  0
DIMSTYLE
  2
ISO-25
 70
     0
  3

  4

  5

  6

  7

 40
1.0
 41
2.5
 42
0.625
 43
3.75
 44
1.25
 45
0.0
 46
0.0
 47
0.0
 48
0.0
140
2.5
141
2.5
142
0.0
143
0.03937007874016
144
1.0
145
0.0
146
1.0
147
0.625
 71
     0
 72
     0
 73
     0
 74
     0
 75
     0
 76
     0
 77
     1
 78
     8
170
     0
171
     3
172
     1
173
     0
174
     0
175
     0
176
     0
177
     0
178
     0
  0
ENDTAB
  0
ENDSEC
  0
SECTION
  2
BLOCKS
  0
BLOCK
  8
0
  2
$MODEL_SPACE
 70
     0
 10
0.0
 20
0.0
 30
0.0
  3
$MODEL_SPACE
  1

  0
ENDBLK
  5
21
  8
0
  0
BLOCK
 67
     1
  8
0
  2
$PAPER_SPACE
 70
     0
 10
0.0
 20
0.0
 30
0.0
  3
$PAPER_SPACE
  1

  0
ENDBLK
  5
53
 67
     1
  8
0
  0
BLOCK
  8
0
  2
_ORIGIN
 70
     0
 10
0.0
 20
0.0
 30
0.0
  3
_ORIGIN
  1

  0
CIRCLE
  5
89
  8
0
  6
BYBLOCK
 62
     0
 10
0.0
 20
0.0
 30
0.0
 40
0.5
  0
LINE
  5
8A
  8
0
  6
BYBLOCK
 62
     0
 10
0.0
 20
0.0
 30
0.0
 11
-1.0
 21
0.0
 31
0.0
  0
ENDBLK
  5
8B
  8
0
  0
BLOCK
  8
0
  2
*D2
 70
     1
 10
0.0
 20
0.0
 30
0.0
  3
*D2
  1

  0
LINE
  5
3D26
  8
寸法
  6
CONTINUOUS
 10
5016.291030236636
 20
12244.66502407382
 30
0.0
 11
5016.291030236636
 21
12424.66502407347
 31
0.0
  0
LINE
  5
3D27
  8
寸法
  6
CONTINUOUS
 10
5130.591030236923
 20
12244.66502407382
 30
0.0
 11
5130.591030236923
 21
12424.66502407347
 31
0.0
  0
LINE
  5
3D28
  8
寸法
  6
CONTINUOUS
 10
4980.291030236636
 20
12424.66502407347
 30
0.0
 11
4944.291030236636
 21
12424.66502407347
 31
0.0
  0
LINE
  5
3D29
  8
寸法
  6
CONTINUOUS
 10
5166.591030236923
 20
12424.66502407347
 30
0.0
 11
5202.591030236923
 21
12424.66502407347
 31
0.0
  0
TEXT
  5
3D2A
  8
寸法
  6
CONTINUOUS
 10
4699.298173093923
 20
12514.66502407347
 30
0.0
 40
180.0
  1
φ114.3
 41
0.75
  7
1_100
  0
LINE
  5
3D2B
  8
寸法
  6
CONTINUOUS
 10
5016.291030236636
 20
12424.66502407347
 30
0.0
 11
5130.591030236923
 21
12424.66502407347
 31
0.0
  0
INSERT
  5
3D2C
  8
寸法
  6
CONTINUOUS
  2
_ORIGIN
 10
5016.291030236636
 20
12424.66502407347
 30
0.0
 41
36.0
 42
36.0
 43
36.0
  0
INSERT
  5
3D2D
  8
寸法
  6
CONTINUOUS
  2
_ORIGIN
 10
5130.591030236923
 20
12424.66502407347
 30
0.0
 41
36.0
 42
36.0
 43
36.0
 50
180.0
  0
POINT
  5
3D2E
  8
DEFPOINTS
  6
CONTINUOUS
 62
     0
 10
5016.291030236636
 20
12064.66502407382
 30
0.0
  0
POINT
  5
3D2F
  8
DEFPOINTS
  6
CONTINUOUS
 62
     0
 10
5130.591030236923
 20
12064.66502407382
 30
0.0
  0
POINT
  5
3D30
  8
DEFPOINTS
  6
CONTINUOUS
 62
     0
 10
5130.591030236923
 20
12424.66502407347
 30
0.0
  0
ENDBLK
  5
398E
  8
0
  0
BLOCK
  8
0
  2
*D3
 70
     1
 10
0.0
 20
0.0
 30
0.0
  3
*D3
  1

  0
LINE
  5
48AE
  8
寸法
  6
CONTINUOUS
 10
19046.97338863451
 20
12244.66502407382
 30
0.0
 11
19046.97338863451
 21
12424.66502407347
 31
0.0
  0
LINE
  5
48AF
  8
寸法
  6
CONTINUOUS
 10
19161.2733886348
 20
12244.66502407382
 30
0.0
 11
19161.2733886348
 21
12424.66502407347
 31
0.0
  0
LINE
  5
48B0
  8
寸法
  6
CONTINUOUS
 10
19010.97338863451
 20
12424.66502407347
 30
0.0
 11
18974.97338863451
 21
12424.66502407347
 31
0.0
  0
LINE
  5
48B1
  8
寸法
  6
CONTINUOUS
 10
19197.2733886348
 20
12424.66502407347
 30
0.0
 11
19233.2733886348
 21
12424.66502407347
 31
0.0
  0
TEXT
  5
48B2
  8
寸法
  6
CONTINUOUS
 10
18729.9805314918
 20
12514.66502407347
 30
0.0
 40
180.0
  1
φ114.3
 41
0.75
  7
1_100
  0
LINE
  5
48B3
  8
寸法
  6
CONTINUOUS
 10
19046.97338863451
 20
12424.66502407347
 30
0.0
 11
19161.2733886348
 21
12424.66502407347
 31
0.0
  0
INSERT
  5
48B4
  8
寸法
  6
CONTINUOUS
  2
_ORIGIN
 10
19046.97338863451
 20
12424.66502407347
 30
0.0
 41
36.0
 42
36.0
 43
36.0
  0
INSERT
  5
48B5
  8
寸法
  6
CONTINUOUS
  2
_ORIGIN
 10
19161.2733886348
 20
12424.66502407347
 30
0.0
 41
36.0
 42
36.0
 43
36.0
 50
180.0
  0
POINT
  5
48B6
  8
DEFPOINTS
  6
CONTINUOUS
 62
     0
 10
19046.97338863451
 20
12064.66502407382
 30
0.0
  0
POINT
  5
48B7
  8
DEFPOINTS
  6
CONTINUOUS
 62
     0
 10
19161.2733886348
 20
12064.66502407382
 30
0.0
  0
POINT
  5
48B8
  8
DEFPOINTS
  6
CONTINUOUS
 62
     0
 10
19161.2733886348
 20
12424.66502407347
 30
0.0
  0
ENDBLK
  5
399C
  8
0
  0
BLOCK
  8
0
  2
*D4
 70
     1
 10
0.0
 20
0.0
 30
0.0
  3
*D4
  1

  0
LINE
  5
477C
  8
画層3-寸法
  6
CONTINUOUS
 10
9073.441029894922
 20
6734.665024073824
 30
0.0
 11
9073.441029894922
 21
5764.665024073824
 31
0.0
  0
LINE
  5
477D
  8
画層3-寸法
  6
CONTINUOUS
 10
11073.44102989492
 20
6734.665024073824
 30
0.0
 11
11073.44102989492
 21
5764.665024073824
 31
0.0
  0
LINE
  5
477E
  8
画層3-寸法
  6
CONTINUOUS
 10
9109.441029894922
 20
5764.665024073824
 30
0.0
 11
11037.44102989492
 21
5764.665024073824
 31
0.0
  0
INSERT
  5
477F
  8
画層3-寸法
  6
CONTINUOUS
  2
_ORIGIN
 10
9073.441029894922
 20
5764.665024073824
 30
0.0
 41
36.0
 42
36.0
 43
36.0
 50
180.0
  0
INSERT
  5
4780
  8
画層3-寸法
  6
CONTINUOUS
  2
_ORIGIN
 10
11073.44102989492
 20
5764.665024073824
 30
0.0
 41
36.0
 42
36.0
 43
36.0
  0
TEXT
  5
4781
  8
画層3-寸法
  6
CONTINUOUS
 10
9784.155315609209
 20
5858.950738359537
 30
0.0
 40
180.0
  1
2,000
 41
0.75
  7
1_100
  0
POINT
  5
4782
  8
DEFPOINTS
  6
CONTINUOUS
 62
     0
 10
9073.441029894922
 20
6914.665024073824
 30
0.0
  0
POINT
  5
4783
  8
DEFPOINTS
  6
CONTINUOUS
 62
     0
 10
11073.44102989492
 20
6914.665024073824
 30
0.0
  0
POINT
  5
4784
  8
DEFPOINTS
  6
CONTINUOUS
 62
     0
 10
11073.44102989492
 20
5764.665024073824
 30
0.0
  0
ENDBLK
  5
39A8
  8
0
  0
BLOCK
  8
0
  2
*D5
 70
     1
 10
0.0
 20
0.0
 30
0.0
  3
*D5
  1

  0
LINE
  5
4785
  8
寸法
  6
CONTINUOUS
 10
5073.441029894922
 20
6034.665024073824
 30
0.0
 11
5073.441029894922
 21
5284.665024073824
 31
0.0
  0
LINE
  5
4786
  8
寸法
  6
CONTINUOUS
 10
11073.44102989492
 20
6642.19755228053
 30
0.0
 11
11073.44102989492
 21
5284.665024073824
 31
0.0
  0
LINE
  5
4787
  8
寸法
  6
CONTINUOUS
 10
5109.441029894922
 20
5284.665024073824
 30
0.0
 11
11037.44102989492
 21
5284.665024073824
 31
0.0
  0
INSERT
  5
4788
  8
寸法
  6
CONTINUOUS
  2
_ORIGIN
 10
5073.441029894922
 20
5284.665024073824
 30
0.0
 41
36.0
 42
36.0
 43
36.0
 50
180.0
  0
INSERT
  5
4789
  8
寸法
  6
CONTINUOUS
  2
_ORIGIN
 10
11073.44102989492
 20
5284.665024073824
 30
0.0
 41
36.0
 42
36.0
 43
36.0
  0
TEXT
  5
478A
  8
寸法
  6
CONTINUOUS
 10
7780.941029894922
 20
5378.950738359537
 30
0.0
 40
180.0
  1
6,000
 41
0.75
  7
1_100
  0
POINT
  5
478B
  8
DEFPOINTS
  6
CONTINUOUS
 62
     0
 10
5073.441029894922
 20
6214.665024073824
 30
0.0
  0
POINT
  5
478C
  8
DEFPOINTS
  6
CONTINUOUS
 62
     0
 10
11073.44102989492
 20
6822.19755228053
 30
0.0
  0
POINT
  5
478D
  8
DEFPOINTS
  6
CONTINUOUS
 62
     0
 10
11073.44102989492
 20
5284.665024073824
 30
0.0
  0
ENDBLK
  5
39B4
  8
0
  0
BLOCK
  8
0
  2
*D6
 70
     1
 10
0.0
 20
0.0
 30
0.0
  3
*D6
  1

  0
LINE
  5
3C2E
  8
画層3-寸法
  6
CONTINUOUS
 10
8768.441030236543
 20
8064.66502407382
 30
0.0
 11
8632.252497127396
 21
8064.66502407382
 31
0.0
  0
LINE
  5
3C2F
  8
画層3-寸法
  6
CONTINUOUS
 10
8768.441030236543
 20
7614.66502407382
 30
0.0
 11
8632.252497127396
 21
7614.66502407382
 31
0.0
  0
LINE
  5
3C30
  8
画層3-寸法
  6
CONTINUOUS
 10
8632.252497127396
 20
8028.66502407382
 30
0.0
 11
8632.252497127396
 21
7650.66502407382
 31
0.0
  0
TEXT
  5
3C31
  8
画層3-寸法
  6
CONTINUOUS
 10
8542.252497127394
 20
7646.807881216678
 30
0.0
 40
180.0
  1
450
 50
90.0
 41
0.75
  7
1_100
  0
INSERT
  5
3C32
  8
画層3-寸法
  6
CONTINUOUS
  2
_ORIGIN
 10
8632.252497127396
 20
8064.66502407382
 30
0.0
 41
36.0
 42
36.0
 43
36.0
 50
90.0
  0
INSERT
  5
3C33
  8
画層3-寸法
  6
CONTINUOUS
  2
_ORIGIN
 10
8632.252497127396
 20
7614.66502407382
 30
0.0
 41
36.0
 42
36.0
 43
36.0
 50
270.0
  0
POINT
  5
3C34
  8
DEFPOINTS
  6
CONTINUOUS
 62
     0
 10
8948.441030236543
 20
8064.66502407382
 30
0.0
  0
POINT
  5
3C35
  8
DEFPOINTS
  6
CONTINUOUS
 62
     0
 10
8948.441030236543
 20
7614.66502407382
 30
0.0
  0
POINT
  5
3C36
  8
DEFPOINTS
  6
CONTINUOUS
 62
     0
 10
8632.252497127396
 20
7614.66502407382
 30
0.0
  0
ENDBLK
  5
39C0
  8
0
  0
BLOCK
  8
0
  2
*D7
 70
     1
 10
0.0
 20
0.0
 30
0.0
  3
*D7
  1

  0
LINE
  5
3C37
  8
寸法
  6
CONTINUOUS
 10
4848.441029894922
 20
6784.665024073824
 30
0.0
 11
4848.441029894922
 21
6604.733575084974
 31
0.0
  0
LINE
  5
3C38
  8
寸法
  6
CONTINUOUS
 10
5298.441029894922
 20
6784.665024073824
 30
0.0
 11
5298.441029894922
 21
6604.733575084974
 31
0.0
  0
LINE
  5
3C39
  8
寸法
  6
CONTINUOUS
 10
4884.441029894922
 20
6604.733575084974
 30
0.0
 11
5262.441029894922
 21
6604.733575084974
 31
0.0
  0
TEXT
  5
3C3A
  8
寸法
  6
CONTINUOUS
 10
4215.219218227639
 20
6573.50007041989
 30
0.0
 40
180.0
  1
φ450
 41
0.75
  7
1_100
  0
INSERT
  5
3C3B
  8
寸法
  6
CONTINUOUS
  2
_ORIGIN
 10
4848.441029894922
 20
6604.733575084974
 30
0.0
 41
36.0
 42
36.0
 43
36.0
 50
180.0
  0
INSERT
  5
3C3C
  8
寸法
  6
CONTINUOUS
  2
_ORIGIN
 10
5298.441029894922
 20
6604.733575084974
 30
0.0
 41
36.0
 42
36.0
 43
36.0
  0
POINT
  5
3C3D
  8
DEFPOINTS
  6
CONTINUOUS
 62
     0
 10
4848.441029894922
 20
6964.665024073824
 30
0.0
  0
POINT
  5
3C3E
  8
DEFPOINTS
  6
CONTINUOUS
 62
     0
 10
5298.441029894922
 20
6964.665024073824
 30
0.0
  0
POINT
  5
3C3F
  8
DEFPOINTS
  6
CONTINUOUS
 62
     0
 10
5298.441029894922
 20
6604.733575084974
 30
0.0
  0
ENDBLK
  5
39CC
  8
0
  0
BLOCK
  8
0
  2
*D8
 70
     1
 10
0.0
 20
0.0
 30
0.0
  3
*D8
  1

  0
LINE
  5
3C40
  8
画層3-寸法
  6
CONTINUOUS
 10
7073.441029894922
 20
6734.665024073824
 30
0.0
 11
7073.441029894922
 21
5764.665024073824
 31
0.0
  0
LINE
  5
3C41
  8
画層3-寸法
  6
CONTINUOUS
 10
9073.441029894922
 20
6734.665024073824
 30
0.0
 11
9073.441029894922
 21
5764.665024073824
 31
0.0
  0
LINE
  5
3C42
  8
画層3-寸法
  6
CONTINUOUS
 10
7109.441029894922
 20
5764.665024073824
 30
0.0
 11
9037.441029894922
 21
5764.665024073824
 31
0.0
  0
INSERT
  5
3C43
  8
画層3-寸法
  6
CONTINUOUS
  2
_ORIGIN
 10
7073.441029894922
 20
5764.665024073824
 30
0.0
 41
36.0
 42
36.0
 43
36.0
 50
180.0
  0
INSERT
  5
3C44
  8
画層3-寸法
  6
CONTINUOUS
  2
_ORIGIN
 10
9073.441029894922
 20
5764.665024073824
 30
0.0
 41
36.0
 42
36.0
 43
36.0
  0
TEXT
  5
3C45
  8
画層3-寸法
  6
CONTINUOUS
 10
7784.155315609208
 20
5858.950738359537
 30
0.0
 40
180.0
  1
2,000
 41
0.75
  7
1_100
  0
POINT
  5
3C46
  8
DEFPOINTS
  6
CONTINUOUS
 62
     0
 10
7073.441029894922
 20
6914.665024073824
 30
0.0
  0
POINT
  5
3C47
  8
DEFPOINTS
  6
CONTINUOUS
 62
     0
 10
9073.441029894922
 20
6914.665024073824
 30
0.0
  0
POINT
  5
3C48
  8
DEFPOINTS
  6
CONTINUOUS
 62
     0
 10
9073.441029894922
 20
5764.665024073824
 30
0.0
  0
ENDBLK
  5
39D8
  8
0
  0
BLOCK
  8
0
  2
*D9
 70
     1
 10
0.0
 20
0.0
 30
0.0
  3
*D9
  1

  0
LINE
  5
3C49
  8
画層3-寸法
  6
CONTINUOUS
 10
5073.441029894922
 20
6034.665024073824
 30
0.0
 11
5073.441029894922
 21
5764.665024073824
 31
0.0
  0
LINE
  5
3C4A
  8
画層3-寸法
  6
CONTINUOUS
 10
7073.441029894922
 20
6734.665024073824
 30
0.0
 11
7073.441029894922
 21
5764.665024073824
 31
0.0
  0
LINE
  5
3C4B
  8
画層3-寸法
  6
CONTINUOUS
 10
5109.441029894922
 20
5764.665024073824
 30
0.0
 11
7037.441029894922
 21
5764.665024073824
 31
0.0
  0
INSERT
  5
3C4C
  8
画層3-寸法
  6
CONTINUOUS
  2
_ORIGIN
 10
5073.441029894922
 20
5764.665024073824
 30
0.0
 41
36.0
 42
36.0
 43
36.0
 50
180.0
  0
INSERT
  5
3C4D
  8
画層3-寸法
  6
CONTINUOUS
  2
_ORIGIN
 10
7073.441029894922
 20
5764.665024073824
 30
0.0
 41
36.0
 42
36.0
 43
36.0
  0
TEXT
  5
3C4E
  8
画層3-寸法
  6
CONTINUOUS
 10
5784.155315609208
 20
5858.950738359537
 30
0.0
 40
180.0
  1
2,000
 41
0.75
  7
1_100
  0
POINT
  5
3C4F
  8
DEFPOINTS
  6
CONTINUOUS
 62
     0
 10
5073.441029894922
 20
6214.665024073824
 30
0.0
  0
POINT
  5
3C50
  8
DEFPOINTS
  6
CONTINUOUS
 62
     0
 10
7073.441029894922
 20
6914.665024073824
 30
0.0
  0
POINT
  5
3C51
  8
DEFPOINTS
  6
CONTINUOUS
 62
     0
 10
7073.441029894922
 20
5764.665024073824
 30
0.0
  0
ENDBLK
  5
39E4
  8
0
  0
BLOCK
  8
0
  2
*D10
 70
     1
 10
0.0
 20
0.0
 30
0.0
  3
*D10
  1

  0
LINE
  5
3C52
  8
寸法
  6
CONTINUOUS
 10
4823.441029894922
 20
6784.665024073824
 30
0.0
 11
4823.441029894922
 21
6364.665024073824
 31
0.0
  0
LINE
  5
3C53
  8
寸法
  6
CONTINUOUS
 10
5323.441029894922
 20
6784.665024073591
 30
0.0
 11
5323.441029894922
 21
6364.665024073824
 31
0.0
  0
LINE
  5
3C54
  8
寸法
  6
CONTINUOUS
 10
4787.441029894922
 20
6364.665024073824
 30
0.0
 11
4751.441029894922
 21
6364.665024073824
 31
0.0
  0
LINE
  5
3C55
  8
寸法
  6
CONTINUOUS
 10
5359.441029894922
 20
6364.665024073824
 30
0.0
 11
5395.441029894922
 21
6364.665024073824
 31
0.0
  0
LINE
  5
3C56
  8
寸法
  6
CONTINUOUS
 10
4823.441029894922
 20
6364.665024073824
 30
0.0
 11
5323.441029894922
 21
6364.665024073824
 31
0.0
  0
INSERT
  5
3C57
  8
寸法
  6
CONTINUOUS
  2
_ORIGIN
 10
4823.441029894922
 20
6364.665024073824
 30
0.0
 41
36.0
 42
36.0
 43
36.0
  0
INSERT
  5
3C58
  8
寸法
  6
CONTINUOUS
  2
_ORIGIN
 10
5323.441029894922
 20
6364.665024073824
 30
0.0
 41
36.0
 42
36.0
 43
36.0
 50
180.0
  0
TEXT
  5
3C59
  8
寸法
  6
CONTINUOUS
 10
4800.226744180637
 20
6124.665024073824
 30
0.0
 40
180.0
  1
□500
 41
0.75
  7
1_100
  0
POINT
  5
3C5A
  8
DEFPOINTS
  6
CONTINUOUS
 62
     0
 10
4823.441029894922
 20
6964.665024073824
 30
0.0
  0
POINT
  5
3C5B
  8
DEFPOINTS
  6
CONTINUOUS
 62
     0
 10
5323.441029894922
 20
6964.665024073591
 30
0.0
  0
POINT
  5
3C5C
  8
DEFPOINTS
  6
CONTINUOUS
 62
     0
 10
5323.441029894922
 20
6364.665024073824
 30
0.0
  0
ENDBLK
  5
39F2
  8
0
  0
BLOCK
  8
0
  2
*D11
 70
     1
 10
0.0
 20
0.0
 30
0.0
  3
*D11
  1

  0
LINE
  5
3C66
  8
画層3-寸法
  6
CONTINUOUS
 10
8948.441030236543
 20
7434.66502407382
 30
0.0
 11
8948.441030236543
 21
7303.050871427429
 31
0.0
  0
LINE
  5
3C67
  8
画層3-寸法
  6
CONTINUOUS
 10
9198.441030236543
 20
7434.66502407382
 30
0.0
 11
9198.441030236543
 21
7303.050871427429
 31
0.0
  0
LINE
  5
3C68
  8
画層3-寸法
  6
CONTINUOUS
 10
8912.441030236543
 20
7303.050871427429
 30
0.0
 11
8876.441030236543
 21
7303.050871427429
 31
0.0
  0
LINE
  5
3C69
  8
画層3-寸法
  6
CONTINUOUS
 10
9234.441030236543
 20
7303.050871427429
 30
0.0
 11
9270.441030236543
 21
7303.050871427429
 31
0.0
  0
LINE
  5
3C6A
  8
画層3-寸法
  6
CONTINUOUS
 10
8948.441030236543
 20
7303.050871427429
 30
0.0
 11
9198.441030236543
 21
7303.050871427429
 31
0.0
  0
INSERT
  5
3C6B
  8
画層3-寸法
  6
CONTINUOUS
  2
_ORIGIN
 10
8948.441030236543
 20
7303.050871427429
 30
0.0
 41
36.0
 42
36.0
 43
36.0
  0
INSERT
  5
3C6C
  8
画層3-寸法
  6
CONTINUOUS
  2
_ORIGIN
 10
9198.441030236543
 20
7303.050871427429
 30
0.0
 41
36.0
 42
36.0
 43
36.0
 50
180.0
  0
TEXT
  5
3C6D
  8
画層3-寸法
  6
CONTINUOUS
 10
8800.226744522257
 20
7063.050871427429
 30
0.0
 40
180.0
  1
□250
 41
0.75
  7
1_100
  0
POINT
  5
3C6E
  8
DEFPOINTS
  6
CONTINUOUS
 62
     0
 10
8948.441030236543
 20
7614.66502407382
 30
0.0
  0
POINT
  5
3C6F
  8
DEFPOINTS
  6
CONTINUOUS
 62
     0
 10
9198.441030236543
 20
7614.66502407382
 30
0.0
  0
POINT
  5
3C70
  8
DEFPOINTS
  6
CONTINUOUS
 62
     0
 10
9198.441030236543
 20
7303.050871427429
 30
0.0
  0
ENDBLK
  5
3A0C
  8
0
  0
BLOCK
  8
0
  2
*D12
 70
     1
 10
0.0
 20
0.0
 30
0.0
  3
*D12
  1

  0
LINE
  5
48B9
  8
寸法
  6
CONTINUOUS
 10
16504.12338829349
 20
8064.665024073824
 30
0.0
 11
17584.12338829349
 21
8064.665024073824
 31
0.0
  0
LINE
  5
48BA
  8
寸法
  6
CONTINUOUS
 10
16504.12338829349
 20
7064.665024073824
 30
0.0
 11
17584.12338829349
 21
7064.665024073824
 31
0.0
  0
LINE
  5
48BB
  8
寸法
  6
CONTINUOUS
 10
17584.12338829349
 20
8028.665024073824
 30
0.0
 11
17584.12338829349
 21
7100.665024073824
 31
0.0
  0
INSERT
  5
48BC
  8
寸法
  6
CONTINUOUS
  2
_ORIGIN
 10
17584.12338829349
 20
8064.665024073824
 30
0.0
 41
36.0
 42
36.0
 43
36.0
 50
90.0
  0
INSERT
  5
48BD
  8
寸法
  6
CONTINUOUS
  2
_ORIGIN
 10
17584.12338829349
 20
7064.665024073824
 30
0.0
 41
36.0
 42
36.0
 43
36.0
 50
270.0
  0
TEXT
  5
48BE
  8
寸法
  6
CONTINUOUS
 10
17489.83767400778
 20
7265.736452645258
 30
0.0
 40
180.0
  1
1,000
 50
90.0
 41
0.75
  7
1_100
  0
POINT
  5
48BF
  8
DEFPOINTS
  6
CONTINUOUS
 62
     0
 10
16324.12338829349
 20
8064.665024073824
 30
0.0
  0
POINT
  5
48C0
  8
DEFPOINTS
  6
CONTINUOUS
 62
     0
 10
16324.12338829349
 20
7064.665024073824
 30
0.0
  0
POINT
  5
48C1
  8
DEFPOINTS
  6
CONTINUOUS
 62
     0
 10
17584.12338829349
 20
7064.665024073824
 30
0.0
  0
ENDBLK
  5
3A18
  8
0
  0
BLOCK
  8
0
  2
*D13
 70
     1
 10
0.0
 20
0.0
 30
0.0
  3
*D13
  1

  0
LINE
  5
48C2
  8
寸法
  6
CONTINUOUS
 10
16504.12338829349
 20
8064.665024073824
 30
0.0
 11
16984.12338829349
 21
8064.665024073824
 31
0.0
  0
LINE
  5
48C3
  8
寸法
  6
CONTINUOUS
 10
16504.12338829349
 20
7764.665024073824
 30
0.0
 11
16984.12338829349
 21
7764.665024073824
 31
0.0
  0
LINE
  5
48C4
  8
寸法
  6
CONTINUOUS
 10
16984.12338829349
 20
8028.665024073824
 30
0.0
 11
16984.12338829349
 21
7800.665024073824
 31
0.0
  0
TEXT
  5
48C5
  8
寸法
  6
CONTINUOUS
 10
17239.70269030082
 20
7643.93229659407
 30
0.0
 40
180.0
  1
300
 50
90.0
 41
0.75
  7
1_100
  0
INSERT
  5
48C6
  8
寸法
  6
CONTINUOUS
  2
_ORIGIN
 10
16984.12338829349
 20
8064.665024073824
 30
0.0
 41
36.0
 42
36.0
 43
36.0
 50
90.0
  0
INSERT
  5
48C7
  8
寸法
  6
CONTINUOUS
  2
_ORIGIN
 10
16984.12338829349
 20
7764.665024073824
 30
0.0
 41
36.0
 42
36.0
 43
36.0
 50
270.0
  0
POINT
  5
48C8
  8
DEFPOINTS
  6
CONTINUOUS
 62
     0
 10
16324.12338829349
 20
8064.665024073824
 30
0.0
  0
POINT
  5
48C9
  8
DEFPOINTS
  6
CONTINUOUS
 62
     0
 10
16324.12338829349
 20
7764.665024073824
 30
0.0
  0
POINT
  5
48CA
  8
DEFPOINTS
  6
CONTINUOUS
 62
     0
 10
16984.12338829349
 20
7764.665024073824
 30
0.0
  0
ENDBLK
  5
3A24
  8
0
  0
BLOCK
  8
0
  2
*D14
 70
     1
 10
0.0
 20
0.0
 30
0.0
  3
*D14
  1

  0
LINE
  5
48CB
  8
寸法
  6
CONTINUOUS
 10
16504.12338829349
 20
7064.665024073824
 30
0.0
 11
16984.12338829349
 21
7064.665024073824
 31
0.0
  0
LINE
  5
48CC
  8
寸法
  6
CONTINUOUS
 10
16504.12338829349
 20
7764.665024073824
 30
0.0
 11
16984.12338829349
 21
7764.665024073824
 31
0.0
  0
LINE
  5
48CD
  8
寸法
  6
CONTINUOUS
 10
16984.12338829349
 20
7100.665024073824
 30
0.0
 11
16984.12338829349
 21
7728.665024073824
 31
0.0
  0
INSERT
  5
48CE
  8
寸法
  6
CONTINUOUS
  2
_ORIGIN
 10
16984.12338829349
 20
7064.665024073824
 30
0.0
 41
36.0
 42
36.0
 43
36.0
 50
270.0
  0
INSERT
  5
48CF
  8
寸法
  6
CONTINUOUS
  2
_ORIGIN
 10
16984.12338829349
 20
7764.665024073824
 30
0.0
 41
36.0
 42
36.0
 43
36.0
 50
90.0
  0
TEXT
  5
48D0
  8
寸法
  6
CONTINUOUS
 10
16924.12338829349
 20
7221.807881216686
 30
0.0
 40
180.0
  1
700
 50
90.0
 41
0.75
  7
1_100
  0
POINT
  5
48D1
  8
DEFPOINTS
  6
CONTINUOUS
 62
     0
 10
16324.12338829349
 20
7064.665024073824
 30
0.0
  0
POINT
  5
48D2
  8
DEFPOINTS
  6
CONTINUOUS
 62
     0
 10
16324.12338829349
 20
7764.665024073824
 30
0.0
  0
POINT
  5
48D3
  8
DEFPOINTS
  6
CONTINUOUS
 62
     0
 10
16984.12338829349
 20
7764.665024073824
 30
0.0
  0
ENDBLK
  5
3A30
  8
0
  0
BLOCK
  8
0
  2
*D15
 70
     1
 10
0.0
 20
0.0
 30
0.0
  3
*D15
  1

  0
LINE
  5
484E
  8
寸法
  6
CONTINUOUS
 10
19884.12338863489
 20
8064.665024074286
 30
0.0
 11
20964.12338863489
 21
8064.665024074286
 31
0.0
  0
LINE
  5
484F
  8
寸法
  6
CONTINUOUS
 10
19884.12338863489
 20
7064.665024074286
 30
0.0
 11
20964.12338863489
 21
7064.665024074286
 31
0.0
  0
LINE
  5
4850
  8
寸法
  6
CONTINUOUS
 10
20964.12338863489
 20
8028.665024074286
 30
0.0
 11
20964.12338863489
 21
7100.665024074286
 31
0.0
  0
INSERT
  5
4851
  8
寸法
  6
CONTINUOUS
  2
_ORIGIN
 10
20964.12338863489
 20
8064.665024074286
 30
0.0
 41
36.0
 42
36.0
 43
36.0
 50
90.0
  0
INSERT
  5
4852
  8
寸法
  6
CONTINUOUS
  2
_ORIGIN
 10
20964.12338863489
 20
7064.665024074286
 30
0.0
 41
36.0
 42
36.0
 43
36.0
 50
270.0
  0
TEXT
  5
4853
  8
寸法
  6
CONTINUOUS
 10
20869.83767434917
 20
7265.73645264572
 30
0.0
 40
180.0
  1
1,000
 50
90.0
 41
0.75
  7
1_100
  0
POINT
  5
4854
  8
DEFPOINTS
  6
CONTINUOUS
 62
     0
 10
19704.12338863489
 20
8064.665024074286
 30
0.0
  0
POINT
  5
4855
  8
DEFPOINTS
  6
CONTINUOUS
 62
     0
 10
19704.12338863489
 20
7064.665024074286
 30
0.0
  0
POINT
  5
4856
  8
DEFPOINTS
  6
CONTINUOUS
 62
     0
 10
20964.12338863489
 20
7064.665024074286
 30
0.0
  0
ENDBLK
  5
3A3C
  8
0
  0
BLOCK
  8
0
  2
*D16
 70
     1
 10
0.0
 20
0.0
 30
0.0
  3
*D16
  1

  0
LINE
  5
4857
  8
寸法
  6
CONTINUOUS
 10
19884.12338863489
 20
7064.665024074286
 30
0.0
 11
20364.12338863489
 21
7064.665024074286
 31
0.0
  0
LINE
  5
4858
  8
寸法
  6
CONTINUOUS
 10
19884.12338863489
 20
7764.665024074286
 30
0.0
 11
20364.12338863489
 21
7764.665024074286
 31
0.0
  0
LINE
  5
4859
  8
寸法
  6
CONTINUOUS
 10
20364.12338863489
 20
7100.665024074286
 30
0.0
 11
20364.12338863489
 21
7728.665024074286
 31
0.0
  0
INSERT
  5
485A
  8
寸法
  6
CONTINUOUS
  2
_ORIGIN
 10
20364.12338863489
 20
7064.665024074286
 30
0.0
 41
36.0
 42
36.0
 43
36.0
 50
270.0
  0
INSERT
  5
485B
  8
寸法
  6
CONTINUOUS
  2
_ORIGIN
 10
20364.12338863489
 20
7764.665024074286
 30
0.0
 41
36.0
 42
36.0
 43
36.0
 50
90.0
  0
TEXT
  5
485C
  8
寸法
  6
CONTINUOUS
 10
20304.12338863489
 20
7221.807881217148
 30
0.0
 40
180.0
  1
700
 50
90.0
 41
0.75
  7
1_100
  0
POINT
  5
485D
  8
DEFPOINTS
  6
CONTINUOUS
 62
     0
 10
19704.12338863489
 20
7064.665024074286
 30
0.0
  0
POINT
  5
485E
  8
DEFPOINTS
  6
CONTINUOUS
 62
     0
 10
19704.12338863489
 20
7764.665024074286
 30
0.0
  0
POINT
  5
485F
  8
DEFPOINTS
  6
CONTINUOUS
 62
     0
 10
20364.12338863489
 20
7764.665024074286
 30
0.0
  0
ENDBLK
  5
3A48
  8
0
  0
BLOCK
  8
0
  2
*D17
 70
     1
 10
0.0
 20
0.0
 30
0.0
  3
*D17
  1

  0
LINE
  5
4860
  8
寸法
  6
CONTINUOUS
 10
19884.12338863489
 20
8064.665024074286
 30
0.0
 11
20364.12338863489
 21
8064.665024074286
 31
0.0
  0
LINE
  5
4861
  8
寸法
  6
CONTINUOUS
 10
19884.12338863489
 20
7764.665024074286
 30
0.0
 11
20364.12338863489
 21
7764.665024074286
 31
0.0
  0
LINE
  5
4862
  8
寸法
  6
CONTINUOUS
 10
20364.12338863489
 20
8028.665024074286
 30
0.0
 11
20364.12338863489
 21
7800.665024074286
 31
0.0
  0
TEXT
  5
4863
  8
寸法
  6
CONTINUOUS
 10
20620.01264616557
 20
7624.327128346096
 30
0.0
 40
180.0
  1
300
 50
90.0
 41
0.75
  7
1_100
  0
INSERT
  5
4864
  8
寸法
  6
CONTINUOUS
  2
_ORIGIN
 10
20364.12338863489
 20
8064.665024074286
 30
0.0
 41
36.0
 42
36.0
 43
36.0
 50
90.0
  0
INSERT
  5
4865
  8
寸法
  6
CONTINUOUS
  2
_ORIGIN
 10
20364.12338863489
 20
7764.665024074286
 30
0.0
 41
36.0
 42
36.0
 43
36.0
 50
270.0
  0
POINT
  5
4866
  8
DEFPOINTS
  6
CONTINUOUS
 62
     0
 10
19704.12338863489
 20
8064.665024074286
 30
0.0
  0
POINT
  5
4867
  8
DEFPOINTS
  6
CONTINUOUS
 62
     0
 10
19704.12338863489
 20
7764.665024074286
 30
0.0
  0
POINT
  5
4868
  8
DEFPOINTS
  6
CONTINUOUS
 62
     0
 10
20364.12338863489
 20
7764.665024074286
 30
0.0
  0
ENDBLK
  5
3A54
  8
0
  0
BLOCK
  8
0
  2
*D18
 70
     1
 10
0.0
 20
0.0
 30
0.0
  3
*D18
  1

  0
LINE
  5
4869
  8
寸法
  6
CONTINUOUS
 10
18879.12338863489
 20
6784.66502407382
 30
0.0
 11
18879.12338863489
 21
6604.733575084971
 31
0.0
  0
LINE
  5
486A
  8
寸法
  6
CONTINUOUS
 10
19329.12338863489
 20
6784.66502407382
 30
0.0
 11
19329.12338863489
 21
6604.733575084971
 31
0.0
  0
LINE
  5
486B
  8
寸法
  6
CONTINUOUS
 10
18915.12338863489
 20
6604.733575084971
 30
0.0
 11
19293.12338863489
 21
6604.733575084971
 31
0.0
  0
TEXT
  5
486C
  8
寸法
  6
CONTINUOUS
 10
18224.83574504048
 20
6587.791528977712
 30
0.0
 40
180.0
  1
φ450
 41
0.75
  7
1_100
  0
INSERT
  5
486D
  8
寸法
  6
CONTINUOUS
  2
_ORIGIN
 10
18879.12338863489
 20
6604.733575084971
 30
0.0
 41
36.0
 42
36.0
 43
36.0
 50
180.0
  0
INSERT
  5
486E
  8
寸法
  6
CONTINUOUS
  2
_ORIGIN
 10
19329.12338863489
 20
6604.733575084971
 30
0.0
 41
36.0
 42
36.0
 43
36.0
  0
POINT
  5
486F
  8
DEFPOINTS
  6
CONTINUOUS
 62
     0
 10
18879.12338863489
 20
6964.66502407382
 30
0.0
  0
POINT
  5
4870
  8
DEFPOINTS
  6
CONTINUOUS
 62
     0
 10
19329.12338863489
 20
6964.66502407382
 30
0.0
  0
POINT
  5
4871
  8
DEFPOINTS
  6
CONTINUOUS
 62
     0
 10
19329.12338863489
 20
6604.733575084971
 30
0.0
  0
ENDBLK
  5
3A60
  8
0
  0
BLOCK
  8
0
  2
*D19
 70
     1
 10
0.0
 20
0.0
 30
0.0
  3
*D19
  1

  0
LINE
  5
4872
  8
寸法
  6
CONTINUOUS
 10
18854.12338863489
 20
6784.66502407382
 30
0.0
 11
18854.12338863489
 21
6364.66502407382
 31
0.0
  0
LINE
  5
4873
  8
寸法
  6
CONTINUOUS
 10
19354.12338863489
 20
6784.665024073587
 30
0.0
 11
19354.12338863489
 21
6364.66502407382
 31
0.0
  0
LINE
  5
4874
  8
寸法
  6
CONTINUOUS
 10
18818.12338863489
 20
6364.66502407382
 30
0.0
 11
18782.12338863489
 21
6364.66502407382
 31
0.0
  0
LINE
  5
4875
  8
寸法
  6
CONTINUOUS
 10
19390.12338863489
 20
6364.66502407382
 30
0.0
 11
19426.12338863489
 21
6364.66502407382
 31
0.0
  0
LINE
  5
4876
  8
寸法
  6
CONTINUOUS
 10
18854.12338863489
 20
6364.66502407382
 30
0.0
 11
19354.12338863489
 21
6364.66502407382
 31
0.0
  0
INSERT
  5
4877
  8
寸法
  6
CONTINUOUS
  2
_ORIGIN
 10
18854.12338863489
 20
6364.66502407382
 30
0.0
 41
36.0
 42
36.0
 43
36.0
  0
INSERT
  5
4878
  8
寸法
  6
CONTINUOUS
  2
_ORIGIN
 10
19354.12338863489
 20
6364.66502407382
 30
0.0
 41
36.0
 42
36.0
 43
36.0
 50
180.0
  0
TEXT
  5
4879
  8
寸法
  6
CONTINUOUS
 10
18830.9091029206
 20
6124.66502407382
 30
0.0
 40
180.0
  1
□500
 41
0.75
  7
1_100
  0
POINT
  5
487A
  8
DEFPOINTS
  6
CONTINUOUS
 62
     0
 10
18854.12338863489
 20
6964.66502407382
 30
0.0
  0
POINT
  5
487B
  8
DEFPOINTS
  6
CONTINUOUS
 62
     0
 10
19354.12338863489
 20
6964.665024073587
 30
0.0
  0
POINT
  5
487C
  8
DEFPOINTS
  6
CONTINUOUS
 62
     0
 10
19354.12338863489
 20
6364.66502407382
 30
0.0
  0
ENDBLK
  5
3A6E
  8
0
  0
BLOCK
  8
0
  2
*D20
 70
     1
 10
0.0
 20
0.0
 30
0.0
  3
*D20
  1

  0
LINE
  5
48D4
  8
寸法
  6
CONTINUOUS
 10
16504.12338829349
 20
6964.665024073824
 30
0.0
 11
16984.12338829349
 21
6964.665024073824
 31
0.0
  0
LINE
  5
48D5
  8
寸法
  6
CONTINUOUS
 10
16504.12338829349
 20
7064.665024073824
 30
0.0
 11
16984.12338829349
 21
7064.665024073824
 31
0.0
  0
LINE
  5
48D6
  8
寸法
  6
CONTINUOUS
 10
16984.12338829349
 20
6928.665024073824
 30
0.0
 11
16984.12338829349
 21
6892.665024073824
 31
0.0
  0
LINE
  5
48D7
  8
寸法
  6
CONTINUOUS
 10
16984.12338829349
 20
7100.665024073824
 30
0.0
 11
16984.12338829349
 21
7136.665024073824
 31
0.0
  0
TEXT
  5
48D8
  8
寸法
  6
CONTINUOUS
 10
16884.42160654097
 20
6538.938483694801
 30
0.0
 40
180.0
  1
100
 50
90.0
 41
0.75
  7
1_100
  0
LINE
  5
48D9
  8
寸法
  6
CONTINUOUS
 10
16984.12338829349
 20
6964.665024073824
 30
0.0
 11
16984.12338829349
 21
7064.665024073824
 31
0.0
  0
INSERT
  5
48DA
  8
寸法
  6
CONTINUOUS
  2
_ORIGIN
 10
16984.12338829349
 20
6964.665024073824
 30
0.0
 41
36.0
 42
36.0
 43
36.0
 50
90.0
  0
INSERT
  5
48DB
  8
寸法
  6
CONTINUOUS
  2
_ORIGIN
 10
16984.12338829349
 20
7064.665024073824
 30
0.0
 41
36.0
 42
36.0
 43
36.0
 50
270.0
  0
POINT
  5
48DC
  8
DEFPOINTS
  6
CONTINUOUS
 62
     0
 10
16324.12338829349
 20
6964.665024073824
 30
0.0
  0
POINT
  5
48DD
  8
DEFPOINTS
  6
CONTINUOUS
 62
     0
 10
16324.12338829349
 20
7064.665024073824
 30
0.0
  0
POINT
  5
48DE
  8
DEFPOINTS
  6
CONTINUOUS
 62
     0
 10
16984.12338829349
 20
7064.665024073824
 30
0.0
  0
ENDBLK
  5
3A88
  8
0
  0
BLOCK
  8
0
  2
*D21
 70
     1
 10
0.0
 20
0.0
 30
0.0
  3
*D21
  1

  0
LINE
  5
487D
  8
寸法
  6
CONTINUOUS
 10
19884.12338863489
 20
6964.665024074286
 30
0.0
 11
20364.12338863489
 21
6964.665024074286
 31
0.0
  0
LINE
  5
487E
  8
寸法
  6
CONTINUOUS
 10
19884.12338863489
 20
7064.665024074286
 30
0.0
 11
20364.12338863489
 21
7064.665024074286
 31
0.0
  0
LINE
  5
487F
  8
寸法
  6
CONTINUOUS
 10
20364.12338863489
 20
6928.665024074286
 30
0.0
 11
20364.12338863489
 21
6892.665024074286
 31
0.0
  0
LINE
  5
4880
  8
寸法
  6
CONTINUOUS
 10
20364.12338863489
 20
7100.665024074286
 30
0.0
 11
20364.12338863489
 21
7136.665024074286
 31
0.0
  0
TEXT
  5
4881
  8
寸法
  6
CONTINUOUS
 10
20299.22481990502
 20
6500.713122628888
 30
0.0
 40
180.0
  1
100
 50
90.0
 41
0.75
  7
1_100
  0
LINE
  5
4882
  8
寸法
  6
CONTINUOUS
 10
20364.12338863489
 20
6964.665024074286
 30
0.0
 11
20364.12338863489
 21
7064.665024074286
 31
0.0
  0
INSERT
  5
4883
  8
寸法
  6
CONTINUOUS
  2
_ORIGIN
 10
20364.12338863489
 20
6964.665024074286
 30
0.0
 41
36.0
 42
36.0
 43
36.0
 50
90.0
  0
INSERT
  5
4884
  8
寸法
  6
CONTINUOUS
  2
_ORIGIN
 10
20364.12338863489
 20
7064.665024074286
 30
0.0
 41
36.0
 42
36.0
 43
36.0
 50
270.0
  0
POINT
  5
4885
  8
DEFPOINTS
  6
CONTINUOUS
 62
     0
 10
19704.12338863489
 20
6964.665024074286
 30
0.0
  0
POINT
  5
4886
  8
DEFPOINTS
  6
CONTINUOUS
 62
     0
 10
19704.12338863489
 20
7064.665024074286
 30
0.0
  0
POINT
  5
4887
  8
DEFPOINTS
  6
CONTINUOUS
 62
     0
 10
20364.12338863489
 20
7064.665024074286
 30
0.0
  0
ENDBLK
  5
3A96
  8
0
  0
BLOCK
  8
0
  2
*D22
 70
     1
 10
0.0
 20
0.0
 30
0.0
  3
*D22
  1

  0
LINE
  5
48DF
  8
寸法
  6
CONTINUOUS
 10
16504.12338829349
 20
10064.66502407383
 30
0.0
 11
16984.12338829349
 21
10064.66502407383
 31
0.0
  0
LINE
  5
48E0
  8
寸法
  6
CONTINUOUS
 10
16504.12338829349
 20
12024.66502407383
 30
0.0
 11
16984.12338829349
 21
12024.66502407383
 31
0.0
  0
LINE
  5
48E1
  8
寸法
  6
CONTINUOUS
 10
16984.12338829349
 20
10100.66502407383
 30
0.0
 11
16984.12338829349
 21
11988.66502407383
 31
0.0
  0
INSERT
  5
48E2
  8
寸法
  6
CONTINUOUS
  2
_ORIGIN
 10
16984.12338829349
 20
10064.66502407383
 30
0.0
 41
36.0
 42
36.0
 43
36.0
 50
270.0
  0
INSERT
  5
48E3
  8
寸法
  6
CONTINUOUS
  2
_ORIGIN
 10
16984.12338829349
 20
12024.66502407383
 30
0.0
 41
36.0
 42
36.0
 43
36.0
 50
90.0
  0
TEXT
  5
48E4
  8
寸法
  6
CONTINUOUS
 10
16889.83767400777
 20
10745.73645264526
 30
0.0
 40
180.0
  1
1,960
 50
90.0
 41
0.75
  7
1_100
  0
POINT
  5
48E5
  8
DEFPOINTS
  6
CONTINUOUS
 62
     0
 10
16324.12338829349
 20
10064.66502407383
 30
0.0
  0
POINT
  5
48E6
  8
DEFPOINTS
  6
CONTINUOUS
 62
     0
 10
16324.12338829349
 20
12024.66502407383
 30
0.0
  0
POINT
  5
48E7
  8
DEFPOINTS
  6
CONTINUOUS
 62
     0
 10
16984.12338829349
 20
12024.66502407383
 30
0.0
  0
ENDBLK
  5
3AA2
  8
0
  0
BLOCK
  8
0
  2
*D23
 70
     1
 10
0.0
 20
0.0
 30
0.0
  3
*D23
  1

  0
LINE
  5
48E8
  8
寸法
  6
CONTINUOUS
 10
16504.12338829349
 20
12064.66502407383
 30
0.0
 11
17584.12338829349
 21
12064.66502407383
 31
0.0
  0
LINE
  5
48E9
  8
寸法
  6
CONTINUOUS
 10
16504.12338829349
 20
8064.665024073824
 30
0.0
 11
17584.12338829349
 21
8064.665024073824
 31
0.0
  0
LINE
  5
48EA
  8
寸法
  6
CONTINUOUS
 10
17584.12338829349
 20
12028.66502407383
 30
0.0
 11
17584.12338829349
 21
8100.665024073824
 31
0.0
  0
INSERT
  5
48EB
  8
寸法
  6
CONTINUOUS
  2
_ORIGIN
 10
17584.12338829349
 20
12064.66502407383
 30
0.0
 41
36.0
 42
36.0
 43
36.0
 50
90.0
  0
INSERT
  5
48EC
  8
寸法
  6
CONTINUOUS
  2
_ORIGIN
 10
17584.12338829349
 20
8064.665024073824
 30
0.0
 41
36.0
 42
36.0
 43
36.0
 50
270.0
  0
TEXT
  5
48ED
  8
寸法
  6
CONTINUOUS
 10
17489.83767400778
 20
9775.379309788113
 30
0.0
 40
180.0
  1
4,000
 50
90.0
 41
0.75
  7
1_100
  0
POINT
  5
48EE
  8
DEFPOINTS
  6
CONTINUOUS
 62
     0
 10
16324.12338829349
 20
12064.66502407383
 30
0.0
  0
POINT
  5
48EF
  8
DEFPOINTS
  6
CONTINUOUS
 62
     0
 10
16324.12338829349
 20
8064.665024073824
 30
0.0
  0
POINT
  5
48F0
  8
DEFPOINTS
  6
CONTINUOUS
 62
     0
 10
17584.12338829349
 20
8064.665024073824
 30
0.0
  0
ENDBLK
  5
3AAE
  8
0
  0
BLOCK
  8
0
  2
*D24
 70
     1
 10
0.0
 20
0.0
 30
0.0
  3
*D24
  1

  0
LINE
  5
48F1
  8
寸法
  6
CONTINUOUS
 10
16504.12338829349
 20
8064.665024073824
 30
0.0
 11
16984.12338829349
 21
8064.665024073824
 31
0.0
  0
LINE
  5
48F2
  8
寸法
  6
CONTINUOUS
 10
16504.12338829349
 20
10064.66502407383
 30
0.0
 11
16984.12338829349
 21
10064.66502407383
 31
0.0
  0
LINE
  5
48F3
  8
寸法
  6
CONTINUOUS
 10
16984.12338829349
 20
8100.665024073824
 30
0.0
 11
16984.12338829349
 21
10028.66502407383
 31
0.0
  0
INSERT
  5
48F4
  8
寸法
  6
CONTINUOUS
  2
_ORIGIN
 10
16984.12338829349
 20
8064.665024073824
 30
0.0
 41
36.0
 42
36.0
 43
36.0
 50
270.0
  0
INSERT
  5
48F5
  8
寸法
  6
CONTINUOUS
  2
_ORIGIN
 10
16984.12338829349
 20
10064.66502407383
 30
0.0
 41
36.0
 42
36.0
 43
36.0
 50
90.0
  0
TEXT
  5
48F6
  8
寸法
  6
CONTINUOUS
 10
16889.83767400777
 20
8775.379309788113
 30
0.0
 40
180.0
  1
2,000
 50
90.0
 41
0.75
  7
1_100
  0
POINT
  5
48F7
  8
DEFPOINTS
  6
CONTINUOUS
 62
     0
 10
16324.12338829349
 20
8064.665024073824
 30
0.0
  0
POINT
  5
48F8
  8
DEFPOINTS
  6
CONTINUOUS
 62
     0
 10
16324.12338829349
 20
10064.66502407383
 30
0.0
  0
POINT
  5
48F9
  8
DEFPOINTS
  6
CONTINUOUS
 62
     0
 10
16984.12338829349
 20
10064.66502407383
 30
0.0
  0
ENDBLK
  5
3ABA
  8
0
  0
BLOCK
  8
0
  2
*D25
 70
     1
 10
0.0
 20
0.0
 30
0.0
  3
*D25
  1

  0
LINE
  5
48FA
  8
寸法
  6
CONTINUOUS
 10
16504.12338829349
 20
12024.66502407383
 30
0.0
 11
16984.12338829349
 21
12024.66502407383
 31
0.0
  0
LINE
  5
48FB
  8
寸法
  6
CONTINUOUS
 10
16504.12338829349
 20
12064.66502407383
 30
0.0
 11
16984.12338829349
 21
12064.66502407383
 31
0.0
  0
LINE
  5
48FC
  8
寸法
  6
CONTINUOUS
 10
16984.12338829349
 20
11988.66502407383
 30
0.0
 11
16984.12338829349
 21
11952.66502407383
 31
0.0
  0
LINE
  5
48FD
  8
寸法
  6
CONTINUOUS
 10
16984.12338829349
 20
12100.66502407383
 30
0.0
 11
16984.12338829349
 21
12136.66502407383
 31
0.0
  0
TEXT
  5
48FE
  8
寸法
  6
CONTINUOUS
 10
16899.40842996194
 20
12145.01567719276
 30
0.0
 40
180.0
  1
40
 50
90.0
 41
0.75
  7
1_100
  0
LINE
  5
48FF
  8
寸法
  6
CONTINUOUS
 10
16984.12338829349
 20
12024.66502407383
 30
0.0
 11
16984.12338829349
 21
12064.66502407383
 31
0.0
  0
INSERT
  5
4900
  8
寸法
  6
CONTINUOUS
  2
_ORIGIN
 10
16984.12338829349
 20
12024.66502407383
 30
0.0
 41
36.0
 42
36.0
 43
36.0
 50
90.0
  0
INSERT
  5
4901
  8
寸法
  6
CONTINUOUS
  2
_ORIGIN
 10
16984.12338829349
 20
12064.66502407383
 30
0.0
 41
36.0
 42
36.0
 43
36.0
 50
270.0
  0
POINT
  5
4902
  8
DEFPOINTS
  6
CONTINUOUS
 62
     0
 10
16324.12338829349
 20
12024.66502407383
 30
0.0
  0
POINT
  5
4903
  8
DEFPOINTS
  6
CONTINUOUS
 62
     0
 10
16324.12338829349
 20
12064.66502407383
 30
0.0
  0
POINT
  5
4904
  8
DEFPOINTS
  6
CONTINUOUS
 62
     0
 10
16984.12338829349
 20
12064.66502407383
 30
0.0
  0
ENDBLK
  5
3AC8
  8
0
  0
BLOCK
  8
0
  2
*D26
 70
     1
 10
0.0
 20
0.0
 30
0.0
  3
*D26
  1

  0
LINE
  5
4888
  8
寸法
  6
CONTINUOUS
 10
19884.12338863489
 20
10064.66502407429
 30
0.0
 11
20364.12338863489
 21
10064.66502407429
 31
0.0
  0
LINE
  5
4889
  8
寸法
  6
CONTINUOUS
 10
19884.12338863489
 20
12024.66502407429
 30
0.0
 11
20364.12338863489
 21
12024.66502407429
 31
0.0
  0
LINE
  5
488A
  8
寸法
  6
CONTINUOUS
 10
20364.12338863489
 20
10100.66502407429
 30
0.0
 11
20364.12338863489
 21
11988.66502407429
 31
0.0
  0
INSERT
  5
488B
  8
寸法
  6
CONTINUOUS
  2
_ORIGIN
 10
20364.12338863489
 20
10064.66502407429
 30
0.0
 41
36.0
 42
36.0
 43
36.0
 50
270.0
  0
INSERT
  5
488C
  8
寸法
  6
CONTINUOUS
  2
_ORIGIN
 10
20364.12338863489
 20
12024.66502407429
 30
0.0
 41
36.0
 42
36.0
 43
36.0
 50
90.0
  0
TEXT
  5
488D
  8
寸法
  6
CONTINUOUS
 10
20269.83767434917
 20
10745.73645264572
 30
0.0
 40
180.0
  1
1,960
 50
90.0
 41
0.75
  7
1_100
  0
POINT
  5
488E
  8
DEFPOINTS
  6
CONTINUOUS
 62
     0
 10
19704.12338863489
 20
10064.66502407429
 30
0.0
  0
POINT
  5
488F
  8
DEFPOINTS
  6
CONTINUOUS
 62
     0
 10
19704.12338863489
 20
12024.66502407429
 30
0.0
  0
POINT
  5
4890
  8
DEFPOINTS
  6
CONTINUOUS
 62
     0
 10
20364.12338863489
 20
12024.66502407429
 30
0.0
  0
ENDBLK
  5
3AD4
  8
0
  0
BLOCK
  8
0
  2
*D27
 70
     1
 10
0.0
 20
0.0
 30
0.0
  3
*D27
  1

  0
LINE
  5
4891
  8
寸法
  6
CONTINUOUS
 10
19884.12338863489
 20
12064.66502407429
 30
0.0
 11
20964.12338863489
 21
12064.66502407429
 31
0.0
  0
LINE
  5
4892
  8
寸法
  6
CONTINUOUS
 10
19884.12338863489
 20
8064.665024074286
 30
0.0
 11
20964.12338863489
 21
8064.665024074286
 31
0.0
  0
LINE
  5
4893
  8
寸法
  6
CONTINUOUS
 10
20964.12338863489
 20
12028.66502407429
 30
0.0
 11
20964.12338863489
 21
8100.665024074286
 31
0.0
  0
INSERT
  5
4894
  8
寸法
  6
CONTINUOUS
  2
_ORIGIN
 10
20964.12338863489
 20
12064.66502407429
 30
0.0
 41
36.0
 42
36.0
 43
36.0
 50
90.0
  0
INSERT
  5
4895
  8
寸法
  6
CONTINUOUS
  2
_ORIGIN
 10
20964.12338863489
 20
8064.665024074286
 30
0.0
 41
36.0
 42
36.0
 43
36.0
 50
270.0
  0
TEXT
  5
4896
  8
寸法
  6
CONTINUOUS
 10
20869.83767434917
 20
9775.379309788575
 30
0.0
 40
180.0
  1
4,000
 50
90.0
 41
0.75
  7
1_100
  0
POINT
  5
4897
  8
DEFPOINTS
  6
CONTINUOUS
 62
     0
 10
19704.12338863489
 20
12064.66502407429
 30
0.0
  0
POINT
  5
4898
  8
DEFPOINTS
  6
CONTINUOUS
 62
     0
 10
19704.12338863489
 20
8064.665024074286
 30
0.0
  0
POINT
  5
4899
  8
DEFPOINTS
  6
CONTINUOUS
 62
     0
 10
20964.12338863489
 20
8064.665024074286
 30
0.0
  0
ENDBLK
  5
3AE0
  8
0
  0
BLOCK
  8
0
  2
*D28
 70
     1
 10
0.0
 20
0.0
 30
0.0
  3
*D28
  1

  0
LINE
  5
489A
  8
寸法
  6
CONTINUOUS
 10
19884.12338863489
 20
8064.665024074286
 30
0.0
 11
20364.12338863488
 21
8064.665024074286
 31
0.0
  0
LINE
  5
489B
  8
寸法
  6
CONTINUOUS
 10
19884.12338863489
 20
10064.66502407429
 30
0.0
 11
20364.12338863489
 21
10064.66502407429
 31
0.0
  0
LINE
  5
489C
  8
寸法
  6
CONTINUOUS
 10
20364.12338863488
 20
8100.665024074286
 30
0.0
 11
20364.12338863489
 21
10028.66502407429
 31
0.0
  0
INSERT
  5
489D
  8
寸法
  6
CONTINUOUS
  2
_ORIGIN
 10
20364.12338863488
 20
8064.665024074286
 30
0.0
 41
36.0
 42
36.0
 43
36.0
 50
270.0
  0
INSERT
  5
489E
  8
寸法
  6
CONTINUOUS
  2
_ORIGIN
 10
20364.12338863489
 20
10064.66502407429
 30
0.0
 41
36.0
 42
36.0
 43
36.0
 50
90.0
  0
TEXT
  5
489F
  8
寸法
  6
CONTINUOUS
 10
20269.83767434917
 20
8775.379309788575
 30
0.0
 40
180.0
  1
2,000
 50
90.0
 41
0.75
  7
1_100
  0
POINT
  5
48A0
  8
DEFPOINTS
  6
CONTINUOUS
 62
     0
 10
19704.12338863489
 20
8064.665024074286
 30
0.0
  0
POINT
  5
48A1
  8
DEFPOINTS
  6
CONTINUOUS
 62
     0
 10
19704.12338863489
 20
10064.66502407429
 30
0.0
  0
POINT
  5
48A2
  8
DEFPOINTS
  6
CONTINUOUS
 62
     0
 10
20364.12338863489
 20
10064.66502407429
 30
0.0
  0
ENDBLK
  5
3AEC
  8
0
  0
BLOCK
  8
0
  2
*D29
 70
     1
 10
0.0
 20
0.0
 30
0.0
  3
*D29
  1

  0
LINE
  5
48A3
  8
寸法
  6
CONTINUOUS
 10
19884.12338863489
 20
12024.66502407429
 30
0.0
 11
20364.12338863489
 21
12024.66502407429
 31
0.0
  0
LINE
  5
48A4
  8
寸法
  6
CONTINUOUS
 10
19884.12338863489
 20
12064.66502407429
 30
0.0
 11
20364.12338863489
 21
12064.66502407429
 31
0.0
  0
LINE
  5
48A5
  8
寸法
  6
CONTINUOUS
 10
20364.12338863489
 20
11988.66502407429
 30
0.0
 11
20364.12338863489
 21
11952.66502407429
 31
0.0
  0
LINE
  5
48A6
  8
寸法
  6
CONTINUOUS
 10
20364.12338863489
 20
12100.66502407429
 30
0.0
 11
20364.12338863489
 21
12136.66502407429
 31
0.0
  0
TEXT
  5
48A7
  8
寸法
  6
CONTINUOUS
 10
20303.87907988008
 20
12121.87061970933
 30
0.0
 40
180.0
  1
40
 50
90.0
 41
0.75
  7
1_100
  0
LINE
  5
48A8
  8
寸法
  6
CONTINUOUS
 10
20364.12338863489
 20
12024.66502407429
 30
0.0
 11
20364.12338863489
 21
12064.66502407429
 31
0.0
  0
INSERT
  5
48A9
  8
寸法
  6
CONTINUOUS
  2
_ORIGIN
 10
20364.12338863489
 20
12024.66502407429
 30
0.0
 41
36.0
 42
36.0
 43
36.0
 50
90.0
  0
INSERT
  5
48AA
  8
寸法
  6
CONTINUOUS
  2
_ORIGIN
 10
20364.12338863489
 20
12064.66502407429
 30
0.0
 41
36.0
 42
36.0
 43
36.0
 50
270.0
  0
POINT
  5
48AB
  8
DEFPOINTS
  6
CONTINUOUS
 62
     0
 10
19704.12338863489
 20
12024.66502407429
 30
0.0
  0
POINT
  5
48AC
  8
DEFPOINTS
  6
CONTINUOUS
 62
     0
 10
19704.12338863489
 20
12064.66502407429
 30
0.0
  0
POINT
  5
48AD
  8
DEFPOINTS
  6
CONTINUOUS
 62
     0
 10
20364.12338863489
 20
12064.66502407429
 30
0.0
  0
ENDBLK
  5
3AFA
  8
0
  0
BLOCK
  8
0
  2
*D30
 70
     1
 10
0.0
 20
0.0
 30
0.0
  3
*D30
  1

  0
LINE
  5
4928
  8
画層3-寸法
  6
CONTINUOUS
 10
15073.44102989492
 20
6734.665024073824
 30
0.0
 11
15073.44102989492
 21
5764.665024073824
 31
0.0
  0
LINE
  5
4929
  8
画層3-寸法
  6
CONTINUOUS
 10
13073.44102989492
 20
6734.665024073824
 30
0.0
 11
13073.44102989492
 21
5764.665024073824
 31
0.0
  0
LINE
  5
492A
  8
画層3-寸法
  6
CONTINUOUS
 10
15037.44102989492
 20
5764.665024073824
 30
0.0
 11
13109.44102989492
 21
5764.665024073824
 31
0.0
  0
INSERT
  5
492B
  8
画層3-寸法
  6
CONTINUOUS
  2
_ORIGIN
 10
15073.44102989492
 20
5764.665024073824
 30
0.0
 41
36.0
 42
36.0
 43
36.0
  0
INSERT
  5
492C
  8
画層3-寸法
  6
CONTINUOUS
  2
_ORIGIN
 10
13073.44102989492
 20
5764.665024073824
 30
0.0
 41
36.0
 42
36.0
 43
36.0
 50
180.0
  0
TEXT
  5
492D
  8
画層3-寸法
  6
CONTINUOUS
 10
13784.15531560921
 20
5858.950738359537
 30
0.0
 40
180.0
  1
2,000
 41
0.75
  7
1_100
  0
POINT
  5
492E
  8
DEFPOINTS
  6
CONTINUOUS
 62
     0
 10
15073.44102989492
 20
6914.665024073824
 30
0.0
  0
POINT
  5
492F
  8
DEFPOINTS
  6
CONTINUOUS
 62
     0
 10
13073.44102989492
 20
6914.665024073824
 30
0.0
  0
POINT
  5
4930
  8
DEFPOINTS
  6
CONTINUOUS
 62
     0
 10
13073.44102989492
 20
5764.665024073824
 30
0.0
  0
ENDBLK
  5
491B
  8
0
  0
BLOCK
  8
0
  2
*D31
 70
     1
 10
0.0
 20
0.0
 30
0.0
  3
*D31
  1

  0
LINE
  5
4931
  8
画層3-寸法
  6
CONTINUOUS
 10
13073.44102989492
 20
6734.665024073824
 30
0.0
 11
13073.44102989492
 21
5764.665024073824
 31
0.0
  0
LINE
  5
4932
  8
画層3-寸法
  6
CONTINUOUS
 10
11073.44102989492
 20
6734.665024073824
 30
0.0
 11
11073.44102989492
 21
5764.665024073824
 31
0.0
  0
LINE
  5
4933
  8
画層3-寸法
  6
CONTINUOUS
 10
13037.44102989492
 20
5764.665024073824
 30
0.0
 11
11109.44102989492
 21
5764.665024073824
 31
0.0
  0
INSERT
  5
4934
  8
画層3-寸法
  6
CONTINUOUS
  2
_ORIGIN
 10
13073.44102989492
 20
5764.665024073824
 30
0.0
 41
36.0
 42
36.0
 43
36.0
  0
INSERT
  5
4935
  8
画層3-寸法
  6
CONTINUOUS
  2
_ORIGIN
 10
11073.44102989492
 20
5764.665024073824
 30
0.0
 41
36.0
 42
36.0
 43
36.0
 50
180.0
  0
TEXT
  5
4936
  8
画層3-寸法
  6
CONTINUOUS
 10
11784.15531560921
 20
5858.950738359537
 30
0.0
 40
180.0
  1
2,000
 41
0.75
  7
1_100
  0
POINT
  5
4937
  8
DEFPOINTS
  6
CONTINUOUS
 62
     0
 10
13073.44102989492
 20
6914.665024073824
 30
0.0
  0
POINT
  5
4938
  8
DEFPOINTS
  6
CONTINUOUS
 62
     0
 10
11073.44102989492
 20
6914.665024073824
 30
0.0
  0
POINT
  5
4939
  8
DEFPOINTS
  6
CONTINUOUS
 62
     0
 10
11073.44102989492
 20
5764.665024073824
 30
0.0
  0
ENDBLK
  5
4927
  8
0
  0
BLOCK
  8
ﾊｯﾁﾝｸﾞ
  2
*X32
 70
     1
 10
0.0
 20
0.0
 30
0.0
  3
*X32
  1
Acad:XRef
  0
LINE
  5
4BB7
  8
ﾈｯﾄ
  6
CONTINUOUS
 62
   230
 10
5130.591030236449
 20
11938.0
 30
0.0
 11
7472.085969750904
 21
11938.0
 31
0.0
  0
LINE
  5
4BB8
  8
ﾈｯﾄ
  6
CONTINUOUS
 62
   230
 10
5130.591030236449
 20
11811.0
 30
0.0
 11
7504.590512782478
 21
11811.0
 31
0.0
  0
LINE
  5
4BB9
  8
ﾈｯﾄ
  6
CONTINUOUS
 62
   230
 10
5130.591030236449
 20
11684.0
 30
0.0
 11
7537.095055814052
 21
11684.0
 31
0.0
  0
LINE
  5
4BBA
  8
ﾈｯﾄ
  6
CONTINUOUS
 62
   230
 10
5130.591030236449
 20
11557.0
 30
0.0
 11
7569.599598845626
 21
11557.0
 31
0.0
  0
LINE
  5
4BBB
  8
ﾈｯﾄ
  6
CONTINUOUS
 62
   230
 10
5130.591030236449
 20
11430.0
 30
0.0
 11
7602.1041418772
 21
11430.0
 31
0.0
  0
LINE
  5
4BBC
  8
ﾈｯﾄ
  6
CONTINUOUS
 62
   230
 10
5130.591030236449
 20
11303.0
 30
0.0
 11
7634.608684908773
 21
11303.0
 31
0.0
  0
LINE
  5
4BBD
  8
ﾈｯﾄ
  6
CONTINUOUS
 62
   230
 10
5130.591030236449
 20
11176.0
 30
0.0
 11
7667.113227940348
 21
11176.0
 31
0.0
  0
LINE
  5
4BBE
  8
ﾈｯﾄ
  6
CONTINUOUS
 62
   230
 10
5130.591030236449
 20
11049.0
 30
0.0
 11
7699.617770971921
 21
11049.0
 31
0.0
  0
LINE
  5
4BBF
  8
ﾈｯﾄ
  6
CONTINUOUS
 62
   230
 10
5130.591030236449
 20
10922.0
 30
0.0
 11
7732.122314003496
 21
10922.0
 31
0.0
  0
LINE
  5
4BC0
  8
ﾈｯﾄ
  6
CONTINUOUS
 62
   230
 10
5130.591030236449
 20
10795.0
 30
0.0
 11
7764.626857035069
 21
10795.0
 31
0.0
  0
LINE
  5
4BC1
  8
ﾈｯﾄ
  6
CONTINUOUS
 62
   230
 10
5130.591030236449
 20
10668.0
 30
0.0
 11
7797.131400066643
 21
10668.0
 31
0.0
  0
LINE
  5
4BC2
  8
ﾈｯﾄ
  6
CONTINUOUS
 62
   230
 10
5130.591030236449
 20
10541.0
 30
0.0
 11
7829.635943098217
 21
10541.0
 31
0.0
  0
LINE
  5
4BC3
  8
ﾈｯﾄ
  6
CONTINUOUS
 62
   230
 10
5130.591030236449
 20
10414.0
 30
0.0
 11
7862.140486129791
 21
10414.0
 31
0.0
  0
LINE
  5
4BC4
  8
ﾈｯﾄ
  6
CONTINUOUS
 62
   230
 10
5130.591030236449
 20
10287.0
 30
0.0
 11
7894.645029161366
 21
10287.0
 31
0.0
  0
LINE
  5
4BC5
  8
ﾈｯﾄ
  6
CONTINUOUS
 62
   230
 10
5130.591030236449
 20
10160.0
 30
0.0
 11
7927.14957219294
 21
10160.0
 31
0.0
  0
LINE
  5
4BC6
  8
ﾈｯﾄ
  6
CONTINUOUS
 62
   230
 10
5207.0
 20
10064.66502407382
 30
0.0
 11
5207.0
 21
12024.66502407382
 31
0.0
  0
LINE
  5
4BC7
  8
ﾈｯﾄ
  6
CONTINUOUS
 62
   230
 10
5334.0
 20
10084.66601838803
 30
0.0
 11
5334.0
 21
12004.44130341269
 31
0.0
  0
LINE
  5
4BC8
  8
ﾈｯﾄ
  6
CONTINUOUS
 62
   230
 10
5461.0
 20
10064.66502407383
 30
0.0
 11
5461.0
 21
12024.66502407382
 31
0.0
  0
LINE
  5
4BC9
  8
ﾈｯﾄ
  6
CONTINUOUS
 62
   230
 10
5588.0
 20
10064.66502407383
 30
0.0
 11
5588.0
 21
12024.66502407382
 31
0.0
  0
LINE
  5
4BCA
  8
ﾈｯﾄ
  6
CONTINUOUS
 62
   230
 10
5715.0
 20
10064.66502407383
 30
0.0
 11
5715.0
 21
12024.66502407382
 31
0.0
  0
LINE
  5
4BCB
  8
ﾈｯﾄ
  6
CONTINUOUS
 62
   230
 10
5842.0
 20
10064.66502407384
 30
0.0
 11
5842.0
 21
12024.66502407382
 31
0.0
  0
LINE
  5
4BCC
  8
ﾈｯﾄ
  6
CONTINUOUS
 62
   230
 10
5969.0
 20
10064.66502407384
 30
0.0
 11
5969.0
 21
12024.66502407382
 31
0.0
  0
LINE
  5
4BCD
  8
ﾈｯﾄ
  6
CONTINUOUS
 62
   230
 10
6096.0
 20
10064.66502407384
 30
0.0
 11
6096.0
 21
12024.66502407382
 31
0.0
  0
LINE
  5
4BCE
  8
ﾈｯﾄ
  6
CONTINUOUS
 62
   230
 10
6223.0
 20
10064.66502407385
 30
0.0
 11
6223.0
 21
12024.66502407382
 31
0.0
  0
LINE
  5
4BCF
  8
ﾈｯﾄ
  6
CONTINUOUS
 62
   230
 10
6350.0
 20
10064.66502407385
 30
0.0
 11
6350.0
 21
12024.66502407382
 31
0.0
  0
LINE
  5
4BD0
  8
ﾈｯﾄ
  6
CONTINUOUS
 62
   230
 10
6477.0
 20
10064.66502407385
 30
0.0
 11
6477.0
 21
12024.66502407382
 31
0.0
  0
LINE
  5
4BD1
  8
ﾈｯﾄ
  6
CONTINUOUS
 62
   230
 10
6604.0
 20
10064.66502407385
 30
0.0
 11
6604.0
 21
12024.66502407382
 31
0.0
  0
LINE
  5
4BD2
  8
ﾈｯﾄ
  6
CONTINUOUS
 62
   230
 10
6731.0
 20
10064.66502407386
 30
0.0
 11
6731.0
 21
12024.66502407382
 31
0.0
  0
LINE
  5
4BD3
  8
ﾈｯﾄ
  6
CONTINUOUS
 62
   230
 10
6858.0
 20
10064.66502407386
 30
0.0
 11
6858.0
 21
12024.66502407382
 31
0.0
  0
LINE
  5
4BD4
  8
ﾈｯﾄ
  6
CONTINUOUS
 62
   230
 10
6985.0
 20
10064.66502407386
 30
0.0
 11
6985.0
 21
12024.66502407382
 31
0.0
  0
LINE
  5
4BD5
  8
ﾈｯﾄ
  6
CONTINUOUS
 62
   230
 10
7112.0
 20
10064.66502407386
 30
0.0
 11
7112.0
 21
12024.66502407382
 31
0.0
  0
LINE
  5
4BD6
  8
ﾈｯﾄ
  6
CONTINUOUS
 62
   230
 10
7239.0
 20
10064.66502407387
 30
0.0
 11
7239.0
 21
12024.66502407382
 31
0.0
  0
LINE
  5
4BD7
  8
ﾈｯﾄ
  6
CONTINUOUS
 62
   230
 10
7366.0
 20
10064.66502407387
 30
0.0
 11
7366.0
 21
12024.66502407382
 31
0.0
  0
LINE
  5
4BD8
  8
ﾈｯﾄ
  6
CONTINUOUS
 62
   230
 10
7493.0
 20
10064.66502407387
 30
0.0
 11
7493.0
 21
11856.28582733635
 31
0.0
  0
LINE
  5
4BD9
  8
ﾈｯﾄ
  6
CONTINUOUS
 62
   230
 10
7620.0
 20
10064.66502407387
 30
0.0
 11
7620.0
 21
11360.07826692447
 31
0.0
  0
LINE
  5
4BDA
  8
ﾈｯﾄ
  6
CONTINUOUS
 62
   230
 10
7747.0
 20
10064.66502407388
 30
0.0
 11
7747.0
 21
10863.8707065126
 31
0.0
  0
LINE
  5
4BDB
  8
ﾈｯﾄ
  6
CONTINUOUS
 62
   230
 10
7874.0
 20
10064.66502407388
 30
0.0
 11
7874.0
 21
10367.66314610073
 31
0.0
  0
ENDBLK
  5
4D7F
  8
ﾊｯﾁﾝｸﾞ
  0
BLOCK
  8
ﾊｯﾁﾝｸﾞ
  2
*X33
 70
     1
 10
0.0
 20
0.0
 30
0.0
  3
*X33
  1
Acad:XRef
  0
TEXT
  5
4BDD
  8
寸法文字
  6
CONTINUOUS
 10
7629.999202894392
 20
9108.964753955759
 30
0.0
 40
153.0
  1
φ2.6×50目
 41
0.75
  7
1_100
  0
TEXT
  5
4BDE
  8
寸法文字
  6
CONTINUOUS
 10
7622.89563146582
 20
8853.964753955759
 30
0.0
 40
153.0
  1
（TBIR鉄線）
 41
0.75
  7
1_100
  0
ENDBLK
  5
4D81
  8
ﾊｯﾁﾝｸﾞ
  0
BLOCK
  8
ﾊｯﾁﾝｸﾞ
  2
*X34
 70
     1
 10
0.0
 20
0.0
 30
0.0
  3
*X34
  1
Acad:XRef
  0
TEXT
  5
4BF4
  8
寸法文字
  6
CONTINUOUS
 10
13428.52511832399
 20
12903.79291864953
 30
0.0
 40
180.0
  1
ネット上下6mm合繊ロープに4mm合繊
 41
0.75
  7
1_100
  0
TEXT
  5
4BF5
  8
寸法文字
  6
CONTINUOUS
 10
13415.02511832399
 20
12603.79291864953
 30
0.0
 40
180.0
  1
ロープにて22m㎡ワイヤーに巻付
 41
0.75
  7
1_100
  0
ENDBLK
  5
4D83
  8
ﾊｯﾁﾝｸﾞ
  0
BLOCK
  8
ﾊｯﾁﾝｸﾞ
  2
*X35
 70
     1
 10
0.0
 20
0.0
 30
0.0
  3
*X35
  1
Acad:XRef
  0
LINE
  5
4C0F
  8
画層3-3
  6
CONTINUOUS
 10
8948.441030236543
 20
7640.34066332856
 30
0.0
 11
9198.441030236543
 21
7890.34066332856
 31
0.0
  0
LINE
  5
4C10
  8
画層3-3
  6
CONTINUOUS
 10
8948.441030236543
 20
7719.89017621221
 30
0.0
 11
9198.441030236543
 21
7969.890176212209
 31
0.0
  0
LINE
  5
4C11
  8
画層3-3
  6
CONTINUOUS
 10
8948.441030236543
 20
7799.439689095625
 30
0.0
 11
9198.441030236543
 21
8049.439689095625
 31
0.0
  0
ENDBLK
  5
4D85
  8
ﾊｯﾁﾝｸﾞ
  0
BLOCK
  8
ﾊｯﾁﾝｸﾞ
  2
*X36
 70
     1
 10
0.0
 20
0.0
 30
0.0
  3
*X36
  1
Acad:XRef
  0
LINE
  5
4C2B
  8
画層3-3
  6
CONTINUOUS
 10
14948.44103023654
 20
7640.34066332856
 30
0.0
 11
15198.44103023654
 21
7890.34066332856
 31
0.0
  0
LINE
  5
4C2C
  8
画層3-3
  6
CONTINUOUS
 10
14948.44103023654
 20
7719.89017621221
 30
0.0
 11
15198.44103023654
 21
7969.890176212209
 31
0.0
  0
LINE
  5
4C2D
  8
画層3-3
  6
CONTINUOUS
 10
14948.44103023654
 20
7799.439689095625
 30
0.0
 11
15198.44103023654
 21
8049.439689095625
 31
0.0
  0
ENDBLK
  5
4D87
  8
ﾊｯﾁﾝｸﾞ
  0
BLOCK
  8
ﾊｯﾁﾝｸﾞ
  2
*X37
 70
     1
 10
0.0
 20
0.0
 30
0.0
  3
*X37
  1
Acad:XRef
  0
LINE
  5
4C3B
  8
画層3-3
  6
CONTINUOUS
 10
6948.441030236543
 20
7640.34066332856
 30
0.0
 11
7198.441030236543
 21
7890.34066332856
 31
0.0
  0
LINE
  5
4C3C
  8
画層3-3
  6
CONTINUOUS
 10
6948.441030236543
 20
7719.89017621221
 30
0.0
 11
7198.441030236543
 21
7969.890176212209
 31
0.0
  0
LINE
  5
4C3D
  8
画層3-3
  6
CONTINUOUS
 10
6948.441030236543
 20
7799.439689095625
 30
0.0
 11
7198.441030236543
 21
8049.439689095625
 31
0.0
  0
ENDBLK
  5
4D89
  8
ﾊｯﾁﾝｸﾞ
  0
BLOCK
  8
ﾊｯﾁﾝｸﾞ
  2
*X38
 70
     1
 10
0.0
 20
0.0
 30
0.0
  3
*X38
  1
Acad:XRef
  0
LINE
  5
4C4C
  8
ﾈｯﾄ
  6
CONTINUOUS
 62
   230
 10
14088.11671584906
 20
11938.0
 30
0.0
 11
16024.12338829349
 21
11938.0
 31
0.0
  0
LINE
  5
4C4D
  8
ﾈｯﾄ
  6
CONTINUOUS
 62
   230
 10
14120.62125888064
 20
11811.0
 30
0.0
 11
16024.12338829349
 21
11811.0
 31
0.0
  0
LINE
  5
4C4E
  8
ﾈｯﾄ
  6
CONTINUOUS
 62
   230
 10
14153.12580191221
 20
11684.0
 30
0.0
 11
16024.12338829349
 21
11684.0
 31
0.0
  0
LINE
  5
4C4F
  8
ﾈｯﾄ
  6
CONTINUOUS
 62
   230
 10
14185.63034494378
 20
11557.0
 30
0.0
 11
16024.12338829349
 21
11557.0
 31
0.0
  0
LINE
  5
4C50
  8
ﾈｯﾄ
  6
CONTINUOUS
 62
   230
 10
14218.13488797536
 20
11430.0
 30
0.0
 11
16024.12338829349
 21
11430.0
 31
0.0
  0
LINE
  5
4C51
  8
ﾈｯﾄ
  6
CONTINUOUS
 62
   230
 10
14250.63943100693
 20
11303.0
 30
0.0
 11
16024.12338829349
 21
11303.0
 31
0.0
  0
LINE
  5
4C52
  8
ﾈｯﾄ
  6
CONTINUOUS
 62
   230
 10
14283.1439740385
 20
11176.0
 30
0.0
 11
16024.12338829349
 21
11176.0
 31
0.0
  0
LINE
  5
4C53
  8
ﾈｯﾄ
  6
CONTINUOUS
 62
   230
 10
14315.64851707007
 20
11049.0
 30
0.0
 11
16024.12338829349
 21
11049.0
 31
0.0
  0
LINE
  5
4C54
  8
ﾈｯﾄ
  6
CONTINUOUS
 62
   230
 10
14348.15306010165
 20
10922.0
 30
0.0
 11
16024.12338829349
 21
10922.0
 31
0.0
  0
LINE
  5
4C55
  8
ﾈｯﾄ
  6
CONTINUOUS
 62
   230
 10
14380.65760313322
 20
10795.0
 30
0.0
 11
16024.12338829349
 21
10795.0
 31
0.0
  0
LINE
  5
4C56
  8
ﾈｯﾄ
  6
CONTINUOUS
 62
   230
 10
14413.16214616479
 20
10668.0
 30
0.0
 11
16024.12338829349
 21
10668.0
 31
0.0
  0
LINE
  5
4C57
  8
ﾈｯﾄ
  6
CONTINUOUS
 62
   230
 10
14445.66668919637
 20
10541.0
 30
0.0
 11
16024.12338829349
 21
10541.0
 31
0.0
  0
LINE
  5
4C58
  8
ﾈｯﾄ
  6
CONTINUOUS
 62
   230
 10
14478.17123222794
 20
10414.0
 30
0.0
 11
16024.12338829349
 21
10414.0
 31
0.0
  0
LINE
  5
4C59
  8
ﾈｯﾄ
  6
CONTINUOUS
 62
   230
 10
14510.67577525951
 20
10287.0
 30
0.0
 11
16024.12338829349
 21
10287.0
 31
0.0
  0
LINE
  5
4C5A
  8
ﾈｯﾄ
  6
CONTINUOUS
 62
   230
 10
14543.18031829109
 20
10160.0
 30
0.0
 11
16024.12338829349
 21
10160.0
 31
0.0
  0
LINE
  5
4C5B
  8
ﾈｯﾄ
  6
CONTINUOUS
 62
   230
 10
14097.0
 20
11903.29171057494
 30
0.0
 11
14097.0
 21
12024.66502407382
 31
0.0
  0
LINE
  5
4C5C
  8
ﾈｯﾄ
  6
CONTINUOUS
 62
   230
 10
14224.0
 20
11407.08415016306
 30
0.0
 11
14224.0
 21
12024.66502407382
 31
0.0
  0
LINE
  5
4C5D
  8
ﾈｯﾄ
  6
CONTINUOUS
 62
   230
 10
14351.0
 20
10910.87658975117
 30
0.0
 11
14351.0
 21
12024.66502407382
 31
0.0
  0
LINE
  5
4C5E
  8
ﾈｯﾄ
  6
CONTINUOUS
 62
   230
 10
14478.0
 20
10414.66902933929
 30
0.0
 11
14478.0
 21
12024.66502407382
 31
0.0
  0
LINE
  5
4C5F
  8
ﾈｯﾄ
  6
CONTINUOUS
 62
   230
 10
14605.0
 20
10064.66502407402
 30
0.0
 11
14605.0
 21
12024.66502407382
 31
0.0
  0
LINE
  5
4C60
  8
ﾈｯﾄ
  6
CONTINUOUS
 62
   230
 10
14732.0
 20
10064.66502407403
 30
0.0
 11
14732.0
 21
12024.66502407382
 31
0.0
  0
LINE
  5
4C61
  8
ﾈｯﾄ
  6
CONTINUOUS
 62
   230
 10
14859.0
 20
10064.66502407403
 30
0.0
 11
14859.0
 21
12024.66502407382
 31
0.0
  0
LINE
  5
4C62
  8
ﾈｯﾄ
  6
CONTINUOUS
 62
   230
 10
14986.0
 20
10064.66502407403
 30
0.0
 11
14986.0
 21
12024.66502407382
 31
0.0
  0
LINE
  5
4C63
  8
ﾈｯﾄ
  6
CONTINUOUS
 62
   230
 10
15113.0
 20
10064.66502407403
 30
0.0
 11
15113.0
 21
12024.66502407382
 31
0.0
  0
LINE
  5
4C64
  8
ﾈｯﾄ
  6
CONTINUOUS
 62
   230
 10
15240.0
 20
10064.66502407404
 30
0.0
 11
15240.0
 21
12024.66502407382
 31
0.0
  0
LINE
  5
4C65
  8
ﾈｯﾄ
  6
CONTINUOUS
 62
   230
 10
15367.0
 20
10064.66502407404
 30
0.0
 11
15367.0
 21
12024.66502407382
 31
0.0
  0
LINE
  5
4C66
  8
ﾈｯﾄ
  6
CONTINUOUS
 62
   230
 10
15494.0
 20
10064.66502407404
 30
0.0
 11
15494.0
 21
12024.66502407382
 31
0.0
  0
LINE
  5
4C67
  8
ﾈｯﾄ
  6
CONTINUOUS
 62
   230
 10
15621.0
 20
10064.66502407404
 30
0.0
 11
15621.0
 21
12024.66502407382
 31
0.0
  0
LINE
  5
4C68
  8
ﾈｯﾄ
  6
CONTINUOUS
 62
   230
 10
15748.0
 20
10064.66502407405
 30
0.0
 11
15748.0
 21
12024.66502407382
 31
0.0
  0
LINE
  5
4C69
  8
ﾈｯﾄ
  6
CONTINUOUS
 62
   230
 10
15875.0
 20
10064.66502407405
 30
0.0
 11
15875.0
 21
12024.66502407382
 31
0.0
  0
LINE
  5
4C6A
  8
ﾈｯﾄ
  6
CONTINUOUS
 62
   230
 10
16002.0
 20
10064.66502407405
 30
0.0
 11
16002.0
 21
12024.66502407382
 31
0.0
  0
ENDBLK
  5
4D8B
  8
ﾊｯﾁﾝｸﾞ
  0
BLOCK
  8
ﾊｯﾁﾝｸﾞ
  2
*X39
 70
     1
 10
0.0
 20
0.0
 30
0.0
  3
*X39
  1
Acad:XRef
  0
LINE
  5
4C70
  8
ﾊｯﾁﾝｸﾞ
  6
CONTINUOUS
 10
18879.12338863489
 20
7384.395553666372
 30
0.0
 11
19104.12338863488
 21
7609.395553666368
 31
0.0
  0
LINE
  5
4C71
  8
ﾊｯﾁﾝｸﾞ
  6
CONTINUOUS
 10
19104.12338863489
 20
7609.395553666372
 30
0.0
 11
19354.12338863489
 21
7859.395553666372
 31
0.0
  0
LINE
  5
4C72
  8
ﾊｯﾁﾝｸﾞ
  6
CONTINUOUS
 10
19277.81334872787
 20
7064.665024073821
 30
0.0
 11
19329.12338863489
 21
7115.975063980839
 31
0.0
  0
LINE
  5
4C73
  8
ﾊｯﾁﾝｸﾞ
  6
CONTINUOUS
 10
18879.12338863489
 20
7474.198114877066
 30
0.0
 11
19104.12338863488
 21
7699.198114877062
 31
0.0
  0
LINE
  5
4C74
  8
ﾊｯﾁﾝｸﾞ
  6
CONTINUOUS
 10
19104.12338863489
 20
7699.198114877066
 30
0.0
 11
19354.12338863489
 21
7949.198114877066
 31
0.0
  0
LINE
  5
4C75
  8
ﾊｯﾁﾝｸﾞ
  6
CONTINUOUS
 10
19188.01078751717
 20
7064.66502407382
 30
0.0
 11
19329.12338863489
 21
7205.777625191534
 31
0.0
  0
LINE
  5
4C76
  8
ﾊｯﾁﾝｸﾞ
  6
CONTINUOUS
 10
18879.12338863489
 20
7564.000676087755
 30
0.0
 11
19104.12338863488
 21
7789.000676087751
 31
0.0
  0
LINE
  5
4C77
  8
ﾊｯﾁﾝｸﾞ
  6
CONTINUOUS
 10
19104.12338863489
 20
7789.000676087755
 30
0.0
 11
19354.12338863489
 21
8039.000676087755
 31
0.0
  0
LINE
  5
4C78
  8
ﾊｯﾁﾝｸﾞ
  6
CONTINUOUS
 10
19098.20822630648
 20
7064.665024073821
 30
0.0
 11
19104.12338863488
 21
7070.580186402219
 31
0.0
  0
LINE
  5
4C79
  8
ﾊｯﾁﾝｸﾞ
  6
CONTINUOUS
 10
19104.12338863489
 20
7070.580186402222
 30
0.0
 11
19329.12338863489
 21
7295.580186402222
 31
0.0
  0
ENDBLK
  5
4D8D
  8
ﾊｯﾁﾝｸﾞ
  0
BLOCK
  8
ﾊｯﾁﾝｸﾞ
  2
*X40
 70
     1
 10
0.0
 20
0.0
 30
0.0
  3
*X40
  1
Acad:XRef
  0
LINE
  5
4C7B
  8
ﾊｯﾁﾝｸﾞ
  6
CONTINUOUS
 10
10823.44103023654
 20
7794.497602437819
 30
0.0
 11
11048.04103023663
 21
8019.097602437911
 31
0.0
  0
LINE
  5
4C7C
  8
ﾊｯﾁﾝｸﾞ
  6
CONTINUOUS
 10
10848.44103023654
 20
7101.077112752287
 30
0.0
 11
11073.44103023654
 21
7326.077112752288
 31
0.0
  0
LINE
  5
4C7D
  8
ﾊｯﾁﾝｸﾞ
  6
CONTINUOUS
 10
11073.44103023654
 20
7326.077112752288
 30
0.0
 11
11298.44103023654
 21
7551.077112752287
 31
0.0
  0
LINE
  5
4C7E
  8
ﾊｯﾁﾝｸﾞ
  6
CONTINUOUS
 10
10823.44103023654
 20
7884.300163648511
 30
0.0
 11
11003.80589066185
 21
8064.66502407382
 31
0.0
  0
LINE
  5
4C7F
  8
ﾊｯﾁﾝｸﾞ
  6
CONTINUOUS
 10
10848.44103023654
 20
7190.879673962979
 30
0.0
 11
11073.44103023654
 21
7415.87967396298
 31
0.0
  0
LINE
  5
4C80
  8
ﾊｯﾁﾝｸﾞ
  6
CONTINUOUS
 10
11073.44103023654
 20
7415.879673962979
 30
0.0
 11
11298.44103023654
 21
7640.879673962979
 31
0.0
  0
LINE
  5
4C81
  8
ﾊｯﾁﾝｸﾞ
  6
CONTINUOUS
 10
10823.44103023654
 20
7974.102724859203
 30
0.0
 11
10914.00332945116
 21
8064.665024073819
 31
0.0
  0
LINE
  5
4C82
  8
ﾊｯﾁﾝｸﾞ
  6
CONTINUOUS
 10
10848.44103023654
 20
7280.682235173671
 30
0.0
 11
11073.44103023654
 21
7505.682235173671
 31
0.0
  0
LINE
  5
4C83
  8
ﾊｯﾁﾝｸﾞ
  6
CONTINUOUS
 10
11073.44103023654
 20
7505.682235173671
 30
0.0
 11
11298.44103023654
 21
7730.68223517367
 31
0.0
  0
ENDBLK
  5
4D8F
  8
ﾊｯﾁﾝｸﾞ
  0
BLOCK
  8
ﾊｯﾁﾝｸﾞ
  2
*X41
 70
     1
 10
0.0
 20
0.0
 30
0.0
  3
*X41
  1
Acad:XRef
  0
LINE
  5
4C85
  8
ﾊｯﾁﾝｸﾞ
  6
CONTINUOUS
 10
4848.441030236543
 20
7722.122988978674
 30
0.0
 11
5048.041030236636
 21
7921.722988978767
 31
0.0
  0
LINE
  5
4C86
  8
ﾊｯﾁﾝｸﾞ
  6
CONTINUOUS
 10
5098.841030236449
 20
7972.52298897858
 30
0.0
 11
5190.983065331689
 21
8064.665024073819
 31
0.0
  0
LINE
  5
4C87
  8
ﾊｯﾁﾝｸﾞ
  6
CONTINUOUS
 10
4909.403555017222
 20
7064.66502407382
 30
0.0
 11
5073.441030236542
 21
7228.70249929314
 31
0.0
  0
LINE
  5
4C88
  8
ﾊｯﾁﾝｸﾞ
  6
CONTINUOUS
 10
5073.441030236542
 20
7228.702499293141
 30
0.0
 11
5298.441030236543
 21
7453.702499293141
 31
0.0
  0
LINE
  5
4C89
  8
ﾊｯﾁﾝｸﾞ
  6
CONTINUOUS
 10
4823.441030236544
 20
7786.925550189366
 30
0.0
 11
5048.041030236636
 21
8011.525550189458
 31
0.0
  0
LINE
  5
4C8A
  8
ﾊｯﾁﾝｸﾞ
  6
CONTINUOUS
 10
5098.84103023645
 20
8062.325550189272
 30
0.0
 11
5101.180504120997
 21
8064.665024073819
 31
0.0
  0
LINE
  5
4C8B
  8
ﾊｯﾁﾝｸﾞ
  6
CONTINUOUS
 10
4848.441030236543
 20
7093.505060503833
 30
0.0
 11
5073.441030236542
 21
7318.505060503832
 31
0.0
  0
LINE
  5
4C8C
  8
ﾊｯﾁﾝｸﾞ
  6
CONTINUOUS
 10
5073.441030236543
 20
7318.505060503832
 30
0.0
 11
5298.441030236543
 21
7543.505060503833
 31
0.0
  0
LINE
  5
4C8D
  8
ﾊｯﾁﾝｸﾞ
  6
CONTINUOUS
 10
4823.441030236544
 20
7876.728111400055
 30
0.0
 11
5011.37794291031
 21
8064.665024073821
 31
0.0
  0
LINE
  5
4C8E
  8
ﾊｯﾁﾝｸﾞ
  6
CONTINUOUS
 10
4848.441030236543
 20
7183.307621714523
 30
0.0
 11
5073.441030236542
 21
7408.307621714522
 31
0.0
  0
LINE
  5
4C8F
  8
ﾊｯﾁﾝｸﾞ
  6
CONTINUOUS
 10
5073.441030236543
 20
7408.307621714523
 30
0.0
 11
5298.441030236543
 21
7633.307621714523
 31
0.0
  0
ENDBLK
  5
4D91
  8
ﾊｯﾁﾝｸﾞ
  0
BLOCK
  8
ﾊｯﾁﾝｸﾞ
  2
*X42
 70
     1
 10
0.0
 20
0.0
 30
0.0
  3
*X42
  1
Acad:XRef
  0
LINE
  5
4C91
  8
画層3-3
  6
CONTINUOUS
 10
12948.44103023654
 20
7640.34066332856
 30
0.0
 11
13198.44103023654
 21
7890.34066332856
 31
0.0
  0
LINE
  5
4C92
  8
画層3-3
  6
CONTINUOUS
 10
12948.44103023654
 20
7719.89017621221
 30
0.0
 11
13198.44103023654
 21
7969.890176212209
 31
0.0
  0
LINE
  5
4C93
  8
画層3-3
  6
CONTINUOUS
 10
12948.44103023654
 20
7799.439689095625
 30
0.0
 11
13198.44103023654
 21
8049.439689095625
 31
0.0
  0
ENDBLK
  5
4D93
  8
ﾊｯﾁﾝｸﾞ
  0
BLOCK
  8
ﾊｯﾁﾝｸﾞ
  2
*X43
 70
     1
 10
0.0
 20
0.0
 30
0.0
  3
*X43
  1
Acad:XRef
  0
LINE
  5
4C99
  8
ﾈｯﾄ
  6
CONTINUOUS
 10
5098.84103023645
 20
9948.179335613793
 30
0.0
 11
5152.226718696615
 21
10001.56502407396
 31
0.0
  0
LINE
  5
4C9A
  8
ﾈｯﾄ
  6
CONTINUOUS
 10
5098.84103023645
 20
9768.57421319241
 30
0.0
 11
5331.831841117975
 21
10001.56502407394
 31
0.0
  0
LINE
  5
4C9B
  8
ﾈｯﾄ
  6
CONTINUOUS
 10
5098.84103023645
 20
9588.969090771028
 30
0.0
 11
5511.436963539337
 21
10001.56502407391
 31
0.0
  0
LINE
  5
4C9C
  8
ﾈｯﾄ
  6
CONTINUOUS
 10
5109.142085960625
 20
9419.66502407382
 30
0.0
 11
5691.042085960697
 21
10001.56502407389
 31
0.0
  0
LINE
  5
4C9D
  8
ﾈｯﾄ
  6
CONTINUOUS
 10
5098.841030236451
 20
9229.758845928263
 30
0.0
 11
5870.647208382058
 21
10001.56502407387
 31
0.0
  0
LINE
  5
4C9E
  8
ﾈｯﾄ
  6
CONTINUOUS
 10
5098.84103023645
 20
9050.153723506879
 30
0.0
 11
6050.252330803419
 21
10001.56502407385
 31
0.0
  0
LINE
  5
4C9F
  8
ﾈｯﾄ
  6
CONTINUOUS
 10
5098.84103023645
 20
8870.548601085495
 30
0.0
 11
6229.85745322478
 21
10001.56502407383
 31
0.0
  0
LINE
  5
4CA0
  8
ﾈｯﾄ
  6
CONTINUOUS
 10
5098.84103023645
 20
8690.943478664112
 30
0.0
 11
5137.562575646158
 21
8729.66502407382
 31
0.0
  0
LINE
  5
4CA1
  8
ﾈｯﾄ
  6
CONTINUOUS
 10
5153.791030236636
 20
8745.893478664299
 30
0.0
 11
6409.462575646141
 21
10001.5650240738
 31
0.0
  0
LINE
  5
4CA2
  8
ﾈｯﾄ
  6
CONTINUOUS
 10
5098.84103023645
 20
8511.33835624273
 30
0.0
 11
6589.067698067502
 21
10001.56502407378
 31
0.0
  0
LINE
  5
4CA3
  8
ﾈｯﾄ
  6
CONTINUOUS
 10
5098.84103023645
 20
8331.733233821345
 30
0.0
 11
6768.672820488862
 21
10001.56502407376
 31
0.0
  0
LINE
  5
4CA4
  8
ﾈｯﾄ
  6
CONTINUOUS
 10
5098.84103023645
 20
8152.128111399963
 30
0.0
 11
6948.277942910223
 21
10001.56502407374
 31
0.0
  0
LINE
  5
4CA5
  8
ﾈｯﾄ
  6
CONTINUOUS
 10
5249.083065331782
 20
8122.765024073912
 30
0.0
 11
7048.041030236635
 21
9921.722988978765
 31
0.0
  0
LINE
  5
4CA6
  8
ﾈｯﾄ
  6
CONTINUOUS
 10
5428.688187753165
 20
8122.765024073912
 30
0.0
 11
7048.041030236635
 21
9742.117866557383
 31
0.0
  0
LINE
  5
4CA7
  8
ﾈｯﾄ
  6
CONTINUOUS
 10
5608.293310174548
 20
8122.765024073912
 30
0.0
 11
7048.041030236636
 21
9562.512744136
 31
0.0
  0
LINE
  5
4CA8
  8
ﾈｯﾄ
  6
CONTINUOUS
 10
5787.898432595932
 20
8122.765024073912
 30
0.0
 11
7048.041030236636
 21
9382.907621714618
 31
0.0
  0
LINE
  5
4CA9
  8
ﾈｯﾄ
  6
CONTINUOUS
 10
5967.503555017314
 20
8122.765024073913
 30
0.0
 11
7048.041030236636
 21
9203.302499293233
 31
0.0
  0
LINE
  5
4CAA
  8
ﾈｯﾄ
  6
CONTINUOUS
 10
6147.108677438698
 20
8122.765024073913
 30
0.0
 11
7048.041030236636
 21
9023.69737687185
 31
0.0
  0
LINE
  5
4CAB
  8
ﾈｯﾄ
  6
CONTINUOUS
 10
6326.713799860081
 20
8122.765024073913
 30
0.0
 11
7048.041030236636
 21
8844.092254450468
 31
0.0
  0
LINE
  5
4CAC
  8
ﾈｯﾄ
  6
CONTINUOUS
 10
6506.318922281464
 20
8122.765024073913
 30
0.0
 11
7048.041030236636
 21
8664.487132029086
 31
0.0
  0
LINE
  5
4CAD
  8
ﾈｯﾄ
  6
CONTINUOUS
 10
6685.924044702847
 20
8122.765024073913
 30
0.0
 11
7048.041030236636
 21
8484.882009607702
 31
0.0
  0
LINE
  5
4CAE
  8
ﾈｯﾄ
  6
CONTINUOUS
 10
6865.52916712423
 20
8122.765024073913
 30
0.0
 11
7048.041030236636
 21
8305.276887186319
 31
0.0
  0
LINE
  5
4CAF
  8
ﾈｯﾄ
  6
CONTINUOUS
 10
7045.134289545613
 20
8122.765024073913
 30
0.0
 11
7048.041030236636
 21
8125.671764764936
 31
0.0
  0
LINE
  5
4CB0
  8
ﾈｯﾄ
  6
CONTINUOUS
 10
5168.014035108435
 20
8122.765024073912
 30
0.0
 11
5098.84103023645
 21
8191.938028945897
 31
0.0
  0
LINE
  5
4CB1
  8
ﾈｯﾄ
  6
CONTINUOUS
 10
5347.619157529817
 20
8122.765024073912
 30
0.0
 11
5098.84103023645
 21
8371.54315136728
 31
0.0
  0
LINE
  5
4CB2
  8
ﾈｯﾄ
  6
CONTINUOUS
 10
5527.224279951201
 20
8122.765024073912
 30
0.0
 11
5098.84103023645
 21
8551.148273788664
 31
0.0
  0
LINE
  5
4CB3
  8
ﾈｯﾄ
  6
CONTINUOUS
 10
5706.829402372583
 20
8122.765024073912
 30
0.0
 11
5099.929402372676
 21
8729.66502407382
 31
0.0
  0
LINE
  5
4CB4
  8
ﾈｯﾄ
  6
CONTINUOUS
 10
5886.434524793966
 20
8122.765024073912
 30
0.0
 11
5098.84103023645
 21
8910.358518631429
 31
0.0
  0
LINE
  5
4CB5
  8
ﾈｯﾄ
  6
CONTINUOUS
 10
6066.03964721535
 20
8122.765024073912
 30
0.0
 11
5098.841030236451
 21
9089.963641052811
 31
0.0
  0
LINE
  5
4CB6
  8
ﾈｯﾄ
  6
CONTINUOUS
 10
6245.644769636732
 20
8122.765024073913
 30
0.0
 11
5098.841030236451
 21
9269.568763474195
 31
0.0
  0
LINE
  5
4CB7
  8
ﾈｯﾄ
  6
CONTINUOUS
 10
6425.249892058115
 20
8122.765024073913
 30
0.0
 11
5153.791030236637
 21
9394.223885895392
 31
0.0
  0
LINE
  5
4CB8
  8
ﾈｯﾄ
  6
CONTINUOUS
 10
5128.349892058209
 20
9419.66502407382
 30
0.0
 11
5098.84103023645
 21
9449.173885895578
 31
0.0
  0
LINE
  5
4CB9
  8
ﾈｯﾄ
  6
CONTINUOUS
 10
6604.855014479498
 20
8122.765024073913
 30
0.0
 11
5098.84103023645
 21
9628.779008316962
 31
0.0
  0
LINE
  5
4CBA
  8
ﾈｯﾄ
  6
CONTINUOUS
 10
6784.460136900881
 20
8122.765024073913
 30
0.0
 11
5098.84103023645
 21
9808.384130738345
 31
0.0
  0
LINE
  5
4CBB
  8
ﾈｯﾄ
  6
CONTINUOUS
 10
6964.065259322264
 20
8122.765024073913
 30
0.0
 11
5100.265259322217
 21
9986.56502407396
 31
0.0
  0
LINE
  5
4CBC
  8
ﾈｯﾄ
  6
CONTINUOUS
 10
7048.041030236636
 20
8218.394375580925
 30
0.0
 11
5264.870381743617
 21
10001.56502407394
 31
0.0
  0
LINE
  5
4CBD
  8
ﾈｯﾄ
  6
CONTINUOUS
 10
7048.041030236636
 20
8397.999498002308
 30
0.0
 11
5444.475504165022
 21
10001.56502407392
 31
0.0
  0
LINE
  5
4CBE
  8
ﾈｯﾄ
  6
CONTINUOUS
 10
7048.041030236636
 20
8577.60462042369
 30
0.0
 11
5624.080626586428
 21
10001.5650240739
 31
0.0
  0
LINE
  5
4CBF
  8
ﾈｯﾄ
  6
CONTINUOUS
 10
7045.58574900789
 20
8759.66502407382
 30
0.0
 11
5803.685749007833
 21
10001.56502407388
 31
0.0
  0
LINE
  5
4CC0
  8
ﾈｯﾄ
  6
CONTINUOUS
 10
7048.041030236636
 20
8936.814865266457
 30
0.0
 11
5983.290871429238
 21
10001.56502407385
 31
0.0
  0
LINE
  5
4CC1
  8
ﾈｯﾄ
  6
CONTINUOUS
 10
7048.041030236636
 20
9116.41998768784
 30
0.0
 11
6162.895993850643
 21
10001.56502407383
 31
0.0
  0
LINE
  5
4CC2
  8
ﾈｯﾄ
  6
CONTINUOUS
 10
7048.041030236636
 20
9296.025110109222
 30
0.0
 11
6342.501116272048
 21
10001.56502407381
 31
0.0
  0
LINE
  5
4CC3
  8
ﾈｯﾄ
  6
CONTINUOUS
 10
7048.041030236636
 20
9475.630232530606
 30
0.0
 11
6522.106238693454
 21
10001.56502407379
 31
0.0
  0
LINE
  5
4CC4
  8
ﾈｯﾄ
  6
CONTINUOUS
 10
7048.041030236636
 20
9655.235354951988
 30
0.0
 11
6701.711361114859
 21
10001.56502407377
 31
0.0
  0
LINE
  5
4CC5
  8
ﾈｯﾄ
  6
CONTINUOUS
 10
7048.041030236635
 20
9834.840477373373
 30
0.0
 11
6881.316483536264
 21
10001.56502407374
 31
0.0
  0
ENDBLK
  5
4D95
  8
ﾊｯﾁﾝｸﾞ
  0
BLOCK
  8
ﾊｯﾁﾝｸﾞ
  2
*X44
 70
     1
 10
0.0
 20
0.0
 30
0.0
  3
*X44
  1
Acad:XRef
  0
LINE
  5
4CC7
  8
ﾈｯﾄ
  6
CONTINUOUS
 10
9098.84103023645
 20
9817.261519921984
 30
0.0
 11
9283.144534388193
 21
10001.56502407373
 31
0.0
  0
LINE
  5
4CC8
  8
ﾈｯﾄ
  6
CONTINUOUS
 10
9098.84103023645
 20
9637.656397500601
 30
0.0
 11
9462.749656809576
 21
10001.56502407373
 31
0.0
  0
LINE
  5
4CC9
  8
ﾈｯﾄ
  6
CONTINUOUS
 10
9098.84103023645
 20
9458.051275079217
 30
0.0
 11
9642.354779230958
 21
10001.56502407373
 31
0.0
  0
LINE
  5
4CCA
  8
ﾈｯﾄ
  6
CONTINUOUS
 10
9098.84103023645
 20
9278.446152657834
 30
0.0
 11
9821.959901652343
 21
10001.56502407373
 31
0.0
  0
LINE
  5
4CCB
  8
ﾈｯﾄ
  6
CONTINUOUS
 10
9098.84103023645
 20
9098.841030236452
 30
0.0
 11
10001.56502407372
 21
10001.56502407373
 31
0.0
  0
LINE
  5
4CCC
  8
ﾈｯﾄ
  6
CONTINUOUS
 10
9098.84103023645
 20
8919.23590781507
 30
0.0
 11
10181.17014649511
 21
10001.56502407373
 31
0.0
  0
LINE
  5
4CCD
  8
ﾈｯﾄ
  6
CONTINUOUS
 10
9118.875268916585
 20
8759.66502407382
 30
0.0
 11
10360.77526891649
 21
10001.56502407373
 31
0.0
  0
LINE
  5
4CCE
  8
ﾈｯﾄ
  6
CONTINUOUS
 10
9098.84103023645
 20
8560.025662972303
 30
0.0
 11
10540.38039133787
 21
10001.56502407373
 31
0.0
  0
LINE
  5
4CCF
  8
ﾈｯﾄ
  6
CONTINUOUS
 10
9098.84103023645
 20
8380.42054055092
 30
0.0
 11
10719.98551375926
 21
10001.56502407373
 31
0.0
  0
LINE
  5
4CD0
  8
ﾈｯﾄ
  6
CONTINUOUS
 10
9098.84103023645
 20
8200.815418129536
 30
0.0
 11
10899.59063618064
 21
10001.56502407373
 31
0.0
  0
LINE
  5
4CD1
  8
ﾈｯﾄ
  6
CONTINUOUS
 10
9200.39575860221
 20
8122.765024073912
 30
0.0
 11
11048.04103023664
 21
9970.41029570834
 31
0.0
  0
LINE
  5
4CD2
  8
ﾈｯﾄ
  6
CONTINUOUS
 10
9380.000881023592
 20
8122.765024073912
 30
0.0
 11
11048.04103023664
 21
9790.805173286957
 31
0.0
  0
LINE
  5
4CD3
  8
ﾈｯﾄ
  6
CONTINUOUS
 10
9559.606003444975
 20
8122.765024073912
 30
0.0
 11
11048.04103023664
 21
9611.200050865573
 31
0.0
  0
LINE
  5
4CD4
  8
ﾈｯﾄ
  6
CONTINUOUS
 10
9739.211125866357
 20
8122.765024073912
 30
0.0
 11
11006.11112586627
 21
9389.66502407382
 31
0.0
  0
LINE
  5
4CD5
  8
ﾈｯﾄ
  6
CONTINUOUS
 10
11036.11112586627
 20
9419.66502407382
 30
0.0
 11
11048.04103023664
 21
9431.59492844419
 31
0.0
  0
LINE
  5
4CD6
  8
ﾈｯﾄ
  6
CONTINUOUS
 10
9918.816248287741
 20
8122.765024073912
 30
0.0
 11
11048.04103023664
 21
9251.989806022808
 31
0.0
  0
LINE
  5
4CD7
  8
ﾈｯﾄ
  6
CONTINUOUS
 10
10098.42137070912
 20
8122.765024073912
 30
0.0
 11
11048.04103023664
 21
9072.384683601424
 31
0.0
  0
LINE
  5
4CD8
  8
ﾈｯﾄ
  6
CONTINUOUS
 10
10278.02649313051
 20
8122.765024073912
 30
0.0
 11
11048.04103023664
 21
8892.779561180041
 31
0.0
  0
LINE
  5
4CD9
  8
ﾈｯﾄ
  6
CONTINUOUS
 10
10457.63161555189
 20
8122.765024073912
 30
0.0
 11
11048.04103023664
 21
8713.174438758659
 31
0.0
  0
LINE
  5
4CDA
  8
ﾈｯﾄ
  6
CONTINUOUS
 10
10637.23673797327
 20
8122.765024073912
 30
0.0
 11
11048.04103023664
 21
8533.569316337274
 31
0.0
  0
LINE
  5
4CDB
  8
ﾈｯﾄ
  6
CONTINUOUS
 10
10816.84186039466
 20
8122.765024073912
 30
0.0
 11
11048.04103023664
 21
8353.964193915892
 31
0.0
  0
LINE
  5
4CDC
  8
ﾈｯﾄ
  6
CONTINUOUS
 10
10996.44698281604
 20
8122.765024073912
 30
0.0
 11
11048.04103023664
 21
8174.359071494508
 31
0.0
  0
LINE
  5
4CDD
  8
ﾈｯﾄ
  6
CONTINUOUS
 10
9119.326728378863
 20
8122.765024073912
 30
0.0
 11
9098.84103023645
 21
8143.250722216325
 31
0.0
  0
LINE
  5
4CDE
  8
ﾈｯﾄ
  6
CONTINUOUS
 10
9298.931850800247
 20
8122.765024073912
 30
0.0
 11
9098.84103023645
 21
8322.855844637708
 31
0.0
  0
LINE
  5
4CDF
  8
ﾈｯﾄ
  6
CONTINUOUS
 10
9478.53697322163
 20
8122.765024073912
 30
0.0
 11
9098.84103023645
 21
8502.46096705909
 31
0.0
  0
LINE
  5
4CE0
  8
ﾈｯﾄ
  6
CONTINUOUS
 10
9658.142095643012
 20
8122.765024073912
 30
0.0
 11
9098.84103023645
 21
8682.066089480475
 31
0.0
  0
LINE
  5
4CE1
  8
ﾈｯﾄ
  6
CONTINUOUS
 10
9837.747218064396
 20
8122.765024073912
 30
0.0
 11
9098.84103023645
 21
8861.671211901858
 31
0.0
  0
LINE
  5
4CE2
  8
ﾈｯﾄ
  6
CONTINUOUS
 10
10017.35234048578
 20
8122.765024073912
 30
0.0
 11
9098.84103023645
 21
9041.27633432324
 31
0.0
  0
LINE
  5
4CE3
  8
ﾈｯﾄ
  6
CONTINUOUS
 10
10196.95746290716
 20
8122.765024073912
 30
0.0
 11
9098.84103023645
 21
9220.881456744624
 31
0.0
  0
LINE
  5
4CE4
  8
ﾈｯﾄ
  6
CONTINUOUS
 10
10376.56258532855
 20
8122.765024073912
 30
0.0
 11
9109.662585328637
 21
9389.66502407382
 31
0.0
  0
LINE
  5
4CE5
  8
ﾈｯﾄ
  6
CONTINUOUS
 10
10556.16770774993
 20
8122.765024073912
 30
0.0
 11
9098.84103023645
 21
9580.09170158739
 31
0.0
  0
LINE
  5
4CE6
  8
ﾈｯﾄ
  6
CONTINUOUS
 10
10735.77283017131
 20
8122.765024073912
 30
0.0
 11
9098.84103023645
 21
9759.696824008774
 31
0.0
  0
LINE
  5
4CE7
  8
ﾈｯﾄ
  6
CONTINUOUS
 10
10915.37795259269
 20
8122.765024073912
 30
0.0
 11
9098.84103023645
 21
9939.301946430156
 31
0.0
  0
LINE
  5
4CE8
  8
ﾈｯﾄ
  6
CONTINUOUS
 10
11048.04103023664
 20
8169.707068851353
 30
0.0
 11
9216.183075014264
 21
10001.56502407372
 31
0.0
  0
LINE
  5
4CE9
  8
ﾈｯﾄ
  6
CONTINUOUS
 10
11048.04103023664
 20
8349.312191272737
 30
0.0
 11
9395.788197435648
 21
10001.56502407372
 31
0.0
  0
LINE
  5
4CEA
  8
ﾈｯﾄ
  6
CONTINUOUS
 10
11048.04103023664
 20
8528.917313694119
 30
0.0
 11
9575.39331985703
 21
10001.56502407372
 31
0.0
  0
LINE
  5
4CEB
  8
ﾈｯﾄ
  6
CONTINUOUS
 10
11048.04103023664
 20
8708.522436115501
 30
0.0
 11
11026.89844227832
 21
8729.66502407382
 31
0.0
  0
LINE
  5
4CEC
  8
ﾈｯﾄ
  6
CONTINUOUS
 10
10996.89844227832
 20
8759.66502407382
 30
0.0
 11
9754.998442278413
 21
10001.56502407372
 31
0.0
  0
LINE
  5
4CED
  8
ﾈｯﾄ
  6
CONTINUOUS
 10
11048.04103023664
 20
8888.127558536886
 30
0.0
 11
9934.603564699795
 21
10001.56502407372
 31
0.0
  0
LINE
  5
4CEE
  8
ﾈｯﾄ
  6
CONTINUOUS
 10
11048.04103023664
 20
9067.732680958268
 30
0.0
 11
10114.20868712118
 21
10001.56502407372
 31
0.0
  0
LINE
  5
4CEF
  8
ﾈｯﾄ
  6
CONTINUOUS
 10
11048.04103023664
 20
9247.33780337965
 30
0.0
 11
10293.81380954256
 21
10001.56502407373
 31
0.0
  0
LINE
  5
4CF0
  8
ﾈｯﾄ
  6
CONTINUOUS
 10
11048.04103023664
 20
9426.942925801035
 30
0.0
 11
10473.41893196394
 21
10001.56502407373
 31
0.0
  0
LINE
  5
4CF1
  8
ﾈｯﾄ
  6
CONTINUOUS
 10
11048.04103023664
 20
9606.548048222417
 30
0.0
 11
10653.02405438533
 21
10001.56502407373
 31
0.0
  0
LINE
  5
4CF2
  8
ﾈｯﾄ
  6
CONTINUOUS
 10
11048.04103023664
 20
9786.1531706438
 30
0.0
 11
10832.62917680671
 21
10001.56502407373
 31
0.0
  0
LINE
  5
4CF3
  8
ﾈｯﾄ
  6
CONTINUOUS
 10
11048.04103023664
 20
9965.758293065184
 30
0.0
 11
11012.23429922809
 21
10001.56502407373
 31
0.0
  0
ENDBLK
  5
4D97
  8
ﾊｯﾁﾝｸﾞ
  0
BLOCK
  8
ﾊｯﾁﾝｸﾞ
  2
*X45
 70
     1
 10
0.0
 20
0.0
 30
0.0
  3
*X45
  1
Acad:XRef
  0
LINE
  5
4CF5
  8
ﾈｯﾄ
  6
CONTINUOUS
 10
11098.84103023645
 20
9841.60517328677
 30
0.0
 11
11258.80088102341
 21
10001.56502407373
 31
0.0
  0
LINE
  5
4CF6
  8
ﾈｯﾄ
  6
CONTINUOUS
 10
11098.84103023645
 20
9662.000050865387
 30
0.0
 11
11438.40600344479
 21
10001.56502407373
 31
0.0
  0
LINE
  5
4CF7
  8
ﾈｯﾄ
  6
CONTINUOUS
 10
11098.84103023645
 20
9482.394928444004
 30
0.0
 11
11618.01112586617
 21
10001.56502407373
 31
0.0
  0
LINE
  5
4CF8
  8
ﾈｯﾄ
  6
CONTINUOUS
 10
11098.84103023645
 20
9302.789806022622
 30
0.0
 11
11797.61624828756
 21
10001.56502407373
 31
0.0
  0
LINE
  5
4CF9
  8
ﾈｯﾄ
  6
CONTINUOUS
 10
11098.84103023645
 20
9123.184683601237
 30
0.0
 11
11977.22137070894
 21
10001.56502407373
 31
0.0
  0
LINE
  5
4CFA
  8
ﾈｯﾄ
  6
CONTINUOUS
 10
11098.84103023645
 20
8943.579561179855
 30
0.0
 11
12156.82649313032
 21
10001.56502407373
 31
0.0
  0
LINE
  5
4CFB
  8
ﾈｯﾄ
  6
CONTINUOUS
 10
11098.84103023645
 20
8763.974438758472
 30
0.0
 11
12336.43161555171
 21
10001.56502407373
 31
0.0
  0
LINE
  5
4CFC
  8
ﾈｯﾄ
  6
CONTINUOUS
 10
11098.84103023645
 20
8584.36931633709
 30
0.0
 11
12516.03673797309
 21
10001.56502407373
 31
0.0
  0
LINE
  5
4CFD
  8
ﾈｯﾄ
  6
CONTINUOUS
 10
11098.84103023645
 20
8404.764193915706
 30
0.0
 11
12695.64186039447
 21
10001.56502407373
 31
0.0
  0
LINE
  5
4CFE
  8
ﾈｯﾄ
  6
CONTINUOUS
 10
11098.84103023645
 20
8225.159071494321
 30
0.0
 11
12875.24698281586
 21
10001.56502407373
 31
0.0
  0
LINE
  5
4CFF
  8
ﾈｯﾄ
  6
CONTINUOUS
 10
11176.05210523742
 20
8122.765024073912
 30
0.0
 11
13039.85210523747
 21
9986.565024073961
 31
0.0
  0
LINE
  5
4D00
  8
ﾈｯﾄ
  6
CONTINUOUS
 10
11355.6572276588
 20
8122.765024073912
 30
0.0
 11
13048.04103023664
 21
9815.148826651743
 31
0.0
  0
LINE
  5
4D01
  8
ﾈｯﾄ
  6
CONTINUOUS
 10
11535.26235008019
 20
8122.765024073912
 30
0.0
 11
13048.04103023664
 21
9635.54370423036
 31
0.0
  0
LINE
  5
4D02
  8
ﾈｯﾄ
  6
CONTINUOUS
 10
13098.84103023645
 20
9865.948826651556
 30
0.0
 11
13234.45722765862
 21
10001.56502407373
 31
0.0
  0
LINE
  5
4D03
  8
ﾈｯﾄ
  6
CONTINUOUS
 10
13098.84103023645
 20
9686.343704230174
 30
0.0
 11
13414.06235008
 21
10001.56502407373
 31
0.0
  0
LINE
  5
4D04
  8
ﾈｯﾄ
  6
CONTINUOUS
 10
11714.86747250157
 20
8122.765024073912
 30
0.0
 11
12993.09103023645
 21
9400.98858180879
 31
0.0
  0
LINE
  5
4D05
  8
ﾈｯﾄ
  6
CONTINUOUS
 10
13011.76747250148
 20
9419.66502407382
 30
0.0
 11
13048.04103023664
 21
9455.938581808978
 31
0.0
  0
LINE
  5
4D06
  8
ﾈｯﾄ
  6
CONTINUOUS
 10
13098.84103023645
 20
9506.73858180879
 30
0.0
 11
13593.66747250139
 21
10001.56502407373
 31
0.0
  0
LINE
  5
4D07
  8
ﾈｯﾄ
  6
CONTINUOUS
 10
11894.47259492295
 20
8122.765024073912
 30
0.0
 11
13048.04103023664
 21
9276.333459387593
 31
0.0
  0
LINE
  5
4D08
  8
ﾈｯﾄ
  6
CONTINUOUS
 10
12074.07771734434
 20
8122.765024073912
 30
0.0
 11
13048.04103023664
 21
9096.728336966211
 31
0.0
  0
LINE
  5
4D09
  8
ﾈｯﾄ
  6
CONTINUOUS
 10
12253.68283976572
 20
8122.765024073912
 30
0.0
 11
13048.04103023664
 21
8917.123214544828
 31
0.0
  0
LINE
  5
4D0A
  8
ﾈｯﾄ
  6
CONTINUOUS
 10
13098.84103023645
 20
9327.133459387407
 30
0.0
 11
13773.27259492277
 21
10001.56502407373
 31
0.0
  0
LINE
  5
4D0B
  8
ﾈｯﾄ
  6
CONTINUOUS
 10
13098.84103023645
 20
9147.528336966025
 30
0.0
 11
13952.87771734415
 21
10001.56502407373
 31
0.0
  0
LINE
  5
4D0C
  8
ﾈｯﾄ
  6
CONTINUOUS
 10
13098.84103023645
 20
8967.92321454464
 30
0.0
 11
14132.48283976553
 21
10001.56502407373
 31
0.0
  0
LINE
  5
4D0D
  8
ﾈｯﾄ
  6
CONTINUOUS
 10
12433.2879621871
 20
8122.765024073912
 30
0.0
 11
13040.18796218701
 21
8729.66502407382
 31
0.0
  0
LINE
  5
4D0E
  8
ﾈｯﾄ
  6
CONTINUOUS
 10
13098.84103023645
 20
8788.318092123258
 30
0.0
 11
14312.08796218692
 21
10001.56502407373
 31
0.0
  0
LINE
  5
4D0F
  8
ﾈｯﾄ
  6
CONTINUOUS
 10
12612.89308460849
 20
8122.765024073912
 30
0.0
 11
13048.04103023664
 21
8557.912969702062
 31
0.0
  0
LINE
  5
4D10
  8
ﾈｯﾄ
  6
CONTINUOUS
 10
12792.49820702987
 20
8122.765024073912
 30
0.0
 11
13048.04103023664
 21
8378.30784728068
 31
0.0
  0
LINE
  5
4D11
  8
ﾈｯﾄ
  6
CONTINUOUS
 10
12972.10332945125
 20
8122.765024073912
 30
0.0
 11
13048.04103023664
 21
8198.702724859295
 31
0.0
  0
LINE
  5
4D12
  8
ﾈｯﾄ
  6
CONTINUOUS
 10
13098.84103023645
 20
8608.712969701877
 30
0.0
 11
14491.6930846083
 21
10001.56502407373
 31
0.0
  0
LINE
  5
4D13
  8
ﾈｯﾄ
  6
CONTINUOUS
 10
13098.84103023645
 20
8429.107847280493
 30
0.0
 11
14671.29820702968
 21
10001.56502407373
 31
0.0
  0
LINE
  5
4D14
  8
ﾈｯﾄ
  6
CONTINUOUS
 10
13098.84103023645
 20
8249.50272485911
 30
0.0
 11
14850.90332945107
 21
10001.56502407372
 31
0.0
  0
LINE
  5
4D15
  8
ﾈｯﾄ
  6
CONTINUOUS
 10
13151.70845187264
 20
8122.765024073912
 30
0.0
 11
15026.57474105471
 21
9997.631313255983
 31
0.0
  0
LINE
  5
4D16
  8
ﾈｯﾄ
  6
CONTINUOUS
 10
13331.31357429402
 20
8122.765024073912
 30
0.0
 11
15048.04103023664
 21
9839.49248001653
 31
0.0
  0
LINE
  5
4D17
  8
ﾈｯﾄ
  6
CONTINUOUS
 10
13510.9186967154
 20
8122.765024073912
 30
0.0
 11
15048.04103023664
 21
9659.887357595147
 31
0.0
  0
LINE
  5
4D18
  8
ﾈｯﾄ
  6
CONTINUOUS
 10
13690.52381913679
 20
8122.765024073912
 30
0.0
 11
15048.04103023664
 21
9480.282235173763
 31
0.0
  0
LINE
  5
4D19
  8
ﾈｯﾄ
  6
CONTINUOUS
 10
15098.84103023645
 20
9890.292480016342
 30
0.0
 11
15210.11357429406
 21
10001.56502407396
 31
0.0
  0
LINE
  5
4D1A
  8
ﾈｯﾄ
  6
CONTINUOUS
 10
15098.84103023645
 20
9710.68735759496
 30
0.0
 11
15389.71869671545
 21
10001.56502407396
 31
0.0
  0
LINE
  5
4D1B
  8
ﾈｯﾄ
  6
CONTINUOUS
 10
15098.84103023645
 20
9531.082235173577
 30
0.0
 11
15569.32381913683
 21
10001.56502407396
 31
0.0
  0
LINE
  5
4D1C
  8
ﾈｯﾄ
  6
CONTINUOUS
 10
13870.12894155817
 20
8122.765024073912
 30
0.0
 11
15048.04103023663
 21
9300.677112752379
 31
0.0
  0
LINE
  5
4D1D
  8
ﾈｯﾄ
  6
CONTINUOUS
 10
15098.84103023645
 20
9351.477112752193
 30
0.0
 11
15137.02894155808
 21
9389.66502407382
 31
0.0
  0
LINE
  5
4D1E
  8
ﾈｯﾄ
  6
CONTINUOUS
 10
15153.79103023664
 20
9406.42711275238
 30
0.0
 11
15748.92894155821
 21
10001.56502407396
 31
0.0
  0
LINE
  5
4D1F
  8
ﾈｯﾄ
  6
CONTINUOUS
 10
14049.73406397955
 20
8122.765024073912
 30
0.0
 11
15048.04103023663
 21
9121.071990330996
 31
0.0
  0
LINE
  5
4D20
  8
ﾈｯﾄ
  6
CONTINUOUS
 10
15098.84103023645
 20
9171.87199033081
 30
0.0
 11
15928.5340639796
 21
10001.56502407396
 31
0.0
  0
LINE
  5
4D21
  8
ﾈｯﾄ
  6
CONTINUOUS
 10
14229.33918640093
 20
8122.765024073912
 30
0.0
 11
15048.04103023663
 21
8941.466867909614
 31
0.0
  0
LINE
  5
4D22
  8
ﾈｯﾄ
  6
CONTINUOUS
 10
15098.84103023645
 20
8992.266867909426
 30
0.0
 11
16024.12338829349
 21
9917.549225966472
 31
0.0
  0
LINE
  5
4D23
  8
ﾈｯﾄ
  6
CONTINUOUS
 10
14408.94430882232
 20
8122.765024073912
 30
0.0
 11
15015.84430882222
 21
8729.66502407382
 31
0.0
  0
LINE
  5
4D24
  8
ﾈｯﾄ
  6
CONTINUOUS
 10
15045.84430882222
 20
8759.66502407382
 30
0.0
 11
15048.04103023663
 21
8761.86174548823
 31
0.0
  0
LINE
  5
4D25
  8
ﾈｯﾄ
  6
CONTINUOUS
 10
15098.84103023645
 20
8812.661745488043
 30
0.0
 11
16024.12338829349
 21
9737.944103545087
 31
0.0
  0
LINE
  5
4D26
  8
ﾈｯﾄ
  6
CONTINUOUS
 10
14588.5494312437
 20
8122.765024073913
 30
0.0
 11
15048.04103023664
 21
8582.256623066849
 31
0.0
  0
LINE
  5
4D27
  8
ﾈｯﾄ
  6
CONTINUOUS
 10
14768.15455366508
 20
8122.765024073912
 30
0.0
 11
15048.04103023664
 21
8402.651500645465
 31
0.0
  0
LINE
  5
4D28
  8
ﾈｯﾄ
  6
CONTINUOUS
 10
14947.75967608647
 20
8122.765024073912
 30
0.0
 11
15048.04103023664
 21
8223.046378224082
 31
0.0
  0
LINE
  5
4D29
  8
ﾈｯﾄ
  6
CONTINUOUS
 10
15098.84103023645
 20
8633.056623066663
 30
0.0
 11
16024.12338829349
 21
9558.338981123703
 31
0.0
  0
LINE
  5
4D2A
  8
ﾈｯﾄ
  6
CONTINUOUS
 10
15098.84103023645
 20
8453.451500645278
 30
0.0
 11
16024.12338829349
 21
9378.73385870232
 31
0.0
  0
LINE
  5
4D2B
  8
ﾈｯﾄ
  6
CONTINUOUS
 10
15098.84103023645
 20
8273.846378223896
 30
0.0
 11
16024.12338829349
 21
9199.128736280936
 31
0.0
  0
LINE
  5
4D2C
  8
ﾈｯﾄ
  6
CONTINUOUS
 10
15127.36479850762
 20
8122.76502407368
 30
0.0
 11
16024.12338829349
 21
9019.523613859554
 31
0.0
  0
LINE
  5
4D2D
  8
ﾈｯﾄ
  6
CONTINUOUS
 10
15306.969920929
 20
8122.76502407368
 30
0.0
 11
16024.12338829349
 21
8839.91849143817
 31
0.0
  0
LINE
  5
4D2E
  8
ﾈｯﾄ
  6
CONTINUOUS
 10
15486.57504335038
 20
8122.76502407368
 30
0.0
 11
16024.12338829349
 21
8660.313369016787
 31
0.0
  0
LINE
  5
4D2F
  8
ﾈｯﾄ
  6
CONTINUOUS
 10
15666.18016577177
 20
8122.76502407368
 30
0.0
 11
16024.12338829349
 21
8480.708246595403
 31
0.0
  0
LINE
  5
4D30
  8
ﾈｯﾄ
  6
CONTINUOUS
 10
15845.78528819315
 20
8122.76502407368
 30
0.0
 11
16024.12338829349
 21
8301.10312417402
 31
0.0
  0
LINE
  5
4D31
  8
ﾈｯﾄ
  6
CONTINUOUS
 10
11274.58819743546
 20
8122.765024073912
 30
0.0
 11
11098.84103023645
 21
8298.512191272925
 31
0.0
  0
LINE
  5
4D32
  8
ﾈｯﾄ
  6
CONTINUOUS
 10
11454.19331985684
 20
8122.765024073912
 30
0.0
 11
11098.84103023645
 21
8478.117313694307
 31
0.0
  0
LINE
  5
4D33
  8
ﾈｯﾄ
  6
CONTINUOUS
 10
11633.79844227823
 20
8122.765024073912
 30
0.0
 11
11098.84103023645
 21
8657.722436115688
 31
0.0
  0
LINE
  5
4D34
  8
ﾈｯﾄ
  6
CONTINUOUS
 10
11813.40356469961
 20
8122.765024073912
 30
0.0
 11
11098.84103023645
 21
8837.327558537072
 31
0.0
  0
LINE
  5
4D35
  8
ﾈｯﾄ
  6
CONTINUOUS
 10
11993.00868712099
 20
8122.765024073912
 30
0.0
 11
11098.84103023645
 21
9016.932680958456
 31
0.0
  0
LINE
  5
4D36
  8
ﾈｯﾄ
  6
CONTINUOUS
 10
12172.61380954238
 20
8122.765024073912
 30
0.0
 11
11098.84103023645
 21
9196.537803379839
 31
0.0
  0
LINE
  5
4D37
  8
ﾈｯﾄ
  6
CONTINUOUS
 10
12352.21893196376
 20
8122.765024073912
 30
0.0
 11
11098.84103023645
 21
9376.142925801221
 31
0.0
  0
LINE
  5
4D38
  8
ﾈｯﾄ
  6
CONTINUOUS
 10
12531.82405438514
 20
8122.765024073912
 30
0.0
 11
11098.84103023645
 21
9555.748048222606
 31
0.0
  0
LINE
  5
4D39
  8
ﾈｯﾄ
  6
CONTINUOUS
 10
12711.42917680653
 20
8122.765024073912
 30
0.0
 11
11098.84103023645
 21
9735.353170643988
 31
0.0
  0
LINE
  5
4D3A
  8
ﾈｯﾄ
  6
CONTINUOUS
 10
12891.03429922791
 20
8122.765024073912
 30
0.0
 11
11098.84103023645
 21
9914.95829306537
 31
0.0
  0
LINE
  5
4D3B
  8
ﾈｯﾄ
  6
CONTINUOUS
 10
13048.04103023664
 20
8145.363415486568
 30
0.0
 11
11191.83942164948
 21
10001.56502407373
 31
0.0
  0
LINE
  5
4D3C
  8
ﾈｯﾄ
  6
CONTINUOUS
 10
13250.24454407068
 20
8122.765024073912
 30
0.0
 11
13098.84103023645
 21
8274.168537908137
 31
0.0
  0
LINE
  5
4D3D
  8
ﾈｯﾄ
  6
CONTINUOUS
 10
13429.84966649206
 20
8122.765024073912
 30
0.0
 11
13098.84103023645
 21
8453.77366032952
 31
0.0
  0
LINE
  5
4D3E
  8
ﾈｯﾄ
  6
CONTINUOUS
 10
13048.04103023664
 20
8324.968537907951
 30
0.0
 11
11371.44454407086
 21
10001.56502407373
 31
0.0
  0
LINE
  5
4D3F
  8
ﾈｯﾄ
  6
CONTINUOUS
 10
13048.04103023664
 20
8504.573660329334
 30
0.0
 11
11551.04966649224
 21
10001.56502407373
 31
0.0
  0
LINE
  5
4D40
  8
ﾈｯﾄ
  6
CONTINUOUS
 10
13609.45478891344
 20
8122.765024073912
 30
0.0
 11
13098.84103023645
 21
8633.378782750902
 31
0.0
  0
LINE
  5
4D41
  8
ﾈｯﾄ
  6
CONTINUOUS
 10
13048.04103023664
 20
8684.178782750718
 30
0.0
 11
13002.55478891353
 21
8729.66502407382
 31
0.0
  0
LINE
  5
4D42
  8
ﾈｯﾄ
  6
CONTINUOUS
 10
12993.09103023645
 20
8739.128782750904
 30
0.0
 11
11730.65478891363
 21
10001.56502407373
 31
0.0
  0
LINE
  5
4D43
  8
ﾈｯﾄ
  6
CONTINUOUS
 10
13789.05991133483
 20
8122.765024073912
 30
0.0
 11
13153.79103023663
 21
8758.033905172102
 31
0.0
  0
LINE
  5
4D44
  8
ﾈｯﾄ
  6
CONTINUOUS
 10
13152.15991133492
 20
8759.66502407382
 30
0.0
 11
13098.84103023645
 21
8812.983905172287
 31
0.0
  0
LINE
  5
4D45
  8
ﾈｯﾄ
  6
CONTINUOUS
 10
13048.04103023664
 20
8863.7839051721
 30
0.0
 11
11910.25991133501
 21
10001.56502407373
 31
0.0
  0
LINE
  5
4D46
  8
ﾈｯﾄ
  6
CONTINUOUS
 10
13968.66503375621
 20
8122.765024073912
 30
0.0
 11
13098.84103023645
 21
8992.589027593669
 31
0.0
  0
LINE
  5
4D47
  8
ﾈｯﾄ
  6
CONTINUOUS
 10
14148.27015617759
 20
8122.765024073912
 30
0.0
 11
13098.84103023645
 21
9172.194150015053
 31
0.0
  0
LINE
  5
4D48
  8
ﾈｯﾄ
  6
CONTINUOUS
 10
13048.04103023664
 20
9043.389027593483
 30
0.0
 11
12089.86503375639
 21
10001.56502407373
 31
0.0
  0
LINE
  5
4D49
  8
ﾈｯﾄ
  6
CONTINUOUS
 10
13048.04103023664
 20
9222.994150014867
 30
0.0
 11
12269.47015617778
 21
10001.56502407373
 31
0.0
  0
LINE
  5
4D4A
  8
ﾈｯﾄ
  6
CONTINUOUS
 10
14327.87527859897
 20
8122.765024073912
 30
0.0
 11
13098.84103023645
 21
9351.799272436436
 31
0.0
  0
LINE
  5
4D4B
  8
ﾈｯﾄ
  6
CONTINUOUS
 10
13030.97527859907
 20
9419.66502407382
 30
0.0
 11
12449.07527859916
 21
10001.56502407373
 31
0.0
  0
LINE
  5
4D4C
  8
ﾈｯﾄ
  6
CONTINUOUS
 10
14507.48040102036
 20
8122.765024073911
 30
0.0
 11
13098.84103023645
 21
9531.404394857818
 31
0.0
  0
LINE
  5
4D4D
  8
ﾈｯﾄ
  6
CONTINUOUS
 10
14687.08552344174
 20
8122.765024073912
 30
0.0
 11
13098.84103023645
 21
9711.009517279203
 31
0.0
  0
LINE
  5
4D4E
  8
ﾈｯﾄ
  6
CONTINUOUS
 10
14866.69064586312
 20
8122.765024073912
 30
0.0
 11
13098.84103023645
 21
9890.614639700585
 31
0.0
  0
LINE
  5
4D4F
  8
ﾈｯﾄ
  6
CONTINUOUS
 10
13048.04103023664
 20
9582.204394857632
 30
0.0
 11
12628.68040102054
 21
10001.56502407373
 31
0.0
  0
LINE
  5
4D50
  8
ﾈｯﾄ
  6
CONTINUOUS
 10
13048.04103023664
 20
9761.809517279014
 30
0.0
 11
12808.28552344193
 21
10001.56502407373
 31
0.0
  0
LINE
  5
4D51
  8
ﾈｯﾄ
  6
CONTINUOUS
 10
13048.04103023664
 20
9941.414639700399
 30
0.0
 11
12987.89064586331
 21
10001.56502407373
 31
0.0
  0
LINE
  5
4D52
  8
ﾈｯﾄ
  6
CONTINUOUS
 10
15046.29576828451
 20
8122.765024073911
 30
0.0
 11
13167.49576828469
 21
10001.56502407373
 31
0.0
  0
LINE
  5
4D53
  8
ﾈｯﾄ
  6
CONTINUOUS
 10
15225.90089070612
 20
8122.76502407368
 30
0.0
 11
15098.84103023645
 21
8249.824884543352
 31
0.0
  0
LINE
  5
4D54
  8
ﾈｯﾄ
  6
CONTINUOUS
 10
15405.5060131275
 20
8122.765024073679
 30
0.0
 11
15098.84103023645
 21
8429.430006964734
 31
0.0
  0
LINE
  5
4D55
  8
ﾈｯﾄ
  6
CONTINUOUS
 10
15585.11113554889
 20
8122.765024073678
 30
0.0
 11
15098.84103023645
 21
8609.035129386117
 31
0.0
  0
LINE
  5
4D56
  8
ﾈｯﾄ
  6
CONTINUOUS
 10
15048.04103023664
 20
8300.624884543166
 30
0.0
 11
13347.10089070608
 21
10001.56502407373
 31
0.0
  0
LINE
  5
4D57
  8
ﾈｯﾄ
  6
CONTINUOUS
 10
15048.04103023664
 20
8480.230006964548
 30
0.0
 11
13526.70601312746
 21
10001.56502407373
 31
0.0
  0
LINE
  5
4D58
  8
ﾈｯﾄ
  6
CONTINUOUS
 10
15048.04103023664
 20
8659.83512938593
 30
0.0
 11
13706.31113554884
 21
10001.56502407373
 31
0.0
  0
LINE
  5
4D59
  8
ﾈｯﾄ
  6
CONTINUOUS
 10
15764.71625797027
 20
8122.765024073679
 30
0.0
 11
15153.79103023664
 21
8733.690251807313
 31
0.0
  0
LINE
  5
4D5A
  8
ﾈｯﾄ
  6
CONTINUOUS
 10
15127.81625797013
 20
8759.66502407382
 30
0.0
 11
15098.84103023645
 21
8788.640251807503
 31
0.0
  0
LINE
  5
4D5B
  8
ﾈｯﾄ
  6
CONTINUOUS
 10
15048.04103023663
 20
8839.440251807317
 30
0.0
 11
13885.91625797022
 21
10001.56502407373
 31
0.0
  0
LINE
  5
4D5C
  8
ﾈｯﾄ
  6
CONTINUOUS
 10
15944.32138039166
 20
8122.765024073678
 30
0.0
 11
15098.84103023645
 21
8968.245374228885
 31
0.0
  0
LINE
  5
4D5D
  8
ﾈｯﾄ
  6
CONTINUOUS
 10
15048.04103023663
 20
9019.045374228699
 30
0.0
 11
14065.52138039161
 21
10001.56502407372
 31
0.0
  0
LINE
  5
4D5E
  8
ﾈｯﾄ
  6
CONTINUOUS
 10
16024.12338829349
 20
8222.568138593228
 30
0.0
 11
15098.84103023645
 21
9147.850496650268
 31
0.0
  0
LINE
  5
4D5F
  8
ﾈｯﾄ
  6
CONTINUOUS
 10
15048.04103023663
 20
9198.650496650082
 30
0.0
 11
14245.12650281299
 21
10001.56502407372
 31
0.0
  0
LINE
  5
4D60
  8
ﾈｯﾄ
  6
CONTINUOUS
 10
16024.12338829349
 20
8402.17326101461
 30
0.0
 11
15098.84103023645
 21
9327.455619071652
 31
0.0
  0
LINE
  5
4D61
  8
ﾈｯﾄ
  6
CONTINUOUS
 10
15048.04103023663
 20
9378.255619071466
 30
0.0
 11
15036.63162523428
 21
9389.66502407382
 31
0.0
  0
LINE
  5
4D62
  8
ﾈｯﾄ
  6
CONTINUOUS
 10
15006.63162523428
 20
9419.66502407382
 30
0.0
 11
14424.73162523437
 21
10001.56502407372
 31
0.0
  0
LINE
  5
4D63
  8
ﾈｯﾄ
  6
CONTINUOUS
 10
16024.12338829349
 20
8581.778383435993
 30
0.0
 11
15098.84103023645
 21
9507.060741493031
 31
0.0
  0
LINE
  5
4D64
  8
ﾈｯﾄ
  6
CONTINUOUS
 10
16024.12338829349
 20
8761.383505857375
 30
0.0
 11
15098.84103023645
 21
9686.665863914415
 31
0.0
  0
LINE
  5
4D65
  8
ﾈｯﾄ
  6
CONTINUOUS
 10
16024.12338829349
 20
8940.98862827876
 30
0.0
 11
15098.84103023645
 21
9866.2709863358
 31
0.0
  0
LINE
  5
4D66
  8
ﾈｯﾄ
  6
CONTINUOUS
 10
15048.04103023664
 20
9557.860741492845
 30
0.0
 11
14604.33674765576
 21
10001.56502407372
 31
0.0
  0
LINE
  5
4D67
  8
ﾈｯﾄ
  6
CONTINUOUS
 10
15048.04103023664
 20
9737.465863914229
 30
0.0
 11
14783.94187007714
 21
10001.56502407372
 31
0.0
  0
LINE
  5
4D68
  8
ﾈｯﾄ
  6
CONTINUOUS
 10
15048.04103023664
 20
9917.070986335611
 30
0.0
 11
14963.54699249852
 21
10001.56502407372
 31
0.0
  0
LINE
  5
4D69
  8
ﾈｯﾄ
  6
CONTINUOUS
 10
16024.12338829349
 20
9120.593750700142
 30
0.0
 11
15143.15211491967
 21
10001.56502407396
 31
0.0
  0
LINE
  5
4D6A
  8
ﾈｯﾄ
  6
CONTINUOUS
 10
16024.12338829349
 20
9300.198873121524
 30
0.0
 11
15322.75723734106
 21
10001.56502407396
 31
0.0
  0
LINE
  5
4D6B
  8
ﾈｯﾄ
  6
CONTINUOUS
 10
16024.12338829349
 20
9479.803995542907
 30
0.0
 11
15502.36235976244
 21
10001.56502407396
 31
0.0
  0
LINE
  5
4D6C
  8
ﾈｯﾄ
  6
CONTINUOUS
 10
16024.12338829349
 20
9659.40911796429
 30
0.0
 11
15681.96748218382
 21
10001.56502407396
 31
0.0
  0
LINE
  5
4D6D
  8
ﾈｯﾄ
  6
CONTINUOUS
 10
16024.12338829349
 20
9839.014240385672
 30
0.0
 11
15861.5726046052
 21
10001.56502407396
 31
0.0
  0
ENDBLK
  5
4D99
  8
ﾊｯﾁﾝｸﾞ
  0
BLOCK
  8
ﾊｯﾁﾝｸﾞ
  2
*X46
 70
     1
 10
0.0
 20
0.0
 30
0.0
  3
*X46
  1
Acad:XRef
  0
TEXT
  5
4D79
  8
寸法文字
  6
CONTINUOUS
 10
9534.699346475718
 20
7727.957609722787
 30
0.0
 40
180.0
  1
フェンス
 41
0.75
  7
1_100
  0
TEXT
  5
4D7A
  8
寸法文字
  6
CONTINUOUS
 10
9552.699346475718
 20
7487.957609722787
 30
0.0
 40
180.0
  1
基礎ブロック
 41
0.75
  7
1_100
  0
ENDBLK
  5
4D9B
  8
ﾊｯﾁﾝｸﾞ
  0
ENDSEC
  0
SECTION
  2
ENTITIES
  0
TEXT
  5
375B
  8
画層1
 10
2353.440993957935
 20
2023.13537110461
 30
0.0
 40
179.9999999999345
  1
・ネット仕様はエコネット（糸径φ1.9・引張強さ1760N）以上とする
 41
0.75
  7
1_100
  0
TEXT
  5
375C
  8
画層1
 10
9853.440993957942
 20
2623.135371105454
 30
0.0
 40
179.9999999999345
  1
・【完成後】検査証明書・メンテナンス保証書を提出のこと。
 41
0.75
  7
1_100
  0
POINT
  5
375D
  8
画層2-1
 10
553.4410326762518
 20
494.6649980193033
 30
0.0
1001
ACDBBLOCKREPETAG
1070
     1
1071
        6
1005
0
  0
TEXT
  5
375E
  8
寸法
  6
CONTINUOUS
 10
3208.691621078347
 20
8094.657393030149
 30
0.0
 40
180.0
  1
▽GL
 41
0.75
  7
1_100
 72
     1
 11
3413.120192506918
 21
8094.657393030149
 31
0.0
 73
     1
  0
TEXT
  5
375F
  8
寸法文字
  6
CONTINUOUS
 10
7960.610560533472
 20
11166.14742133084
 30
0.0
 40
180.0
  1
（引張強さ1760（Ｎ）以上）
 41
0.75
  7
1_100
  0
INSERT
  5
3760
  8
ﾈｯﾄ
 62
   230
  2
*X32
 10
0.0
 20
0.0
 30
0.0
1001
ACAD
1000
HATCH
1002
{
1070
    19
1000
NET
1040
40.0
1040
0.0
1000
ASC_BOUNDS
1070
     1
1070
     2
1070
    11
1005
3815
1005
3809
1005
3813
1005
3801
1005
3808
1005
3972
1005
3945
1005
394D
1005
3966
1005
3943
1005
396D
1000
ASC_SEEDPOINT
1011
6412.714482029667
1021
10580.50581048429
1031
0.0
1021
10580.50581048429
1031
0.0
1000
R14_HATCH_DATA
1000
3760
1011
1.0
1021
0.0
1031
0.0
1021
0.0
1031
0.0
1011
0.0
1021
1.0
1031
0.0
1021
1.0
1031
0.0
1011
0.0
1021
0.0
1031
1.0
1021
0.0
1031
1.0
1040
0.0
1010
0.0
1020
0.0
1030
1.0
1020
0.0
1030
1.0
1000
NET
1070
     0
1070
     1
1071
        1
1071
        7
1070
     0
1070
     1
1071
       17
1040
7951.549728314235
1040
10064.66502407388
1040
7449.904812236417
1040
12024.66502407382
1040
5425.59103023645
1040
12024.66502407382
1040
5425.591030236449
1040
12004.44130341269
1040
5245.59103023645
1040
12004.44130341269
1040
5245.59103023645
1040
12024.66502407382
1040
5180.59103023645
1040
12024.66502407382
1040
5180.59103023645
1040
11999.66502407382
1040
5180.59103023645
1040
11949.66502407382
1040
5130.591030236449
1040
11949.66502407382
1040
5130.591030236449
1040
10089.66502407382
1040
5180.59103023645
1040
10089.66502407382
1040
5180.59103023645
1040
10064.66502407382
1040
5230.59103023645
1040
10064.66502407382
1040
5230.59103023645
1040
10084.66601838803
1040
5410.591030236449
1040
10084.66601838803
1040
5410.591030236451
1040
10064.66502407383
1071
       11
1005
3815
1005
3809
1005
3813
1005
3801
1005
3808
1005
3972
1005
3945
1005
394D
1005
3966
1005
3943
1005
396D
1070
     0
1070
     1
1040
0.0
1040
40.0
1070
     0
1070
     2
1040
0.0
1040
0.0
1040
0.0
1040
0.0
1040
127.0
1070
     0
1040
1.570796326794897
1040
0.0
1040
0.0
1040
-127.0
1040
0.0000000000000078
1070
     0
1040
9.484479682373536
1071
        1
1040
6412.714482029667
1040
10580.50581048429
1040
0.0
1002
}
  0
TEXT
  5
3761
  8
寸法文字
  6
CONTINUOUS
 10
7612.191029894922
 20
9603.516058853322
 30
0.0
 40
180.0
  1
下部フェンス
 41
0.75
  7
1_100
  0
INSERT
  5
3762
  8
寸法文字
  6
CONTINUOUS
  2
*X33
 10
0.0
 20
0.0
 30
0.0
  0
DIMENSION
  5
3764
  8
寸法
  6
CONTINUOUS
  2
*D3
 10
19161.2733886348
 20
12424.66502407347
 30
0.0
 11
19104.12338863466
 21
12604.66502407347
 31
0.0
 70
    32
  1
φ<>
  3
1_60
 13
19046.97338863451
 23
12064.66502407382
 33
0.0
 14
19161.2733886348
 24
12064.66502407382
 34
0.0
  0
DIMENSION
  5
3765
  8
寸法
  6
CONTINUOUS
  2
*D2
 10
5130.591030236923
 20
12424.66502407347
 30
0.0
 11
5073.44103023678
 21
12604.66502407347
 31
0.0
 70
    32
  1
φ<>
  3
1_60
 13
5016.291030236636
 23
12064.66502407382
 33
0.0
 14
5130.591030236923
 24
12064.66502407382
 34
0.0
  0
DIMENSION
  5
376C
  8
寸法
  6
CONTINUOUS
  2
*D29
 10
20364.12338863489
 20
12064.66502407429
 30
0.0
 11
20213.87907988008
 21
12250.44204828076
 31
0.0
 70
   160
  3
1_60
 13
19704.12338863489
 23
12024.66502407429
 33
0.0
 14
19704.12338863489
 24
12064.66502407429
 34
0.0
 50
90.0
  0
DIMENSION
  5
376D
  8
寸法
  6
CONTINUOUS
  2
*D28
 10
20364.12338863489
 20
10064.66502407429
 30
0.0
 11
20196.98053149202
 21
9064.66502407429
 31
0.0
 70
    32
  3
1_60
 13
19704.12338863489
 23
8064.665024074286
 33
0.0
 14
19704.12338863489
 24
10064.66502407429
 34
0.0
 50
90.0
  0
DIMENSION
  5
376E
  8
寸法
  6
CONTINUOUS
  2
*D27
 10
20964.12338863489
 20
8064.665024074286
 30
0.0
 11
20796.98053149203
 21
10064.66502407429
 31
0.0
 70
    32
  3
1_60
 13
19704.12338863489
 23
12064.66502407429
 33
0.0
 14
19704.12338863489
 24
8064.665024074286
 34
0.0
 50
90.0
  0
DIMENSION
  5
376F
  8
寸法
  6
CONTINUOUS
  2
*D26
 10
20364.12338863489
 20
12024.66502407429
 30
0.0
 11
20196.98053149202
 21
11044.66502407429
 31
0.0
 70
    32
  3
1_60
 13
19704.12338863489
 23
10064.66502407429
 33
0.0
 14
19704.12338863489
 24
12024.66502407429
 34
0.0
 50
90.0
  0
DIMENSION
  5
3770
  8
寸法
  6
CONTINUOUS
  2
*D25
 10
16984.12338829349
 20
12064.66502407383
 30
0.0
 11
16809.40842996194
 21
12273.58710576419
 31
0.0
 70
   160
  3
1_60
 13
16324.12338829349
 23
12024.66502407383
 33
0.0
 14
16324.12338829349
 24
12064.66502407383
 34
0.0
 50
90.0
  0
DIMENSION
  5
3771
  8
寸法
  6
CONTINUOUS
  2
*D24
 10
16984.12338829349
 20
10064.66502407383
 30
0.0
 11
16816.98053115063
 21
9064.665024073827
 31
0.0
 70
    32
  3
1_60
 13
16324.12338829349
 23
8064.665024073824
 33
0.0
 14
16324.12338829349
 24
10064.66502407383
 34
0.0
 50
90.0
  0
LINE
  5
3772
  8
DEFPOINTS
 10
16024.12338829349
 20
12024.66502407382
 30
0.0
 11
16024.12338829349
 21
8064.665024073824
 31
0.0
1001
ACAD
1000
ASC_BOUNDS
1002
{
1070
    19
1005
4A2E
1002
}
  0
DIMENSION
  5
3773
  8
寸法
  6
CONTINUOUS
  2
*D23
 10
17584.12338829349
 20
8064.665024073824
 30
0.0
 11
17416.98053115063
 21
10064.66502407383
 31
0.0
 70
    32
  3
1_60
 13
16324.12338829349
 23
12064.66502407383
 33
0.0
 14
16324.12338829349
 24
8064.665024073824
 34
0.0
 50
90.0
  0
DIMENSION
  5
3774
  8
寸法
  6
CONTINUOUS
  2
*D22
 10
16984.12338829349
 20
12024.66502407383
 30
0.0
 11
16816.98053115063
 21
11044.66502407383
 31
0.0
 70
    32
  3
1_60
 13
16324.12338829349
 23
10064.66502407383
 33
0.0
 14
16324.12338829349
 24
12024.66502407383
 34
0.0
 50
90.0
  0
DIMENSION
  5
3775
  8
寸法
  6
CONTINUOUS
  2
*D21
 10
20364.12338863489
 20
7064.665024074286
 30
0.0
 11
20209.22481990502
 21
6703.213122628888
 31
0.0
 70
   160
  3
1_60
 13
19704.12338863489
 23
6964.665024074286
 33
0.0
 14
19704.12338863489
 24
7064.665024074286
 34
0.0
 50
90.0
  0
LINE
  5
3776
  8
寸法
  6
BYBLOCK
 10
15889.79549706291
 20
5812.895878274056
 30
0.0
 11
16069.79549706291
 21
5764.665024074056
 31
0.0
  0
LINE
  5
3777
  8
寸法
  6
BYBLOCK
 10
16069.79549706291
 20
5764.665024074056
 30
0.0
 11
15889.79549706291
 21
5716.434169874057
 31
0.0
  0
DIMENSION
  5
3778
  8
寸法
  6
CONTINUOUS
  2
*D20
 10
16984.12338829349
 20
7064.665024073824
 30
0.0
 11
16794.42160654097
 21
6741.438483694801
 31
0.0
 70
   160
  3
1_60
 13
16324.12338829349
 23
6964.665024073824
 33
0.0
 14
16324.12338829349
 24
7064.665024073824
 34
0.0
 50
90.0
  0
LINE
  5
3779
  8
寸法
  6
BYBLOCK
 10
15889.79549706291
 20
5332.895878274045
 30
0.0
 11
16069.79549706291
 21
5284.665024074056
 31
0.0
  0
LINE
  5
377A
  8
寸法
  6
BYBLOCK
 10
16069.79549706291
 20
5284.665024074056
 30
0.0
 11
15889.79549706291
 21
5236.434169874043
 31
0.0
  0
TEXT
  5
377C
  8
寸法
  6
CONTINUOUS
 10
13779.30136220613
 20
5347.47213293126
 30
0.0
 40
180.0
  1
6,000
 41
0.75
  7
1_100
 11
13779.30136220613
 21
5347.47213293126
 31
0.0
 73
     1
  0
TEXT
  5
377D
  8
画層3-寸法
  6
CONTINUOUS
 10
15392.52524712711
 20
5837.903910744732
 30
0.0
 40
180.0
  1
2,000
 41
0.75
  7
1_100
 11
15392.52524712711
 21
5837.903910744732
 31
0.0
 73
     1
  0
POLYLINE
  5
377E
  8
寸法
 66
     1
 10
0.0
 20
0.0
 30
0.0
1001
ACAD
1000
DSTYLE
1002
{
1070
    41
1040
3.0
1070
   341
1005
0
1002
}
  0
VERTEX
  5
4BDF
  8
寸法
 10
16069.79549706291
 20
5284.665024074056
 30
0.0
  0
VERTEX
  5
4BE0
  8
寸法
 10
11073.44102989492
 20
5284.665024073824
 30
0.0
  0
SEQEND
  5
4D9C
  8
寸法
  0
POLYLINE
  5
377F
  8
寸法
 66
     1
 10
0.0
 20
0.0
 30
0.0
1001
ACAD
1000
DSTYLE
1002
{
1070
    41
1040
3.0
1070
   341
1005
0
1002
}
  0
VERTEX
  5
4BE1
  8
寸法
 10
16069.79549706291
 20
5764.665024074056
 30
0.0
  0
VERTEX
  5
4BE2
  8
寸法
 10
15073.44102989492
 20
5764.665024074056
 30
0.0
  0
SEQEND
  5
4D9D
  8
寸法
  0
DIMENSION
  5
3780
  8
寸法
  6
CONTINUOUS
  2
*D19
 10
19354.12338863489
 20
6364.66502407382
 30
0.0
 11
19104.12338863489
 21
6214.66502407382
 31
0.0
 70
    32
  1
□<>
  3
1_60
 13
18854.12338863489
 23
6964.66502407382
 33
0.0
 14
19354.12338863489
 24
6964.665024073587
 34
0.0
1001
ACAD
1000
DSTYLE
1002
{
1070
    77
1070
     2
1070
   174
1070
     1
1002
}
  0
DIMENSION
  5
3781
  8
寸法
  6
CONTINUOUS
  2
*D18
 10
19329.12338863489
 20
6604.733575084971
 30
0.0
 11
18502.55003075477
 21
6677.791528977712
 31
0.0
 70
   160
  1
φ<>
  3
1_60
 13
18879.12338863489
 23
6964.66502407382
 33
0.0
 14
19329.12338863489
 24
6964.66502407382
 34
0.0
  0
DIMENSION
  5
3782
  8
寸法
  6
CONTINUOUS
  2
*D17
 10
20364.12338863489
 20
7764.665024074286
 30
0.0
 11
20530.01264616557
 21
7817.184271203238
 31
0.0
 70
   160
  3
1_60
 13
19704.12338863489
 23
8064.665024074286
 33
0.0
 14
19704.12338863489
 24
7764.665024074286
 34
0.0
 50
90.0
  0
DIMENSION
  5
3783
  8
寸法
  6
CONTINUOUS
  2
*D16
 10
20364.12338863489
 20
7764.665024074286
 30
0.0
 11
20214.12338863489
 21
7414.665024074289
 31
0.0
 70
    32
  3
1_60
 13
19704.12338863489
 23
7064.665024074286
 33
0.0
 14
19704.12338863489
 24
7764.665024074286
 34
0.0
 50
90.0
  0
DIMENSION
  5
3784
  8
寸法
  6
CONTINUOUS
  2
*D15
 10
20964.12338863489
 20
7064.665024074286
 30
0.0
 11
20796.98053149203
 21
7564.665024074289
 31
0.0
 70
    32
  3
1_60
 13
19704.12338863489
 23
8064.665024074286
 33
0.0
 14
19704.12338863489
 24
7064.665024074286
 34
0.0
 50
90.0
  0
DIMENSION
  5
3785
  8
寸法
  6
CONTINUOUS
  2
*D14
 10
16984.12338829349
 20
7764.665024073824
 30
0.0
 11
16834.12338829349
 21
7414.665024073826
 31
0.0
 70
    32
  3
1_60
 13
16324.12338829349
 23
7064.665024073824
 33
0.0
 14
16324.12338829349
 24
7764.665024073824
 34
0.0
 50
90.0
  0
DIMENSION
  5
3786
  8
寸法
  6
CONTINUOUS
  2
*D13
 10
16984.12338829349
 20
7764.665024073824
 30
0.0
 11
17149.70269030082
 21
7836.789439451211
 31
0.0
 70
   160
  3
1_60
 13
16324.12338829349
 23
8064.665024073824
 33
0.0
 14
16324.12338829349
 24
7764.665024073824
 34
0.0
 50
90.0
  0
DIMENSION
  5
3787
  8
寸法
  6
CONTINUOUS
  2
*D12
 10
17584.12338829349
 20
7064.665024073824
 30
0.0
 11
17416.98053115063
 21
7564.665024073826
 31
0.0
 70
    32
  3
1_60
 13
16324.12338829349
 23
8064.665024073824
 33
0.0
 14
16324.12338829349
 24
7064.665024073824
 34
0.0
 50
90.0
  0
DIMENSION
  5
3788
  8
画層3-寸法
  6
CONTINUOUS
  2
*D11
 10
9198.441030236543
 20
7303.050871427429
 30
0.0
 11
9073.441030236543
 21
7153.050871427429
 31
0.0
 70
    32
  1
□<>
  3
1_60
 13
8948.441030236543
 23
7614.66502407382
 33
0.0
 14
9198.441030236543
 24
7614.66502407382
 34
0.0
1001
ACAD
1000
DSTYLE
1002
{
1070
    77
1070
     2
1070
   174
1070
     1
1002
}
  0
POLYLINE
  5
378A
  8
寸法引出
  6
CONTINUOUS
 66
     1
 10
0.0
 20
0.0
 30
0.0
  0
VERTEX
  5
4BE3
  8
寸法引出
  6
CONTINUOUS
 10
5298.441029894922
 20
7013.970371184667
 30
0.0
  0
VERTEX
  5
4BE4
  8
寸法引出
  6
CONTINUOUS
 10
5589.491376228922
 20
6759.572410114077
 30
0.0
  0
VERTEX
  5
4BE5
  8
寸法引出
  6
CONTINUOUS
 10
6459.491376228922
 20
6759.572410114077
 30
0.0
  0
SEQEND
  5
4D9E
  8
寸法引出
  6
CONTINUOUS
  0
TEXT
  5
378B
  8
寸法文字
  6
CONTINUOUS
 10
5685.491376228922
 20
6791.585320412556
 30
0.0
 40
180.0
  1
床決め砕石
 41
0.75
  7
1_100
  0
DIMENSION
  5
378C
  8
寸法
  6
CONTINUOUS
  2
*D10
 10
5323.441029894922
 20
6364.665024073824
 30
0.0
 11
5073.441029894922
 21
6214.665024073824
 31
0.0
 70
    32
  1
□<>
  3
1_60
 13
4823.441029894922
 23
6964.665024073824
 33
0.0
 14
5323.441029894922
 24
6964.665024073591
 34
0.0
1001
ACAD
1000
DSTYLE
1002
{
1070
    77
1070
     2
1070
   174
1070
     1
1002
}
  0
POLYLINE
  5
378D
  8
寸法引出
  6
CONTINUOUS
 66
     1
 10
0.0
 20
0.0
 30
0.0
1001
ACAD
1000
DSTYLE
1002
{
1002
}
  0
VERTEX
  5
4BE6
  8
寸法引出
  6
CONTINUOUS
 10
5278.722605262538
 20
7651.86035913785
 30
0.0
  0
VERTEX
  5
4BE7
  8
寸法引出
  6
CONTINUOUS
 10
5577.112989452027
 20
7396.571160050366
 30
0.0
  0
VERTEX
  5
4BE8
  8
寸法引出
  6
CONTINUOUS
 10
6552.862989452027
 20
7396.571160050366
 30
0.0
  0
SEQEND
  5
4D9F
  8
寸法引出
  6
CONTINUOUS
  0
TEXT
  5
378E
  8
寸法文字
  6
CONTINUOUS
 10
5652.862989452027
 20
7456.571160050366
 30
0.0
 40
180.0
  1
コンクリート
 41
0.75
  7
1_100
  0
DIMENSION
  5
378F
  8
画層3-寸法
  6
CONTINUOUS
  2
*D9
 10
7073.441029894922
 20
5764.665024073824
 30
0.0
 11
6073.441029894922
 21
5931.80788121668
 31
0.0
 70
    32
  3
1_60
 13
5073.441029894922
 23
6214.665024073824
 33
0.0
 14
7073.441029894922
 24
6914.665024073824
 34
0.0
  0
DIMENSION
  5
3790
  8
画層3-寸法
  6
CONTINUOUS
  2
*D8
 10
9073.441029894922
 20
5764.665024073824
 30
0.0
 11
8073.441029894922
 21
5931.80788121668
 31
0.0
 70
    32
  3
1_60
 13
7073.441029894922
 23
6914.665024073824
 33
0.0
 14
9073.441029894922
 24
6914.665024073824
 34
0.0
  0
DIMENSION
  5
3791
  8
寸法
  6
CONTINUOUS
  2
*D7
 10
5298.441029894922
 20
6604.733575084974
 30
0.0
 11
4492.933503941924
 21
6663.50007041989
 31
0.0
 70
   160
  1
φ<>
  3
1_60
 13
4848.441029894922
 23
6964.665024073824
 33
0.0
 14
5298.441029894922
 24
6964.665024073824
 34
0.0
  0
DIMENSION
  5
3792
  8
画層3-寸法
  6
CONTINUOUS
  2
*D6
 10
8632.252497127396
 20
7614.66502407382
 30
0.0
 11
8452.252497127394
 21
7839.665024073821
 31
0.0
 70
    32
  3
1_60
 13
8948.441030236543
 23
8064.66502407382
 33
0.0
 14
8948.441030236543
 24
7614.66502407382
 34
0.0
 50
90.0
  0
DIMENSION
  5
3793
  8
寸法
  6
CONTINUOUS
  2
*D5
 10
11073.44102989492
 20
5284.665024073824
 30
0.0
 11
8073.441029894922
 21
5451.80788121668
 31
0.0
 70
    32
  3
1_60
 13
5073.441029894922
 23
6214.665024073824
 33
0.0
 14
11073.44102989492
 24
6822.19755228053
 34
0.0
  0
DIMENSION
  5
3794
  8
画層3-寸法
  6
CONTINUOUS
  2
*D4
 10
11073.44102989492
 20
5764.665024073824
 30
0.0
 11
10073.44102989492
 21
5931.80788121668
 31
0.0
 70
    32
  3
1_60
 13
9073.441029894922
 23
6914.665024073824
 33
0.0
 14
11073.44102989492
 24
6914.665024073824
 34
0.0
  0
LINE
  5
3799
  8
画層3-1
  6
CONTINUOUS
 10
11033.04103023664
 20
10001.56502407373
 30
0.0
 11
9113.84103023645
 21
10001.56502407373
 31
0.0
1001
ACAD
1000
ASC_BOUNDS
1002
{
1070
    19
1005
49D4
1002
}
  0
LINE
  5
379A
  8
画層3-2
  6
CONTINUOUS
 10
9153.791030236636
 20
8744.66502407382
 30
0.0
 11
10993.09103023645
 21
8744.66502407382
 31
0.0
  0
LINE
  5
379B
  8
画層3-2
  6
CONTINUOUS
 10
10993.09103023645
 20
9404.66502407382
 30
0.0
 11
9153.791030236636
 21
9404.66502407382
 31
0.0
  0
LINE
  5
379C
  8
画層3-1
  6
CONTINUOUS
 10
11048.04103023664
 20
8122.765024073913
 30
0.0
 11
9098.84103023645
 21
8122.765024073913
 31
0.0
1001
ACAD
1000
ASC_BOUNDS
1002
{
1070
    19
1005
49D4
1002
}
  0
LINE
  5
379D
  8
画層3-1
  6
CONTINUOUS
 10
11048.04103023664
 20
8084.66502407382
 30
0.0
 11
9098.84103023645
 21
8084.66502407382
 31
0.0
  0
TEXT
  5
37C6
  8
画層3
 10
23455.22673803525
 20
704.665010179051
 30
0.0
 40
180.0
  1
13
 41
0.75
  7
1_100
 72
     1
 11
23593.44102374953
 21
704.665010179051
 31
0.0
 73
     1
  0
TEXT
  5
37C7
  8
画層1
 10
2353.440993957942
 20
1723.135371104181
 30
0.0
 40
180.0000000002537
  1
・下部フェンスは、φ2.6×50目TBIR線金網とする
 41
0.75
  7
1_100
  0
TEXT
  5
37C8
  8
画層1
 10
9853.440993957942
 20
2923.135371105876
 30
0.0
 40
180.0000000002537
  1
・【施工前】構造計算書・材料承認願い・管理基準値を提出し承認後施工のこと。
 41
0.75
  7
1_100
  0
TEXT
  5
37C9
  8
画層1
 10
12573.66537858521
 20
1483.135371103839
 30
0.0
 40
180.0000000002537
  1
・地表面粗度区分　　　・基礎　普通土質 [B] を選定
 41
0.75
  7
1_100
  0
TEXT
  5
37CA
  8
画層1
 10
9853.440993957942
 20
1783.135371104272
 30
0.0
 40
180.0000000002537
  1
・設計荷重。建築基準法・同施工令（平成12年6月）に基づく風圧力に依る、基準風速。
 41
0.75
  7
1_100
  0
TEXT
  5
37CB
  8
画層1
 10
9853.440993957942
 20
1483.135371103839
 30
0.0
 40
180.0000000002537
  1
・速度圧　q=0.6EVo （N/㎡）　
 41
0.75
  7
1_100
  0
TEXT
  5
37CC
  8
画層1
 10
11635.96811069167
 20
1614.750377212345
 30
0.0
 40
78.00000000010995
  1
2
 41
0.75
  7
1_100
  0
TEXT
  5
37CD
  8
画層1
 10
9553.440993957527
 20
2083.135371104694
 30
0.0
 40
240.0000000003384
  1
設計条件
 41
0.75
  7
1_100
  0
TEXT
  5
37CE
  8
画層1
 10
9553.440993957527
 20
3223.135371106302
 30
0.0
 40
240.0000000003384
  1
提出書類
 41
0.75
  7
1_100
  0
TEXT
  5
37CF
  8
画層1
 10
13927.96973817709
 20
1480.736734797224
 30
0.0
 40
180.0000000002537
  1
Ⅲ
 41
0.75
  7
STYLE1
  0
TEXT
  5
37D0
  8
画層1
 10
2353.440993957956
 20
2323.135371105032
 30
0.0
 40
180.0000000002537
  1
・上部（補強ポール・ネット）下り防止金具付きとする
 41
0.75
  7
1_100
  0
TEXT
  5
37D1
  8
画層1
 10
2353.440993957942
 20
2623.135371105454
 30
0.0
 40
180.0000000002537
  1
・主柱ポール基礎部（ＧＬ）はＦＲＰカバーとする
 41
0.75
  7
1_100
  0
TEXT
  5
37D2
  8
画層1
 10
2353.440993957956
 20
2923.135371105876
 30
0.0
 40
180.0000000002537
  1
・主柱．端末ポール．バンド金具．ボルトは溶融亜鉛メッキ仕上げとする
 41
0.75
  7
1_100
  0
TEXT
  5
37D3
  8
画層1
 10
2053.441023748019
 20
3254.665010183424
 30
0.0
 40
240.0000000003384
  1
仕様について
 41
0.75
  7
1_100
 11
2053.441023748019
 21
3254.665010183424
 31
0.0
 73
     1
  0
TEXT
  5
37D7
  8
DEFPOINTS
 10
758.0616831298466
 20
169.7983047074595
 30
0.0
 40
180.0
  1
1/60
 41
0.75
  7
1_100
 11
758.0616831298466
 21
169.7983047074595
 31
0.0
 73
     1
  0
TEXT
  5
37D8
  8
DEFPOINTS
 10
1791.485182589524
 20
169.9298532023276
 30
0.0
 40
180.0
  1
KS2-H04
 41
0.75
  7
1_100
 11
1791.485182589524
 21
169.9298532023276
 31
0.0
 73
     1
  0
POLYLINE
  5
37D9
  8
寸法引出
  6
CONTINUOUS
 66
     1
 10
0.0
 20
0.0
 30
0.0
  0
VERTEX
  5
4BE9
  8
寸法引出
  6
CONTINUOUS
 10
19161.27338863479
 20
11678.20317771894
 30
0.0
  0
VERTEX
  5
4BEA
  8
寸法引出
  6
CONTINUOUS
 10
20022.56965413474
 20
12913.09645006432
 30
0.0
  0
VERTEX
  5
4BEB
  8
寸法引出
  6
CONTINUOUS
 10
22938.14108270617
 20
12913.09645006432
 30
0.0
  0
SEQEND
  5
4DA0
  8
寸法引出
  6
CONTINUOUS
  0
TEXT
  5
37DA
  8
寸法文字
  6
CONTINUOUS
 10
20118.56965413474
 20
12973.09645006432
 30
0.0
 40
180.0
  1
主柱KSポールφ114.3厚さ3.5mm
 41
0.75
  7
1_100
  0
POLYLINE
  5
37DB
  8
画層1
 66
     1
 10
0.0
 20
0.0
 30
0.0
 70
     1
  0
VERTEX
  5
4BEC
  8
画層1
 10
19084.12338863489
 20
10419.88973904869
 30
0.0
  0
VERTEX
  5
4BED
  8
画層1
 10
19124.12338863489
 20
10419.88973904869
 30
0.0
  0
VERTEX
  5
4BEE
  8
画層1
 10
19124.12338863489
 20
10239.88973904869
 30
0.0
  0
VERTEX
  5
4BEF
  8
画層1
 10
19084.12338863489
 20
10239.88973904869
 30
0.0
  0
SEQEND
  5
4DA1
  8
画層1
  0
LINE
  5
37DC
  8
画層1
  6
CONTINUOUS
 10
18996.97338863451
 20
12024.66502407382
 30
0.0
 11
19046.97338863451
 21
12024.66502407382
 31
0.0
  0
LINE
  5
37DD
  8
画層1
  6
CONTINUOUS
 10
18996.97338863451
 20
12049.66502407382
 30
0.0
 11
18996.97338863451
 21
11999.66502407382
 31
0.0
  0
LINE
  5
37DE
  8
画層1
  6
CONTINUOUS
 10
19086.97338863451
 20
11999.66502407382
 30
0.0
 11
19046.97338863451
 21
11999.66502407382
 31
0.0
  0
LINE
  5
37DF
  8
画層1
  6
CONTINUOUS
 10
19086.97338863451
 20
12049.66502407382
 30
0.0
 11
19046.97338863451
 21
12049.66502407382
 31
0.0
  0
LINE
  5
37E0
  8
画層1
  6
CONTINUOUS
 10
19046.97338863451
 20
12064.66502407382
 30
0.0
 11
19161.27338863479
 21
12064.66502407382
 31
0.0
  0
LINE
  5
37E1
  8
画層1
  6
CONTINUOUS
 10
19121.27338863479
 20
11999.66502407382
 30
0.0
 11
19161.27338863479
 21
11999.66502407382
 31
0.0
  0
LINE
  5
37E2
  8
画層1
  6
CONTINUOUS
 10
19121.27338863479
 20
12049.66502407382
 30
0.0
 11
19161.27338863479
 21
12049.66502407382
 31
0.0
  0
LINE
  5
37E3
  8
画層1
  6
CONTINUOUS
 10
19121.27338863479
 20
12049.66502407382
 30
0.0
 11
19121.27338863479
 21
11999.66502407382
 31
0.0
  0
LINE
  5
37E4
  8
画層1
  6
CONTINUOUS
 10
19086.97338863451
 20
12049.66502407382
 30
0.0
 11
19086.97338863451
 21
11999.66502407382
 31
0.0
  0
CIRCLE
  5
37E5
  8
画層1
  6
CONTINUOUS
 10
19104.12338863489
 20
12024.66502407382
 30
0.0
 40
10.9509940156
  0
LINE
  5
37E6
  8
画層1
  6
CONTINUOUS
 10
11180.59103023645
 20
11949.66502407382
 30
0.0
 11
11180.59103023645
 21
11999.66502407382
 31
0.0
  0
LINE
  5
37E7
  8
画層1
  6
CONTINUOUS
 10
11048.44103023654
 20
11999.66502407382
 30
0.0
 11
11048.44103023654
 21
11949.66502407382
 31
0.0
  0
LINE
  5
37E8
  8
画層1
  6
CONTINUOUS
 10
10966.29103023664
 20
11999.66502407382
 30
0.0
 11
10966.29103023664
 21
11949.66502407382
 31
0.0
  0
CIRCLE
  5
37E9
  8
画層1
  6
CONTINUOUS
 10
10991.29103023664
 20
11974.66502407382
 30
0.0
 40
10.9509940156
  0
LINE
  5
37EA
  8
画層1
  6
CONTINUOUS
 10
11098.44103023654
 20
11949.66502407382
 30
0.0
 11
11098.44103023654
 21
11999.66502407382
 31
0.0
  0
CIRCLE
  5
37EB
  8
画層1
  6
CONTINUOUS
 10
11155.59103023645
 20
11974.66502407382
 30
0.0
 40
10.9509940156
  0
LINE
  5
37EC
  8
画層1
  6
CONTINUOUS
 10
10966.29103023664
 20
11949.66502407382
 30
0.0
 11
11180.59103023645
 21
11949.66502407382
 31
0.0
  0
LINE
  5
37ED
  8
画層1
  6
CONTINUOUS
 10
11180.59103023645
 20
11999.66502407382
 30
0.0
 11
10966.29103023664
 21
11999.66502407382
 31
0.0
  0
CIRCLE
  5
37EE
  8
画層1
  6
CONTINUOUS
 10
11155.59103023645
 20
12024.66502407382
 30
0.0
 40
10.9509940156
  0
LINE
  5
37EF
  8
画層1
  6
CONTINUOUS
 10
11180.59103023645
 20
12049.66502407382
 30
0.0
 11
10966.29103023664
 21
12049.66502407382
 31
0.0
  0
LINE
  5
37F0
  8
画層1
  6
CONTINUOUS
 10
10966.29103023664
 20
11999.66502407382
 30
0.0
 11
11180.59103023645
 21
11999.66502407382
 31
0.0
  0
LINE
  5
37F1
  8
画層1
  6
CONTINUOUS
 10
11098.44103023654
 20
11999.66502407382
 30
0.0
 11
11098.44103023654
 21
12049.66502407382
 31
0.0
  0
CIRCLE
  5
37F2
  8
画層1
  6
CONTINUOUS
 10
10991.29103023664
 20
12024.66502407382
 30
0.0
 40
10.9509940156
  0
LINE
  5
37F3
  8
画層1
  6
CONTINUOUS
 10
10966.29103023664
 20
12049.66502407382
 30
0.0
 11
10966.29103023664
 21
11999.66502407382
 31
0.0
  0
LINE
  5
37F4
  8
画層1
  6
CONTINUOUS
 10
11048.44103023654
 20
12049.66502407382
 30
0.0
 11
11048.44103023654
 21
11999.66502407382
 31
0.0
  0
LINE
  5
37F5
  8
画層1
  6
CONTINUOUS
 10
11016.29103023664
 20
12064.66502407382
 30
0.0
 11
11130.59103023645
 21
12064.66502407382
 31
0.0
  0
LINE
  5
37F6
  8
画層1
  6
CONTINUOUS
 10
11180.59103023645
 20
11999.66502407382
 30
0.0
 11
11180.59103023645
 21
12049.66502407382
 31
0.0
  0
POLYLINE
  5
37F7
  8
寸法引出
  6
CONTINUOUS
 66
     1
 10
0.0
 20
0.0
 30
0.0
  0
VERTEX
  5
4BF0
  8
寸法引出
  6
CONTINUOUS
 10
13088.4639833593
 20
12024.66502407382
 30
0.0
  0
VERTEX
  5
4BF1
  8
寸法引出
  6
CONTINUOUS
 10
13341.52511832399
 20
12543.79291864953
 30
0.0
  0
VERTEX
  5
4BF2
  8
寸法引出
  6
CONTINUOUS
 10
16527.09654689542
 20
12543.79291864953
 30
0.0
  0
SEQEND
  5
4DA2
  8
寸法引出
  6
CONTINUOUS
  0
INSERT
  5
37F8
  8
寸法文字
  6
CONTINUOUS
  2
*X34
 10
0.0
 20
0.0
 30
0.0
  0
TEXT
  5
37F9
  8
寸法文字
  6
CONTINUOUS
 10
20030.14019397226
 20
12629.14147580328
 30
0.0
 40
180.0
  1
（溶融亜鉛メッキ450g/㎡）
 41
0.75
  7
1_100
  0
TEXT
  5
37FA
  8
寸法文字
  6
CONTINUOUS
 10
2639.555099777528
 20
12581.13613778239
 30
0.0
 40
180.0
  1
上部ネット下り防止付き
 41
0.75
  7
1_100
  0
POLYLINE
  5
37FB
  8
寸法引出
  6
CONTINUOUS
 66
     1
 10
0.0
 20
0.0
 30
0.0
  0
VERTEX
  5
4BF6
  8
寸法引出
  6
CONTINUOUS
 10
5073.441030236543
 20
12064.66502407382
 30
0.0
  0
VERTEX
  5
4BF7
  8
寸法引出
  6
CONTINUOUS
 10
4465.805099777528
 20
12521.13613778239
 30
0.0
  0
VERTEX
  5
4BF8
  8
寸法引出
  6
CONTINUOUS
 10
2639.555099777528
 20
12521.13613778239
 30
0.0
  0
SEQEND
  5
4DA3
  8
寸法引出
  6
CONTINUOUS
  0
TEXT
  5
37FC
  8
寸法文字
  6
CONTINUOUS
 10
1562.511894285263
 20
11934.14017960059
 30
0.0
 40
180.0
  1
主柱KSポールφ114.3厚さ3.5mm
 41
0.75
  7
1_100
  0
POLYLINE
  5
37FD
  8
寸法引出
  6
CONTINUOUS
 66
     1
 10
0.0
 20
0.0
 30
0.0
  0
VERTEX
  5
4BF9
  8
寸法引出
  6
CONTINUOUS
 10
5016.291030236636
 20
11497.74644214406
 30
0.0
  0
VERTEX
  5
4BFA
  8
寸法引出
  6
CONTINUOUS
 10
4478.083322856692
 20
11874.14017960059
 30
0.0
  0
VERTEX
  5
4BFB
  8
寸法引出
  6
CONTINUOUS
 10
1562.511894285264
 20
11874.14017960059
 30
0.0
  0
SEQEND
  5
4DA4
  8
寸法引出
  6
CONTINUOUS
  0
TEXT
  5
37FE
  8
寸法文字
  6
CONTINUOUS
 10
2611.965620617499
 20
11174.50584386941
 30
0.0
 40
180.0
  1
メッセンワイヤー22m㎡
 41
0.75
  7
1_100
  0
POLYLINE
  5
37FF
  8
寸法引出
  6
CONTINUOUS
 66
     1
 10
0.0
 20
0.0
 30
0.0
  0
VERTEX
  5
4BFC
  8
寸法引出
  6
CONTINUOUS
 10
5073.441030236543
 20
10768.64696641592
 30
0.0
  0
VERTEX
  5
4BFD
  8
寸法引出
  6
CONTINUOUS
 10
4566.465620617499
 20
11114.50584386941
 30
0.0
  0
VERTEX
  5
4BFE
  8
寸法引出
  6
CONTINUOUS
 10
2634.465620617499
 20
11114.50584386941
 30
0.0
  0
SEQEND
  5
4DA5
  8
寸法引出
  6
CONTINUOUS
  0
TEXT
  5
3800
  8
寸法文字
  6
CONTINUOUS
 10
2446.464885625637
 20
11621.55432272146
 30
0.0
 40
180.0
  1
（STK-400鋼管）
 41
0.75
  7
1_100
  0
LINE
  5
3801
  8
画層1
  6
CONTINUOUS
 10
5180.59103023645
 20
11949.66502407382
 30
0.0
 11
5180.59103023645
 21
11999.66502407382
 31
0.0
1001
ACAD
1000
ASC_BOUNDS
1002
{
1070
    19
1005
3760
1002
}
  0
CIRCLE
  5
3802
  8
画層1
  6
CONTINUOUS
 10
5155.59103023645
 20
11974.66502407382
 30
0.0
 40
10.9509940156
  0
LINE
  5
3803
  8
画層1
  6
CONTINUOUS
 10
4966.291030236636
 20
11999.66502407382
 30
0.0
 11
4966.291030236636
 21
11949.66502407382
 31
0.0
  0
CIRCLE
  5
3804
  8
画層1
  6
CONTINUOUS
 10
4991.291030236636
 20
11974.66502407382
 30
0.0
 40
10.9509940156
  0
LINE
  5
3805
  8
画層1
  6
CONTINUOUS
 10
5048.441030236543
 20
11999.66502407382
 30
0.0
 11
5048.441030236543
 21
11949.66502407382
 31
0.0
  0
LINE
  5
3806
  8
画層1
  6
CONTINUOUS
 10
5098.441030236543
 20
11949.66502407382
 30
0.0
 11
5098.441030236543
 21
11999.66502407382
 31
0.0
  0
POLYLINE
  5
3807
  8
画層1
 66
     1
 10
0.0
 20
0.0
 30
0.0
 70
     1
  0
VERTEX
  5
4BFF
  8
画層1
 10
5054.559891777229
 20
10419.66502407382
 30
0.0
  0
VERTEX
  5
4C00
  8
画層1
 10
5094.559891777229
 20
10419.66502407382
 30
0.0
  0
VERTEX
  5
4C01
  8
画層1
 10
5094.559891777229
 20
10239.66502407382
 30
0.0
  0
VERTEX
  5
4C02
  8
画層1
 10
5054.559891777229
 20
10239.66502407382
 30
0.0
  0
SEQEND
  5
4DA6
  8
画層1
  0
LINE
  5
3808
  8
画層1
  6
CONTINUOUS
 10
4966.291030236636
 20
11949.66502407382
 30
0.0
 11
5180.59103023645
 21
11949.66502407382
 31
0.0
1001
ACAD
1000
ASC_BOUNDS
1002
{
1070
    19
1005
3760
1002
}
  0
POLYLINE
  5
3809
  8
画層1
 66
     1
 10
0.0
 20
0.0
 30
0.0
 70
     1
1001
ACAD
1000
ASC_BOUNDS
1002
{
1070
    19
1005
3760
1002
}
  0
VERTEX
  5
4C03
  8
画層1
 10
5245.59103023645
 20
12044.44130341269
 30
0.0
  0
VERTEX
  5
4C04
  8
画層1
 10
5425.59103023645
 20
12044.44130341269
 30
0.0
  0
VERTEX
  5
4C05
  8
画層1
 10
5425.59103023645
 20
12004.44130341269
 30
0.0
  0
VERTEX
  5
4C06
  8
画層1
 10
5245.59103023645
 20
12004.44130341269
 30
0.0
  0
SEQEND
  5
4DA7
  8
画層1
  0
LINE
  5
380A
  8
画層1
  6
CONTINUOUS
 10
5180.59103023645
 20
11999.66502407382
 30
0.0
 11
4966.291030236636
 21
11999.66502407382
 31
0.0
  0
LINE
  5
380B
  8
画層1
  6
CONTINUOUS
 10
5180.59103023645
 20
12049.66502407382
 30
0.0
 11
4966.291030236636
 21
12049.66502407382
 31
0.0
  0
LINE
  5
380C
  8
画層1
  6
CONTINUOUS
 10
4966.291030236636
 20
11999.66502407382
 30
0.0
 11
5180.59103023645
 21
11999.66502407382
 31
0.0
  0
LINE
  5
380D
  8
画層1
  6
CONTINUOUS
 10
5098.441030236543
 20
11999.66502407382
 30
0.0
 11
5098.441030236543
 21
12049.66502407382
 31
0.0
  0
LINE
  5
380E
  8
画層1
  6
CONTINUOUS
 10
5048.441030236543
 20
12049.66502407382
 30
0.0
 11
5048.441030236543
 21
11999.66502407382
 31
0.0
  0
CIRCLE
  5
380F
  8
画層1
  6
CONTINUOUS
 10
4991.291030236636
 20
12024.66502407382
 30
0.0
 40
10.9509940156
  0
LINE
  5
3810
  8
画層1
  6
CONTINUOUS
 10
4966.291030236636
 20
12049.66502407382
 30
0.0
 11
4966.291030236636
 21
11999.66502407382
 31
0.0
  0
LINE
  5
3811
  8
画層1
  6
CONTINUOUS
 10
5016.291030236636
 20
12064.66502407382
 30
0.0
 11
5130.59103023645
 21
12064.66502407382
 31
0.0
  0
CIRCLE
  5
3812
  8
画層1
  6
CONTINUOUS
 10
5155.59103023645
 20
12024.66502407382
 30
0.0
 40
10.9509940156
  0
LINE
  5
3813
  8
画層1
  6
CONTINUOUS
 10
5180.59103023645
 20
11999.66502407382
 30
0.0
 11
5180.59103023645
 21
12049.66502407382
 31
0.0
1001
ACAD
1000
ASC_BOUNDS
1002
{
1070
    19
1005
3760
1002
}
  0
LINE
  5
3814
  8
画層1
  6
CONTINUOUS
 10
5230.59103023645
 20
12024.66502407382
 30
0.0
 11
5180.59103023645
 21
12024.66502407382
 31
0.0
  0
LINE
  5
3815
  8
画層1
  6
CONTINUOUS
 10
16024.12338829349
 20
12024.66502407382
 30
0.0
 11
5073.441030236543
 21
12024.66502407382
 31
0.0
1001
ACAD
1000
ASC_BOUNDS
1002
{
1070
    19
1005
3760
1002
}
  0
TEXT
  5
3816
  8
寸法文字
  6
CONTINUOUS
 10
7947.34395784291
 20
11535.6682446548
 30
0.0
 40
180.0
  1
エコネット365T/56本×40mm目
 41
0.75
  7
1_100
  0
POLYLINE
  5
3817
  8
寸法引出
  6
CONTINUOUS
 66
     1
 10
0.0
 20
0.0
 30
0.0
  0
VERTEX
  5
4C07
  8
寸法引出
  6
CONTINUOUS
 10
7621.584226359264
 20
11022.8981718356
 30
0.0
  0
VERTEX
  5
4C08
  8
寸法引出
  6
CONTINUOUS
 10
7860.34395784291
 20
11415.6682446548
 30
0.0
  0
VERTEX
  5
4C09
  8
寸法引出
  6
CONTINUOUS
 10
10719.34395784291
 20
11415.6682446548
 30
0.0
  0
SEQEND
  5
4DA8
  8
寸法引出
  6
CONTINUOUS
  0
LINE
  5
3818
  8
画層3-1
  6
CONTINUOUS
 10
8993.09103023645
 20
8729.66502407382
 30
0.0
 11
9153.791030236636
 21
8729.66502407382
 31
0.0
1001
ACAD
1000
ASC_BOUNDS
1002
{
1070
    19
1005
49D4
1002
}
  0
LINE
  5
3819
  8
画層3-1
  6
CONTINUOUS
 10
9153.791030236636
 20
8759.66502407382
 30
0.0
 11
8993.09103023645
 21
8759.66502407382
 31
0.0
1001
ACAD
1000
ASC_BOUNDS
1002
{
1070
    19
1005
49D4
1002
}
  0
LINE
  5
381A
  8
画層3-1
  6
CONTINUOUS
 10
9153.791030236636
 20
9419.66502407382
 30
0.0
 11
8993.09103023645
 21
9419.66502407382
 31
0.0
1001
ACAD
1000
ASC_BOUNDS
1002
{
1070
    19
1005
49D4
1002
}
  0
LINE
  5
381B
  8
画層3-1
  6
CONTINUOUS
 10
8993.09103023645
 20
9389.66502407382
 30
0.0
 11
9153.791030236636
 21
9389.66502407382
 31
0.0
1001
ACAD
1000
ASC_BOUNDS
1002
{
1070
    19
1005
49D4
1002
}
  0
LINE
  5
381C
  8
画層3-1
  6
CONTINUOUS
 10
9109.241030236823
 20
9986.56502407396
 30
0.0
 11
9037.64103023673
 21
9986.56502407396
 31
0.0
1001
ACAD
1000
ASC_BOUNDS
1002
{
1070
    19
1005
49D4
1002
}
  0
POLYLINE
  5
381D
  8
画層3-2
 66
     1
 10
0.0
 20
0.0
 30
0.0
  0
VERTEX
  5
4C0A
  8
画層3-2
 10
9198.441030236543
 20
8064.66502407382
 30
0.0
  0
VERTEX
  5
4C0B
  8
画層3-2
 10
9198.441030236543
 20
7614.66502407382
 30
0.0
  0
VERTEX
  5
4C0C
  8
画層3-2
 10
8948.441030236543
 20
7614.66502407382
 30
0.0
  0
VERTEX
  5
4C0D
  8
画層3-2
 10
8948.441030236543
 20
8064.66502407382
 30
0.0
  0
SEQEND
  5
4DA9
  8
画層3-2
  0
INSERT
  5
381E
  8
画層3-3
  2
*X35
 10
0.0
 20
0.0
 30
0.0
1001
ACAD
1000
HATCH
1002
{
1070
    19
1000
PLAST
1040
1800.0
1040
0.7853981633974483
1000
R14_HATCH_DATA
1000
381E
1011
1.0
1021
0.0
1031
0.0
1021
0.0
1031
0.0
1011
0.0
1021
1.0
1031
0.0
1021
1.0
1031
0.0
1011
0.0
1021
0.0
1031
1.0
1021
0.0
1031
1.0
1040
0.0
1010
0.0
1020
0.0
1030
1.0
1020
0.0
1030
1.0
1000
PLAST
1070
     0
1070
     1
1071
        1
1071
        7
1070
     0
1070
     1
1071
        4
1040
9198.441030236543
1040
8064.66502407382
1040
8948.441030236543
1040
8064.66502407382
1040
8948.441030236543
1040
7614.66502407382
1040
9198.441030236543
1040
7614.66502407382
1071
        0
1070
     0
1070
     1
1040
0.7853981633974483
1040
1800.0
1070
     0
1070
     3
1040
0.7853981633974483
1040
2931.098374470719
1040
1622.998007562735
1040
-318.1980515339463
1040
318.1980515339464
1070
     0
1040
0.7853981633974483
1040
2891.323618028895
1040
1662.772764004559
1040
-318.1980515339463
1040
318.1980515339464
1070
     0
1040
0.7853981633974483
1040
2851.548861587071
1040
1702.547520446151
1040
-318.1980515339463
1040
318.1980515339464
1070
     0
1040
2.4753793195157
1071
        1
1040
9187.334228000254
1040
7823.872472081592
1040
0.0
1002
}
  0
LINE
  5
381F
  8
画層3-1
  6
CONTINUOUS
 10
9048.041030236636
 20
7864.66502407382
 30
0.0
 11
9098.84103023645
 21
7864.66502407382
 31
0.0
  0
LINE
  5
3820
  8
画層3-1
  6
CONTINUOUS
 10
9008.09103023645
 20
8142.765024073913
 30
0.0
 11
9138.791030236636
 21
8142.765024073913
 31
0.0
  0
LINE
  5
3821
  8
画層3-2
  6
CONTINUOUS
 10
9008.09103023645
 20
9419.66502407382
 30
0.0
 11
9008.09103023645
 21
10001.56502407396
 31
0.0
  0
ARC
  5
3822
  8
画層3-1
  6
CONTINUOUS
 10
9033.041030236636
 20
9986.56502407396
 30
0.0
 40
15.0
 50
0.0
 51
90.0
  0
LINE
  5
3823
  8
画層3-1
  6
CONTINUOUS
 10
9022.64103023673
 20
10001.56502407396
 30
0.0
 11
9037.64103023673
 21
9986.56502407396
 31
0.0
  0
LINE
  5
3824
  8
画層3-1
  6
CONTINUOUS
 10
9048.041030236636
 20
9389.66502407382
 30
0.0
 11
9048.041030236636
 21
8759.66502407382
 31
0.0
  0
LINE
  5
3825
  8
画層3-2
  6
CONTINUOUS
 10
9008.09103023645
 20
8759.66502407382
 30
0.0
 11
9008.09103023645
 21
9389.66502407382
 31
0.0
  0
LINE
  5
3826
  8
画層3-1
  6
CONTINUOUS
 10
8993.09103023645
 20
8759.66502407382
 30
0.0
 11
8993.09103023645
 21
8729.66502407382
 31
0.0
  0
LINE
  5
3827
  8
画層3-1
  6
CONTINUOUS
 10
9048.041030236636
 20
9986.56502407396
 30
0.0
 11
9048.041030236636
 21
9419.66502407382
 31
0.0
  0
LINE
  5
3828
  8
画層3-1
  6
CONTINUOUS
 10
8993.09103023645
 20
9419.66502407382
 30
0.0
 11
8993.09103023645
 21
9389.66502407382
 31
0.0
  0
LINE
  5
3829
  8
画層3-1
  6
CONTINUOUS
 10
9022.64103023673
 20
10039.66502407382
 30
0.0
 11
9022.64103023673
 21
10001.56502407396
 31
0.0
  0
LINE
  5
382A
  8
画層3-1
  6
CONTINUOUS
 10
9048.041030236636
 20
8084.665024074053
 30
0.0
 11
9048.041030236636
 21
7864.66502407382
 31
0.0
  0
LINE
  5
382B
  8
画層3-通り芯
  6
DASHDOT
 10
9073.441030236543
 20
7518.295468942055
 30
0.0
 11
9073.441030236543
 21
10064.66502407405
 31
0.0
  0
LINE
  5
382C
  8
画層3-1
  6
CONTINUOUS
 10
9048.041030236636
 20
8729.66502407382
 30
0.0
 11
9048.041030236636
 21
8122.765024073913
 31
0.0
  0
LINE
  5
382D
  8
画層3-2
  6
CONTINUOUS
 10
9008.09103023645
 20
8064.66502407382
 30
0.0
 11
9008.09103023645
 21
8729.66502407382
 31
0.0
  0
POLYLINE
  5
382E
  8
画層2
 66
     1
 10
0.0
 20
0.0
 30
0.0
1001
ACAD
1000
ASC_BOUNDS
1002
{
1070
    19
1005
46F8
1005
46F8
1002
}
  0
VERTEX
  5
4C12
  8
画層2
 10
18854.12338863489
 20
8064.665024073821
 30
0.0
  0
VERTEX
  5
4C13
  8
画層2
 10
18854.12338863489
 20
7764.665024073821
 30
0.0
  0
VERTEX
  5
4C14
  8
画層2
 10
18879.12338863489
 20
7764.665024073821
 30
0.0
  0
VERTEX
  5
4C15
  8
画層2
 10
18879.12338863489
 20
6964.665024073821
 30
0.0
  0
VERTEX
  5
4C16
  8
画層2
 10
19329.12338863489
 20
6964.665024073821
 30
0.0
  0
VERTEX
  5
4C17
  8
画層2
 10
19329.12338863489
 20
7764.665024073821
 30
0.0
  0
VERTEX
  5
4C18
  8
画層2
 10
19354.12338863489
 20
7764.665024073821
 30
0.0
  0
VERTEX
  5
4C19
  8
画層2
 10
19354.12338863489
 20
8064.665024073821
 30
0.0
  0
SEQEND
  5
4DAA
  8
画層2
  0
LINE
  5
382F
  8
ﾊｯﾁﾝｸﾞ
  6
CONTINUOUS
 10
19289.08251190454
 20
7064.66502407382
 30
0.0
 11
19305.18964521203
 21
7042.821948445428
 31
0.0
  0
LINE
  5
3830
  8
ﾊｯﾁﾝｸﾞ
  6
CONTINUOUS
 10
19260.06572388707
 20
6964.66502407382
 30
0.0
 11
19317.80075080589
 21
7064.66502407382
 31
0.0
  0
LINE
  5
3831
  8
画層2
  6
CONTINUOUS
 10
19329.12338863489
 20
7064.66502407382
 30
0.0
 11
18879.12338863489
 21
7064.66502407382
 31
0.0
1001
ACAD
1000
ASC_BOUNDS
1002
{
1070
    19
1005
46F8
1005
46F8
1002
}
  0
LINE
  5
3832
  8
画層2
  6
CONTINUOUS
 10
18305.31193098108
 20
8064.66502407382
 30
0.0
 11
19754.12338863489
 21
8064.66502407382
 31
0.0
1001
ACAD
1000
ASC_BOUNDS
1002
{
1070
    19
1005
46F8
1005
46F8
1002
}
  0
LINE
  5
3833
  8
ﾊｯﾁﾝｸﾞ
  6
CONTINUOUS
 10
18798.26768841863
 20
8064.66502407382
 30
0.0
 11
18854.12338863489
 21
8008.809323858262
 31
0.0
  0
LINE
  5
3834
  8
ﾊｯﾁﾝｸﾞ
  6
CONTINUOUS
 10
18719.07172892558
 20
8064.66502407382
 30
0.0
 11
18839.07172892651
 21
7944.66502407382
 31
0.0
  0
LINE
  5
3835
  8
ﾊｯﾁﾝｸﾞ
  6
CONTINUOUS
 10
18639.87576943252
 20
8064.66502407382
 30
0.0
 11
18759.87576943346
 21
7944.66502407382
 31
0.0
  0
LINE
  5
3836
  8
ﾊｯﾁﾝｸﾞ
  6
CONTINUOUS
 10
18731.54603095994
 20
7972.994762546874
 30
0.0
 11
18703.21629248735
 21
7944.66502407382
 31
0.0
  0
LINE
  5
3837
  8
ﾊｯﾁﾝｸﾞ
  6
CONTINUOUS
 10
18691.94805121318
 20
8012.5927422934
 30
0.0
 11
18624.02033299383
 21
7944.66502407382
 31
0.0
  0
LINE
  5
3838
  8
ﾊｯﾁﾝｸﾞ
  6
CONTINUOUS
 10
18652.35007146688
 20
8052.190722039693
 30
0.0
 11
18544.82437350124
 21
7944.66502407382
 31
0.0
  0
LINE
  5
3839
  8
ﾊｯﾁﾝｸﾞ
  6
CONTINUOUS
 10
18493.95815248031
 20
7972.994762546874
 30
0.0
 11
18465.62841400773
 21
7944.66502407382
 31
0.0
  0
LINE
  5
383A
  8
ﾊｯﾁﾝｸﾞ
  6
CONTINUOUS
 10
18454.36017273402
 20
8012.5927422934
 30
0.0
 11
18386.43245451467
 21
7944.66502407382
 31
0.0
  0
LINE
  5
383B
  8
ﾊｯﾁﾝｸﾞ
  6
CONTINUOUS
 10
18560.67980993947
 20
8064.665024074053
 30
0.0
 11
18612.75209172059
 21
8012.5927422934
 31
0.0
  0
LINE
  5
383C
  8
ﾊｯﾁﾝｸﾞ
  6
CONTINUOUS
 10
18481.48385044642
 20
8064.66502407382
 30
0.0
 11
18573.15411197383
 21
7972.994762546641
 31
0.0
  0
LINE
  5
383D
  8
ﾊｯﾁﾝｸﾞ
  6
CONTINUOUS
 10
18402.28789095337
 20
8064.66502407382
 30
0.0
 11
18522.2878909543
 21
7944.66502407382
 31
0.0
  0
LINE
  5
383E
  8
ﾊｯﾁﾝｸﾞ
  6
CONTINUOUS
 10
18414.76219298773
 20
8052.190722039693
 30
0.0
 11
18360.99934400467
 21
7998.42787305664
 31
0.0
  0
LINE
  5
383F
  8
ﾊｯﾁﾝｸﾞ
  6
CONTINUOUS
 10
19272.90400774673
 20
6986.901584000585
 30
0.0
 11
19285.74229160592
 21
6964.66502407382
 31
0.0
  0
LINE
  5
3840
  8
ﾊｯﾁﾝｸﾞ
  6
CONTINUOUS
 10
18922.67235039071
 20
7064.66502407382
 30
0.0
 11
18938.7794836982
 21
7042.821948445428
 31
0.0
  0
LINE
  5
3841
  8
ﾊｯﾁﾝｸﾞ
  6
CONTINUOUS
 10
18906.49384623289
 20
6986.901584000585
 30
0.0
 11
18919.33213009209
 21
6964.66502407382
 31
0.0
  0
LINE
  5
3842
  8
ﾊｯﾁﾝｸﾞ
  6
CONTINUOUS
 10
18893.65556237323
 20
6964.66502407382
 30
0.0
 11
18951.39058929205
 21
7064.66502407382
 31
0.0
  0
LINE
  5
3843
  8
ﾊｯﾁﾝｸﾞ
  6
CONTINUOUS
 10
18985.25810275169
 20
6964.66502407382
 30
0.0
 11
19042.99312967051
 21
7064.66502407382
 31
0.0
  0
LINE
  5
3844
  8
ﾊｯﾁﾝｸﾞ
  6
CONTINUOUS
 10
18998.09638661135
 20
6986.901584000585
 30
0.0
 11
19010.93467047055
 21
6964.66502407382
 31
0.0
  0
LINE
  5
3845
  8
ﾊｯﾁﾝｸﾞ
  6
CONTINUOUS
 10
19014.27489076916
 20
7064.66502407382
 30
0.0
 11
19030.38202407666
 21
7042.821948445428
 31
0.0
  0
LINE
  5
3846
  8
ﾊｯﾁﾝｸﾞ
  6
CONTINUOUS
 10
19168.46318350861
 20
6964.66502407382
 30
0.0
 11
19226.19821042743
 21
7064.66502407382
 31
0.0
  0
LINE
  5
3847
  8
ﾊｯﾁﾝｸﾞ
  6
CONTINUOUS
 10
19076.86064312969
 20
6964.66502407382
 30
0.0
 11
19134.59567004897
 21
7064.66502407382
 31
0.0
  0
LINE
  5
3848
  8
ﾊｯﾁﾝｸﾞ
  6
CONTINUOUS
 10
19181.30146736827
 20
6986.901584000585
 30
0.0
 11
19194.13975122746
 21
6964.66502407382
 31
0.0
  0
LINE
  5
3849
  8
ﾊｯﾁﾝｸﾞ
  6
CONTINUOUS
 10
19089.69892698981
 20
6986.901584000585
 30
0.0
 11
19102.537210849
 21
6964.66502407382
 31
0.0
  0
LINE
  5
384A
  8
ﾊｯﾁﾝｸﾞ
  6
CONTINUOUS
 10
19105.87743114762
 20
7064.66502407382
 30
0.0
 11
19121.98456445512
 21
7042.821948445428
 31
0.0
  0
LINE
  5
384B
  8
ﾊｯﾁﾝｸﾞ
  6
CONTINUOUS
 10
19197.47997152608
 20
7064.66502407382
 30
0.0
 11
19213.58710483358
 21
7042.821948445428
 31
0.0
  0
LINE
  5
384C
  8
ﾊｯﾁﾝｸﾞ
  6
CONTINUOUS
 10
10767.58533002075
 20
8064.665024073587
 30
0.0
 11
10823.44103023654
 21
8008.809323858262
 31
0.0
  0
LINE
  5
384D
  8
ﾊｯﾁﾝｸﾞ
  6
CONTINUOUS
 10
10688.38937052723
 20
8064.66502407382
 30
0.0
 11
10808.38937052817
 21
7944.665024073587
 31
0.0
  0
LINE
  5
384E
  8
ﾊｯﾁﾝｸﾞ
  6
CONTINUOUS
 10
10609.19341103418
 20
8064.66502407382
 30
0.0
 11
10729.19341103511
 21
7944.665024073587
 31
0.0
  0
LINE
  5
384F
  8
ﾊｯﾁﾝｸﾞ
  6
CONTINUOUS
 10
10700.86367256159
 20
7972.994762546641
 30
0.0
 11
10672.53393408901
 21
7944.665024073587
 31
0.0
  0
LINE
  5
3850
  8
ﾊｯﾁﾝｸﾞ
  6
CONTINUOUS
 10
10661.26569281484
 20
8012.592742293167
 30
0.0
 11
10593.33797459549
 21
7944.66502407382
 31
0.0
  0
LINE
  5
3851
  8
ﾊｯﾁﾝｸﾞ
  6
CONTINUOUS
 10
10621.66771306854
 20
8052.190722039693
 30
0.0
 11
10514.1420151029
 21
7944.66502407382
 31
0.0
  0
LINE
  5
3852
  8
ﾊｯﾁﾝｸﾞ
  6
CONTINUOUS
 10
10463.27579408244
 20
7972.994762546641
 30
0.0
 11
10434.94605560938
 21
7944.665024073587
 31
0.0
  0
LINE
  5
3853
  8
ﾊｯﾁﾝｸﾞ
  6
CONTINUOUS
 10
10423.67781433568
 20
8012.592742293167
 30
0.0
 11
10355.75009611633
 21
7944.66502407382
 31
0.0
  0
LINE
  5
3854
  8
ﾊｯﾁﾝｸﾞ
  6
CONTINUOUS
 10
10529.99745154113
 20
8064.66502407382
 30
0.0
 11
10582.06973332225
 21
8012.592742293167
 31
0.0
  0
LINE
  5
3855
  8
ﾊｯﾁﾝｸﾞ
  6
CONTINUOUS
 10
10450.80149204808
 20
8064.66502407382
 30
0.0
 11
10542.47175357549
 21
7972.994762546641
 31
0.0
  0
LINE
  5
3856
  8
ﾊｯﾁﾝｸﾞ
  6
CONTINUOUS
 10
10371.60553255503
 20
8064.66502407382
 30
0.0
 11
10491.60553255596
 21
7944.66502407382
 31
0.0
  0
LINE
  5
3857
  8
ﾊｯﾁﾝｸﾞ
  6
CONTINUOUS
 10
10384.07983458939
 20
8052.190722039693
 30
0.0
 11
10330.31698560633
 21
7998.42787305664
 31
0.0
  0
LINE
  5
3858
  8
ﾊｯﾁﾝｸﾞ
  6
CONTINUOUS
 10
11762.8022258837
 20
8052.190722039693
 30
0.0
 11
11816.56507486675
 21
7998.42787305664
 31
0.0
  0
LINE
  5
3859
  8
ﾊｯﾁﾝｸﾞ
  6
CONTINUOUS
 10
11775.27652791806
 20
8064.66502407382
 30
0.0
 11
11655.27652791713
 21
7944.66502407382
 31
0.0
  0
LINE
  5
385A
  8
ﾊｯﾁﾝｸﾞ
  6
CONTINUOUS
 10
11696.08056842501
 20
8064.66502407382
 30
0.0
 11
11604.41030689713
 21
7972.994762546641
 31
0.0
  0
LINE
  5
385B
  8
ﾊｯﾁﾝｸﾞ
  6
CONTINUOUS
 10
11616.88460893149
 20
8064.66502407382
 30
0.0
 11
11564.81232715084
 21
8012.592742293167
 31
0.0
  0
LINE
  5
385C
  8
ﾊｯﾁﾝｸﾞ
  6
CONTINUOUS
 10
11723.20424613694
 20
8012.592742293167
 30
0.0
 11
11791.13196435675
 21
7944.66502407382
 31
0.0
  0
LINE
  5
385D
  8
ﾊｯﾁﾝｸﾞ
  6
CONTINUOUS
 10
11683.60626639065
 20
7972.994762546641
 30
0.0
 11
11711.93600486324
 21
7944.665024073587
 31
0.0
  0
LINE
  5
385E
  8
ﾊｯﾁﾝｸﾞ
  6
CONTINUOUS
 10
11525.21434740454
 20
8052.190722039693
 30
0.0
 11
11632.74004537018
 21
7944.66502407382
 31
0.0
  0
LINE
  5
385F
  8
ﾊｯﾁﾝｸﾞ
  6
CONTINUOUS
 10
11485.61636765779
 20
8012.592742293167
 30
0.0
 11
11553.54408587713
 21
7944.66502407382
 31
0.0
  0
LINE
  5
3860
  8
ﾊｯﾁﾝｸﾞ
  6
CONTINUOUS
 10
11446.01838791149
 20
7972.994762546641
 30
0.0
 11
11474.34812638408
 21
7944.665024073587
 31
0.0
  0
LINE
  5
3861
  8
ﾊｯﾁﾝｸﾞ
  6
CONTINUOUS
 10
11537.68864943844
 20
8064.66502407382
 30
0.0
 11
11417.68864943797
 21
7944.665024073587
 31
0.0
  0
LINE
  5
3862
  8
ﾊｯﾁﾝｸﾞ
  6
CONTINUOUS
 10
11458.49268994539
 20
8064.66502407382
 30
0.0
 11
11338.49268994492
 21
7944.665024073587
 31
0.0
  0
LINE
  5
3863
  8
ﾊｯﾁﾝｸﾞ
  6
CONTINUOUS
 10
11379.29673045233
 20
8064.665024073587
 30
0.0
 11
11323.44103023654
 21
8008.809323858262
 31
0.0
  0
POLYLINE
  5
3864
  8
画層2
 66
     1
 10
0.0
 20
0.0
 30
0.0
1001
ACAD
1000
ASC_BOUNDS
1002
{
1070
    19
1005
474A
1005
474A
1002
}
  0
VERTEX
  5
4C1A
  8
画層2
 10
10823.44103023654
 20
8064.66502407382
 30
0.0
  0
VERTEX
  5
4C1B
  8
画層2
 10
10823.44103023654
 20
7764.66502407382
 30
0.0
  0
VERTEX
  5
4C1C
  8
画層2
 10
10848.44103023654
 20
7764.66502407382
 30
0.0
  0
VERTEX
  5
4C1D
  8
画層2
 10
10848.44103023654
 20
6964.66502407382
 30
0.0
  0
VERTEX
  5
4C1E
  8
画層2
 10
11298.44103023654
 20
6964.66502407382
 30
0.0
  0
VERTEX
  5
4C1F
  8
画層2
 10
11298.44103023654
 20
7764.66502407382
 30
0.0
  0
VERTEX
  5
4C20
  8
画層2
 10
11323.44103023654
 20
7764.66502407382
 30
0.0
  0
VERTEX
  5
4C21
  8
画層2
 10
11323.44103023654
 20
8064.66502407382
 30
0.0
  0
SEQEND
  5
4DAB
  8
画層2
  0
LINE
  5
3865
  8
ﾊｯﾁﾝｸﾞ
  6
CONTINUOUS
 10
11258.40015350666
 20
7064.66502407382
 30
0.0
 11
11274.50728681369
 21
7042.821948445428
 31
0.0
  0
LINE
  5
3866
  8
ﾊｯﾁﾝｸﾞ
  6
CONTINUOUS
 10
11242.22164934839
 20
6986.901584000585
 30
0.0
 11
11255.05993320758
 21
6964.66502407382
 31
0.0
  0
LINE
  5
3867
  8
ﾊｯﾁﾝｸﾞ
  6
CONTINUOUS
 10
11229.38336548873
 20
6964.66502407382
 30
0.0
 11
11287.11839240754
 21
7064.66502407382
 31
0.0
  0
LINE
  5
3868
  8
ﾊｯﾁﾝｸﾞ
  6
CONTINUOUS
 10
10891.98999199283
 20
7064.66502407382
 30
0.0
 11
10908.09712529986
 21
7042.821948445428
 31
0.0
  0
LINE
  5
3869
  8
ﾊｯﾁﾝｸﾞ
  6
CONTINUOUS
 10
10875.81148783455
 20
6986.901584000585
 30
0.0
 11
10888.64977169374
 21
6964.66502407382
 31
0.0
  0
LINE
  5
386A
  8
ﾊｯﾁﾝｸﾞ
  6
CONTINUOUS
 10
10862.97320397489
 20
6964.66502407382
 30
0.0
 11
10920.70823089371
 21
7064.66502407382
 31
0.0
  0
LINE
  5
386B
  8
画層2
  6
CONTINUOUS
 10
11298.44103023654
 20
7064.66502407382
 30
0.0
 11
10848.44103023654
 21
7064.66502407382
 31
0.0
1001
ACAD
1000
ASC_BOUNDS
1002
{
1070
    19
1005
474A
1005
474A
1002
}
  0
LINE
  5
386C
  8
ﾊｯﾁﾝｸﾞ
  6
CONTINUOUS
 10
10954.57574435335
 20
6964.66502407382
 30
0.0
 11
11012.31077127217
 21
7064.66502407382
 31
0.0
  0
LINE
  5
386D
  8
ﾊｯﾁﾝｸﾞ
  6
CONTINUOUS
 10
10967.41402821301
 20
6986.901584000585
 30
0.0
 11
10980.2523120722
 21
6964.66502407382
 31
0.0
  0
LINE
  5
386E
  8
ﾊｯﾁﾝｸﾞ
  6
CONTINUOUS
 10
10983.59253237129
 20
7064.66502407382
 30
0.0
 11
10999.69966567832
 21
7042.821948445428
 31
0.0
  0
LINE
  5
386F
  8
ﾊｯﾁﾝｸﾞ
  6
CONTINUOUS
 10
11137.78082511027
 20
6964.66502407382
 30
0.0
 11
11195.51585202909
 21
7064.66502407382
 31
0.0
  0
LINE
  5
3870
  8
ﾊｯﾁﾝｸﾞ
  6
CONTINUOUS
 10
11046.17828473181
 20
6964.66502407382
 30
0.0
 11
11103.91331165063
 21
7064.66502407382
 31
0.0
  0
LINE
  5
3871
  8
ﾊｯﾁﾝｸﾞ
  6
CONTINUOUS
 10
11150.61910896993
 20
6986.901584000585
 30
0.0
 11
11163.45739282912
 21
6964.66502407382
 31
0.0
  0
LINE
  5
3872
  8
ﾊｯﾁﾝｸﾞ
  6
CONTINUOUS
 10
11059.01656859147
 20
6986.901584000585
 30
0.0
 11
11071.85485245113
 21
6964.66502407382
 31
0.0
  0
LINE
  5
3873
  8
ﾊｯﾁﾝｸﾞ
  6
CONTINUOUS
 10
11075.19507274975
 20
7064.66502407382
 30
0.0
 11
11091.30220605677
 21
7042.821948445428
 31
0.0
1001
ACAD
1000
ASC_BOUNDS
1002
{
1070
    19
1005
474A
1002
}
  0
LINE
  5
3874
  8
ﾊｯﾁﾝｸﾞ
  6
CONTINUOUS
 10
11166.7976131282
 20
7064.66502407382
 30
0.0
 11
11182.90474643523
 21
7042.821948445428
 31
0.0
  0
LINE
  5
3875
  8
画層3-1
 10
18986.57338863461
 20
8193.339609977815
 30
0.0
 11
18986.57338863461
 21
10039.26502407391
 31
0.0
  0
LINE
  5
3876
  8
画層3-1
 10
19011.97338863498
 20
8193.339609977815
 30
0.0
 11
18961.1733886347
 21
8193.339609977815
 31
0.0
  0
LINE
  5
3877
  8
画層3-1
 10
19011.97338863498
 20
8168.339609977815
 30
0.0
 11
18961.1733886347
 21
8168.339609977815
 31
0.0
  0
LINE
  5
3878
  8
画層2-1
  6
CONTINUOUS
 10
19046.97338863451
 20
8164.66502407382
 30
0.0
 11
19161.27338863479
 21
8164.66502407382
 31
0.0
  0
LINE
  5
3879
  8
画層1
  6
CONTINUOUS
 10
18996.97338863451
 20
10064.66502407359
 30
0.0
 11
19046.97338863451
 21
10064.66502407359
 31
0.0
  0
LINE
  5
387A
  8
画層1
  6
CONTINUOUS
 10
18996.97338863451
 20
10089.66502407359
 30
0.0
 11
18996.97338863451
 21
10039.66502407359
 31
0.0
  0
CIRCLE
  5
387B
  8
画層3-1
 10
18986.57338863461
 20
10064.66502407405
 30
0.0
 40
25.40000000002328
  0
LINE
  5
387C
  8
画層1
  6
CONTINUOUS
 10
19086.97338863451
 20
10039.66502407359
 30
0.0
 11
19046.97338863451
 21
10039.66502407359
 31
0.0
  0
LINE
  5
387D
  8
画層1
  6
CONTINUOUS
 10
19086.97338863451
 20
10089.66502407359
 30
0.0
 11
19046.97338863451
 21
10089.66502407359
 31
0.0
  0
LINE
  5
387E
  8
画層1
  6
CONTINUOUS
 10
19121.27338863479
 20
10089.66502407359
 30
0.0
 11
19121.27338863479
 21
10039.66502407359
 31
0.0
  0
LINE
  5
387F
  8
画層1
  6
CONTINUOUS
 10
19121.27338863479
 20
10039.66502407359
 30
0.0
 11
19161.27338863479
 21
10039.66502407359
 31
0.0
  0
LINE
  5
3880
  8
画層1
  6
CONTINUOUS
 10
19121.27338863479
 20
10089.66502407359
 30
0.0
 11
19161.27338863479
 21
10089.66502407359
 31
0.0
  0
LINE
  5
3881
  8
画層1
  6
CONTINUOUS
 10
19086.97338863451
 20
10089.66502407359
 30
0.0
 11
19086.97338863451
 21
10039.66502407359
 31
0.0
  0
CIRCLE
  5
3882
  8
画層1
  6
CONTINUOUS
 10
19104.12338863489
 20
10064.66502407359
 30
0.0
 40
10.9509940156
  0
LINE
  5
3883
  8
画層2-1
  6
CONTINUOUS
 10
19046.97338863451
 20
7914.66502407382
 30
0.0
 11
19161.27338863479
 21
7914.66502407382
 31
0.0
  0
POLYLINE
  5
3884
  8
画層3-1
 66
     1
 10
0.0
 20
0.0
 30
0.0
1001
ACAD
1000
ASC_BOUNDS
1002
{
1070
    19
1005
46F8
1002
}
  0
VERTEX
  5
4C22
  8
画層3-1
 10
19011.97338863498
 20
10064.66502407405
 30
0.0
  0
VERTEX
  5
4C23
  8
画層3-1
 10
19011.97338863498
 20
7864.665024074054
 30
0.0
  0
VERTEX
  5
4C24
  8
画層3-1
 10
18961.1733886347
 20
7864.665024074054
 30
0.0
  0
VERTEX
  5
4C25
  8
画層3-1
 10
18961.1733886347
 20
10064.66502407405
 30
0.0
  0
SEQEND
  5
4DAC
  8
画層3-1
  0
LINE
  5
3885
  8
画層3-2
  6
CONTINUOUS
 10
9138.791030236636
 20
10001.56502407396
 30
0.0
 11
9138.791030236636
 21
9419.66502407382
 31
0.0
  0
LINE
  5
3886
  8
画層3-1
  6
CONTINUOUS
 10
9109.241030236823
 20
9986.56502407396
 30
0.0
 11
9124.241030236823
 21
10001.56502407396
 31
0.0
1001
ACAD
1000
ASC_BOUNDS
1002
{
1070
    19
1005
49D4
1002
}
  0
ARC
  5
3887
  8
画層3-1
  6
CONTINUOUS
 10
9113.84103023645
 20
9986.56502407396
 30
0.0
 40
15.0
 50
90.0
 51
180.0
  0
LINE
  5
3888
  8
画層3-1
  6
CONTINUOUS
 10
9098.84103023645
 20
9389.66502407382
 30
0.0
 11
9098.84103023645
 21
8759.66502407382
 31
0.0
1001
ACAD
1000
ASC_BOUNDS
1002
{
1070
    19
1005
49D4
1002
}
  0
LINE
  5
3889
  8
画層3-2
  6
CONTINUOUS
 10
9138.791030236636
 20
9389.66502407382
 30
0.0
 11
9138.791030236636
 21
8759.66502407382
 31
0.0
  0
LINE
  5
388A
  8
画層3-1
  6
CONTINUOUS
 10
9153.791030236636
 20
8729.66502407382
 30
0.0
 11
9153.791030236636
 21
8759.66502407382
 31
0.0
1001
ACAD
1000
ASC_BOUNDS
1002
{
1070
    19
1005
49D4
1002
}
  0
LINE
  5
388B
  8
画層3-1
  6
CONTINUOUS
 10
9098.84103023645
 20
9986.56502407396
 30
0.0
 11
9098.84103023645
 21
9419.66502407382
 31
0.0
1001
ACAD
1000
ASC_BOUNDS
1002
{
1070
    19
1005
49D4
1002
}
  0
LINE
  5
388C
  8
画層3-1
  6
CONTINUOUS
 10
9153.791030236636
 20
9389.66502407382
 30
0.0
 11
9153.791030236636
 21
9419.66502407382
 31
0.0
1001
ACAD
1000
ASC_BOUNDS
1002
{
1070
    19
1005
49D4
1002
}
  0
LINE
  5
388D
  8
画層3-1
  6
CONTINUOUS
 10
9124.241030236823
 20
10001.56502407396
 30
0.0
 11
9124.241030236823
 21
10039.66502407382
 31
0.0
  0
LINE
  5
388E
  8
画層3-1
  6
CONTINUOUS
 10
15113.84103023645
 20
10001.56502407396
 30
0.0
 11
16024.12338829349
 21
10001.56502407396
 31
0.0
1001
ACAD
1000
ASC_BOUNDS
1002
{
1070
    19
1005
4A2E
1002
}
  0
LINE
  5
388F
  8
画層3-2
  6
CONTINUOUS
 10
15153.79103023664
 20
9404.66502407382
 30
0.0
 11
16024.12338829349
 21
9404.66502407382
 31
0.0
  0
LINE
  5
3890
  8
画層3-2
  6
CONTINUOUS
 10
16024.12338829349
 20
8744.66502407382
 30
0.0
 11
15153.79103023664
 21
8744.66502407382
 31
0.0
  0
LINE
  5
3891
  8
画層3-2
  6
CONTINUOUS
 10
11008.09103023645
 20
9419.66502407382
 30
0.0
 11
11008.09103023645
 21
10001.56502407396
 31
0.0
  0
LINE
  5
3892
  8
画層3-2
  6
CONTINUOUS
 10
11138.79103023664
 20
10001.56502407396
 30
0.0
 11
11138.79103023664
 21
9419.66502407382
 31
0.0
  0
ARC
  5
3893
  8
画層3-1
  6
CONTINUOUS
 10
11033.04103023664
 20
9986.56502407396
 30
0.0
 40
15.0
 50
0.0
 51
90.0
  0
LINE
  5
3894
  8
画層3-1
  6
CONTINUOUS
 10
11022.64103023673
 20
10001.56502407396
 30
0.0
 11
11037.64103023673
 21
9986.56502407396
 31
0.0
1001
ACAD
1000
ASC_BOUNDS
1002
{
1070
    19
1005
49D4
1002
}
  0
ARC
  5
3895
  8
画層3-1
  6
CONTINUOUS
 10
11113.84103023645
 20
9986.56502407396
 30
0.0
 40
15.0
 50
90.0
 51
180.0
  0
ARC
  5
3896
  8
画層3-1
  6
CONTINUOUS
 10
15113.84103023645
 20
9986.56502407396
 30
0.0
 40
15.0
 50
90.0
 51
180.0
  0
ARC
  5
3897
  8
画層3-1
  6
CONTINUOUS
 10
15033.04103023664
 20
9986.56502407396
 30
0.0
 40
15.0
 50
0.0
 51
90.0
  0
LINE
  5
3898
  8
画層3-2
  6
CONTINUOUS
 10
15138.79103023664
 20
10001.56502407396
 30
0.0
 11
15138.79103023664
 21
9419.66502407382
 31
0.0
  0
LINE
  5
3899
  8
画層3-2
  6
CONTINUOUS
 10
15008.09103023645
 20
9419.66502407382
 30
0.0
 11
15008.09103023645
 21
10001.56502407396
 31
0.0
  0
LINE
  5
389A
  8
画層3-1
  6
CONTINUOUS
 10
15109.24103023682
 20
9986.56502407396
 30
0.0
 11
15124.24103023682
 21
10001.56502407396
 31
0.0
1001
ACAD
1000
ASC_BOUNDS
1002
{
1070
    19
1005
4A2E
1002
}
  0
LINE
  5
389B
  8
画層3-1
  6
CONTINUOUS
 10
11109.24103023682
 20
9986.56502407396
 30
0.0
 11
11124.24103023682
 21
10001.56502407396
 31
0.0
1001
ACAD
1000
ASC_BOUNDS
1002
{
1070
    19
1005
4A2E
1002
}
  0
LINE
  5
389C
  8
画層3-1
  6
CONTINUOUS
 10
15022.64103023673
 20
10001.56502407396
 30
0.0
 11
15037.64103023673
 21
9986.56502407396
 31
0.0
1001
ACAD
1000
ASC_BOUNDS
1002
{
1070
    19
1005
4A2E
1002
}
  0
LINE
  5
389F
  8
画層3-1
  6
CONTINUOUS
 10
11048.04103023664
 20
9389.66502407382
 30
0.0
 11
11048.04103023664
 21
8759.66502407382
 31
0.0
1001
ACAD
1000
ASC_BOUNDS
1002
{
1070
    19
1005
49D4
1002
}
  0
LINE
  5
38A0
  8
画層3-2
  6
CONTINUOUS
 10
11138.79103023664
 20
9389.66502407382
 30
0.0
 11
11138.79103023664
 21
8759.66502407382
 31
0.0
  0
LINE
  5
38A1
  8
画層3-2
  6
CONTINUOUS
 10
11008.09103023645
 20
8759.66502407382
 30
0.0
 11
11008.09103023645
 21
9389.66502407382
 31
0.0
  0
LINE
  5
38A2
  8
画層3-1
  6
CONTINUOUS
 10
11098.84103023645
 20
9389.66502407382
 30
0.0
 11
11098.84103023645
 21
8759.66502407382
 31
0.0
1001
ACAD
1000
ASC_BOUNDS
1002
{
1070
    19
1005
4A2E
1002
}
  0
LINE
  5
38A3
  8
画層2-1
  6
CONTINUOUS
 10
11016.29103023664
 20
8164.66502407382
 30
0.0
 11
11130.59103023645
 21
8164.66502407382
 31
0.0
  0
LINE
  5
38A4
  8
画層3-1
  6
CONTINUOUS
 10
10993.09103023645
 20
8759.66502407382
 30
0.0
 11
10993.09103023645
 21
8729.66502407382
 31
0.0
1001
ACAD
1000
ASC_BOUNDS
1002
{
1070
    19
1005
49D4
1002
}
  0
LINE
  5
38A5
  8
画層3-1
  6
CONTINUOUS
 10
11153.79103023664
 20
8729.66502407382
 30
0.0
 11
11153.79103023664
 21
8759.66502407382
 31
0.0
1001
ACAD
1000
ASC_BOUNDS
1002
{
1070
    19
1005
4A2E
1002
}
  0
LINE
  5
38A6
  8
画層3-1
  6
CONTINUOUS
 10
10993.09103023645
 20
8729.66502407382
 30
0.0
 11
11153.79103023664
 21
8729.66502407382
 31
0.0
1001
ACAD
1000
ASC_BOUNDS
1002
{
1070
    19
1005
49D4
1005
4A2E
1002
}
  0
LINE
  5
38A7
  8
画層3-1
  6
CONTINUOUS
 10
11153.79103023664
 20
8759.66502407382
 30
0.0
 11
10993.09103023645
 21
8759.66502407382
 31
0.0
1001
ACAD
1000
ASC_BOUNDS
1002
{
1070
    19
1005
49D4
1005
4A2E
1002
}
  0
LINE
  5
38A8
  8
画層3-1
  6
CONTINUOUS
 10
11048.04103023664
 20
9986.56502407396
 30
0.0
 11
11048.04103023664
 21
9419.66502407382
 31
0.0
1001
ACAD
1000
ASC_BOUNDS
1002
{
1070
    19
1005
49D4
1002
}
  0
LINE
  5
38A9
  8
画層3-1
  6
CONTINUOUS
 10
11098.84103023645
 20
9986.56502407396
 30
0.0
 11
11098.84103023645
 21
9419.66502407382
 31
0.0
1001
ACAD
1000
ASC_BOUNDS
1002
{
1070
    19
1005
4A2E
1002
}
  0
LINE
  5
38AA
  8
画層3-1
  6
CONTINUOUS
 10
10993.09103023645
 20
9389.66502407382
 30
0.0
 11
11153.79103023664
 21
9389.66502407382
 31
0.0
1001
ACAD
1000
ASC_BOUNDS
1002
{
1070
    19
1005
49D4
1005
4A2E
1002
}
  0
LINE
  5
38AB
  8
画層3-1
  6
CONTINUOUS
 10
11153.79103023664
 20
9419.66502407382
 30
0.0
 11
10993.09103023645
 21
9419.66502407382
 31
0.0
1001
ACAD
1000
ASC_BOUNDS
1002
{
1070
    19
1005
49D4
1005
4A2E
1002
}
  0
LINE
  5
38AC
  8
画層3-1
  6
CONTINUOUS
 10
10993.09103023645
 20
9419.66502407382
 30
0.0
 11
10993.09103023645
 21
9389.66502407382
 31
0.0
1001
ACAD
1000
ASC_BOUNDS
1002
{
1070
    19
1005
49D4
1002
}
  0
LINE
  5
38AD
  8
画層3-1
  6
CONTINUOUS
 10
11153.79103023664
 20
9389.66502407382
 30
0.0
 11
11153.79103023664
 21
9419.66502407382
 31
0.0
1001
ACAD
1000
ASC_BOUNDS
1002
{
1070
    19
1005
4A2E
1002
}
  0
LINE
  5
38AE
  8
画層3-1
  6
CONTINUOUS
 10
11109.24103023682
 20
9986.56502407396
 30
0.0
 11
11037.64103023673
 21
9986.56502407396
 31
0.0
1001
ACAD
1000
ASC_BOUNDS
1002
{
1070
    19
1005
49D4
1005
4A2E
1002
}
  0
LINE
  5
38AF
  8
画層3-2
  6
CONTINUOUS
 10
15008.09103023645
 20
8759.66502407382
 30
0.0
 11
15008.09103023645
 21
9389.66502407382
 31
0.0
  0
LINE
  5
38B0
  8
画層3-2
  6
CONTINUOUS
 10
15138.79103023664
 20
9389.66502407382
 30
0.0
 11
15138.79103023664
 21
8759.66502407382
 31
0.0
  0
LINE
  5
38B1
  8
画層3-1
  6
CONTINUOUS
 10
15098.84103023645
 20
9389.66502407382
 30
0.0
 11
15098.84103023645
 21
8759.66502407382
 31
0.0
1001
ACAD
1000
ASC_BOUNDS
1002
{
1070
    19
1005
4A2E
1002
}
  0
LINE
  5
38B2
  8
画層3-1
  6
CONTINUOUS
 10
15048.04103023664
 20
9389.66502407382
 30
0.0
 11
15048.04103023664
 21
8759.66502407382
 31
0.0
1001
ACAD
1000
ASC_BOUNDS
1002
{
1070
    19
1005
4A2E
1002
}
  0
LINE
  5
38B3
  8
画層3-1
  6
CONTINUOUS
 10
15153.79103023664
 20
8729.66502407382
 30
0.0
 11
15153.79103023664
 21
8759.66502407382
 31
0.0
1001
ACAD
1000
ASC_BOUNDS
1002
{
1070
    19
1005
4A2E
1002
}
  0
LINE
  5
38B4
  8
画層3-1
  6
CONTINUOUS
 10
14993.09103023645
 20
8759.66502407382
 30
0.0
 11
14993.09103023645
 21
8729.66502407382
 31
0.0
1001
ACAD
1000
ASC_BOUNDS
1002
{
1070
    19
1005
4A2E
1002
}
  0
LINE
  5
38B5
  8
画層3-1
  6
CONTINUOUS
 10
14993.09103023645
 20
8729.66502407382
 30
0.0
 11
15153.79103023664
 21
8729.66502407382
 31
0.0
1001
ACAD
1000
ASC_BOUNDS
1002
{
1070
    19
1005
4A2E
1005
4A2E
1002
}
  0
LINE
  5
38B6
  8
画層3-1
  6
CONTINUOUS
 10
15153.79103023664
 20
8759.66502407382
 30
0.0
 11
14993.09103023645
 21
8759.66502407382
 31
0.0
1001
ACAD
1000
ASC_BOUNDS
1002
{
1070
    19
1005
4A2E
1005
4A2E
1002
}
  0
LINE
  5
38B7
  8
画層3-1
  6
CONTINUOUS
 10
15098.84103023645
 20
9986.56502407396
 30
0.0
 11
15098.84103023645
 21
9419.66502407382
 31
0.0
1001
ACAD
1000
ASC_BOUNDS
1002
{
1070
    19
1005
4A2E
1002
}
  0
LINE
  5
38B8
  8
画層3-1
  6
CONTINUOUS
 10
15048.04103023664
 20
9986.56502407396
 30
0.0
 11
15048.04103023664
 21
9419.66502407382
 31
0.0
1001
ACAD
1000
ASC_BOUNDS
1002
{
1070
    19
1005
4A2E
1002
}
  0
LINE
  5
38B9
  8
画層3-1
  6
CONTINUOUS
 10
14993.09103023645
 20
9389.66502407382
 30
0.0
 11
15153.79103023664
 21
9389.66502407382
 31
0.0
1001
ACAD
1000
ASC_BOUNDS
1002
{
1070
    19
1005
4A2E
1005
4A2E
1002
}
  0
LINE
  5
38BA
  8
画層3-1
  6
CONTINUOUS
 10
15153.79103023664
 20
9419.66502407382
 30
0.0
 11
14993.09103023645
 21
9419.66502407382
 31
0.0
1001
ACAD
1000
ASC_BOUNDS
1002
{
1070
    19
1005
4A2E
1005
4A2E
1002
}
  0
LINE
  5
38BB
  8
画層3-1
  6
CONTINUOUS
 10
14993.09103023645
 20
9419.66502407382
 30
0.0
 11
14993.09103023645
 21
9389.66502407382
 31
0.0
1001
ACAD
1000
ASC_BOUNDS
1002
{
1070
    19
1005
4A2E
1002
}
  0
LINE
  5
38BC
  8
画層3-1
  6
CONTINUOUS
 10
15153.79103023664
 20
9389.66502407382
 30
0.0
 11
15153.79103023664
 21
9419.66502407382
 31
0.0
1001
ACAD
1000
ASC_BOUNDS
1002
{
1070
    19
1005
4A2E
1002
}
  0
LINE
  5
38BD
  8
画層3-1
  6
CONTINUOUS
 10
15109.24103023682
 20
9986.56502407396
 30
0.0
 11
15037.64103023673
 21
9986.56502407396
 31
0.0
1001
ACAD
1000
ASC_BOUNDS
1002
{
1070
    19
1005
4A2E
1005
4A2E
1002
}
  0
CIRCLE
  5
38BF
  8
画層1
  6
CONTINUOUS
 10
11155.59103023645
 20
10064.66502407382
 30
0.0
 40
10.9509940156
  0
LINE
  5
38C0
  8
画層1
  6
CONTINUOUS
 10
10966.29103023664
 20
10039.66502407382
 30
0.0
 11
11180.59103023645
 21
10039.66502407382
 31
0.0
  0
LINE
  5
38C1
  8
画層1
  6
CONTINUOUS
 10
11180.59103023645
 20
10089.66502407382
 30
0.0
 11
10966.29103023664
 21
10089.66502407382
 31
0.0
  0
LINE
  5
38C2
  8
画層3-1
  6
CONTINUOUS
 10
11022.64103023673
 20
10039.66502407382
 30
0.0
 11
11022.64103023673
 21
10001.56502407396
 31
0.0
  0
LINE
  5
38C3
  8
画層3-1
  6
CONTINUOUS
 10
11124.24103023682
 20
10001.56502407396
 30
0.0
 11
11124.24103023682
 21
10039.66502407382
 31
0.0
  0
LINE
  5
38C4
  8
画層1
  6
CONTINUOUS
 10
11098.44103023654
 20
10039.66502407382
 30
0.0
 11
11098.44103023654
 21
10089.66502407382
 31
0.0
  0
LINE
  5
38C5
  8
画層1
  6
CONTINUOUS
 10
10966.29103023664
 20
10089.66502407382
 30
0.0
 11
10966.29103023664
 21
10039.66502407382
 31
0.0
  0
CIRCLE
  5
38C6
  8
画層1
  6
CONTINUOUS
 10
10991.29103023664
 20
10064.66502407382
 30
0.0
 40
10.9509940156
  0
LINE
  5
38C7
  8
画層1
  6
CONTINUOUS
 10
11048.44103023654
 20
10089.66502407382
 30
0.0
 11
11048.44103023654
 21
10039.66502407382
 31
0.0
  0
LINE
  5
38C8
  8
画層1
  6
CONTINUOUS
 10
11180.59103023645
 20
10039.66502407382
 30
0.0
 11
11180.59103023645
 21
10089.66502407382
 31
0.0
  0
LINE
  5
38C9
  8
画層3-1
  6
CONTINUOUS
 10
15124.24103023682
 20
10001.56502407396
 30
0.0
 11
15124.24103023682
 21
10039.66502407382
 31
0.0
  0
LINE
  5
38CA
  8
画層3-1
  6
CONTINUOUS
 10
15022.64103023673
 20
10039.66502407382
 30
0.0
 11
15022.64103023673
 21
10001.56502407396
 31
0.0
  0
LINE
  5
38CB
  8
画層3-1
  6
CONTINUOUS
 10
9098.84103023645
 20
8084.66502407382
 30
0.0
 11
9098.84103023645
 21
7864.66502407382
 31
0.0
  0
POLYLINE
  5
38CC
  8
画層3-2
 66
     1
 10
0.0
 20
0.0
 30
0.0
  0
VERTEX
  5
4C26
  8
画層3-2
 10
15198.44103023654
 20
8064.66502407382
 30
0.0
  0
VERTEX
  5
4C27
  8
画層3-2
 10
15198.44103023654
 20
7614.66502407382
 30
0.0
  0
VERTEX
  5
4C28
  8
画層3-2
 10
14948.44103023654
 20
7614.66502407382
 30
0.0
  0
VERTEX
  5
4C29
  8
画層3-2
 10
14948.44103023654
 20
8064.66502407382
 30
0.0
  0
SEQEND
  5
4DAD
  8
画層3-2
  0
INSERT
  5
38CD
  8
画層3-3
  2
*X36
 10
0.0
 20
0.0
 30
0.0
1001
ACAD
1000
HATCH
1002
{
1070
    19
1000
PLAST
1040
1800.0
1040
0.7853981633974483
1000
R14_HATCH_DATA
1000
38CD
1011
1.0
1021
0.0
1031
0.0
1021
0.0
1031
0.0
1011
0.0
1021
1.0
1031
0.0
1021
1.0
1031
0.0
1011
0.0
1021
0.0
1031
1.0
1021
0.0
1031
1.0
1040
0.0
1010
0.0
1020
0.0
1030
1.0
1020
0.0
1030
1.0
1000
PLAST
1070
     0
1070
     1
1071
        1
1071
        7
1070
     0
1070
     1
1071
        4
1040
15198.44103023654
1040
8064.66502407382
1040
14948.44103023654
1040
8064.66502407382
1040
14948.44103023654
1040
7614.66502407382
1040
15198.44103023654
1040
7614.66502407382
1071
        0
1070
     0
1070
     1
1040
0.7853981633974483
1040
1800.0
1070
     0
1070
     3
1040
0.7853981633974483
1040
8931.09837447072
1040
1622.998007562735
1040
-318.1980515339463
1040
318.1980515339464
1070
     0
1040
0.7853981633974483
1040
8891.323618028895
1040
1662.772764004559
1040
-318.1980515339463
1040
318.1980515339464
1070
     0
1040
0.7853981633974483
1040
8851.54886158707
1040
1702.547520446151
1040
-318.1980515339463
1040
318.1980515339464
1070
     0
1040
2.4753793195157
1071
        1
1040
15187.33422800025
1040
7823.872472081592
1040
0.0
1002
}
  0
LINE
  5
38CE
  8
画層3-1
  6
CONTINUOUS
 10
11048.04103023664
 20
8084.665024074053
 30
0.0
 11
11048.04103023664
 21
7864.66502407382
 31
0.0
1001
ACAD
1000
ASC_BOUNDS
1002
{
1070
    19
1005
474A
1002
}
  0
LINE
  5
38CF
  8
画層3-1
  6
CONTINUOUS
 10
11098.84103023645
 20
8084.66502407382
 30
0.0
 11
11098.84103023645
 21
7864.66502407382
 31
0.0
1001
ACAD
1000
ASC_BOUNDS
1002
{
1070
    19
1005
474A
1002
}
  0
LINE
  5
38D0
  8
画層3-1
  6
CONTINUOUS
 10
15048.04103023664
 20
8084.665024074053
 30
0.0
 11
15048.04103023664
 21
7864.66502407382
 31
0.0
  0
LINE
  5
38D1
  8
画層3-1
  6
CONTINUOUS
 10
15098.84103023645
 20
8084.66502407382
 30
0.0
 11
15098.84103023645
 21
7864.66502407382
 31
0.0
  0
LINE
  5
38D2
  8
画層3-1
  6
CONTINUOUS
 10
11048.04103023664
 20
7864.66502407382
 30
0.0
 11
11098.84103023645
 21
7864.66502407382
 31
0.0
1001
ACAD
1000
ASC_BOUNDS
1002
{
1070
    19
1005
474A
1005
474A
1002
}
  0
LINE
  5
38D3
  8
画層2-1
  6
CONTINUOUS
 10
11016.29103023664
 20
7914.66502407382
 30
0.0
 11
11130.59103023645
 21
7914.66502407382
 31
0.0
  0
LINE
  5
38D4
  8
画層3-1
  6
CONTINUOUS
 10
15048.04103023664
 20
7864.66502407382
 30
0.0
 11
15098.84103023645
 21
7864.66502407382
 31
0.0
  0
LINE
  5
38D5
  8
画層3-1
  6
CONTINUOUS
 10
15098.84103023645
 20
8084.66502407382
 30
0.0
 11
16024.12338829349
 21
8084.66502407382
 31
0.0
  0
LINE
  5
38D6
  8
画層3-1
  6
CONTINUOUS
 10
15098.84103023645
 20
8122.76502407368
 30
0.0
 11
16024.12338829349
 21
8122.76502407368
 31
0.0
1001
ACAD
1000
ASC_BOUNDS
1002
{
1070
    19
1005
4A2E
1002
}
  0
LINE
  5
38D9
  8
画層3-1
  6
CONTINUOUS
 10
11008.09103023645
 20
8142.765024073913
 30
0.0
 11
11138.79103023664
 21
8142.765024073913
 31
0.0
  0
LINE
  5
38DA
  8
画層3-1
  6
CONTINUOUS
 10
15008.09103023645
 20
8142.765024073913
 30
0.0
 11
15138.79103023664
 21
8142.765024073913
 31
0.0
  0
LINE
  5
38DB
  8
画層3-1
  6
CONTINUOUS
 10
9098.84103023645
 20
8729.66502407382
 30
0.0
 11
9098.84103023645
 21
8122.765024073913
 31
0.0
1001
ACAD
1000
ASC_BOUNDS
1002
{
1070
    19
1005
49D4
1002
}
  0
LINE
  5
38DC
  8
画層3-2
  6
CONTINUOUS
 10
9138.791030236636
 20
8729.66502407382
 30
0.0
 11
9138.791030236636
 21
8064.66502407382
 31
0.0
  0
LINE
  5
38DD
  8
画層3-通り芯
  6
DASHDOT
 10
15073.44103023654
 20
7518.295468942055
 30
0.0
 11
15073.44103023654
 21
10064.66502407405
 31
0.0
  0
LINE
  5
38DE
  8
画層3-1
  6
CONTINUOUS
 10
11048.04103023664
 20
8729.66502407382
 30
0.0
 11
11048.04103023664
 21
8122.765024073913
 31
0.0
1001
ACAD
1000
ASC_BOUNDS
1002
{
1070
    19
1005
49D4
1002
}
  0
LINE
  5
38DF
  8
画層3-2
  6
CONTINUOUS
 10
11138.79103023664
 20
8729.66502407382
 30
0.0
 11
11138.79103023664
 21
8064.66502407382
 31
0.0
  0
LINE
  5
38E0
  8
画層3-2
  6
CONTINUOUS
 10
11008.09103023645
 20
8064.66502407382
 30
0.0
 11
11008.09103023645
 21
8729.66502407382
 31
0.0
  0
LINE
  5
38E1
  8
画層3-1
  6
CONTINUOUS
 10
11098.84103023645
 20
8729.66502407382
 30
0.0
 11
11098.84103023645
 21
8122.765024073913
 31
0.0
1001
ACAD
1000
ASC_BOUNDS
1002
{
1070
    19
1005
4A2E
1002
}
  0
LINE
  5
38E2
  8
画層3-2
  6
CONTINUOUS
 10
15008.09103023645
 20
8064.66502407382
 30
0.0
 11
15008.09103023645
 21
8729.66502407382
 31
0.0
  0
LINE
  5
38E3
  8
画層3-2
  6
CONTINUOUS
 10
15138.79103023664
 20
8729.66502407382
 30
0.0
 11
15138.79103023664
 21
8064.66502407382
 31
0.0
  0
LINE
  5
38E4
  8
画層3-1
  6
CONTINUOUS
 10
15098.84103023645
 20
8729.66502407382
 30
0.0
 11
15098.84103023645
 21
8122.765024073913
 31
0.0
1001
ACAD
1000
ASC_BOUNDS
1002
{
1070
    19
1005
4A2E
1002
}
  0
LINE
  5
38E5
  8
画層3-1
  6
CONTINUOUS
 10
15048.04103023664
 20
8729.66502407382
 30
0.0
 11
15048.04103023664
 21
8122.765024073913
 31
0.0
1001
ACAD
1000
ASC_BOUNDS
1002
{
1070
    19
1005
4A2E
1002
}
  0
TEXT
  5
38E6
  8
寸法
  6
CONTINUOUS
 10
18367.31140057505
 20
8094.657393030149
 30
0.0
 40
180.0
  1
▽GL
 41
0.75
  7
1_100
 72
     1
 11
18571.73997200363
 21
8094.657393030149
 31
0.0
 73
     1
  0
LINE
  5
38E7
  8
ﾊｯﾁﾝｸﾞ
  6
CONTINUOUS
 10
19793.48458428205
 20
8052.190722039693
 30
0.0
 11
19847.24743326464
 21
7998.42787305664
 31
0.0
  0
LINE
  5
38E8
  8
ﾊｯﾁﾝｸﾞ
  6
CONTINUOUS
 10
19805.95888631594
 20
8064.66502407382
 30
0.0
 11
19685.95888631501
 21
7944.66502407382
 31
0.0
  0
LINE
  5
38E9
  8
ﾊｯﾁﾝｸﾞ
  6
CONTINUOUS
 10
19726.76292682336
 20
8064.66502407382
 30
0.0
 11
19635.09266529548
 21
7972.994762546874
 31
0.0
  0
LINE
  5
38EA
  8
ﾊｯﾁﾝｸﾞ
  6
CONTINUOUS
 10
19647.56696732984
 20
8064.665024074053
 30
0.0
 11
19595.49468554919
 21
8012.5927422934
 31
0.0
  0
LINE
  5
38EB
  8
ﾊｯﾁﾝｸﾞ
  6
CONTINUOUS
 10
19753.88660453529
 20
8012.5927422934
 30
0.0
 11
19821.81432275464
 21
7944.66502407382
 31
0.0
  0
LINE
  5
38EC
  8
ﾊｯﾁﾝｸﾞ
  6
CONTINUOUS
 10
19714.288624789
 20
7972.994762546874
 30
0.0
 11
19742.61836326159
 21
7944.66502407382
 31
0.0
  0
LINE
  5
38ED
  8
ﾊｯﾁﾝｸﾞ
  6
CONTINUOUS
 10
19555.89670580243
 20
8052.190722039693
 30
0.0
 11
19663.42240376853
 21
7944.66502407382
 31
0.0
  0
LINE
  5
38EE
  8
ﾊｯﾁﾝｸﾞ
  6
CONTINUOUS
 10
19516.29872605613
 20
8012.5927422934
 30
0.0
 11
19584.22644427548
 21
7944.66502407382
 31
0.0
  0
LINE
  5
38EF
  8
ﾊｯﾁﾝｸﾞ
  6
CONTINUOUS
 10
19476.70074630984
 20
7972.994762546874
 30
0.0
 11
19505.03048478243
 21
7944.66502407382
 31
0.0
  0
LINE
  5
38F0
  8
ﾊｯﾁﾝｸﾞ
  6
CONTINUOUS
 10
19568.37100783679
 20
8064.66502407382
 30
0.0
 11
19448.37100783632
 21
7944.66502407382
 31
0.0
  0
LINE
  5
38F1
  8
ﾊｯﾁﾝｸﾞ
  6
CONTINUOUS
 10
19489.17504834374
 20
8064.66502407382
 30
0.0
 11
19369.1750483428
 21
7944.66502407382
 31
0.0
  0
LINE
  5
38F2
  8
ﾊｯﾁﾝｸﾞ
  6
CONTINUOUS
 10
19409.97908885068
 20
8064.66502407382
 30
0.0
 11
19354.12338863489
 21
8008.809323858262
 31
0.0
  0
LINE
  5
38F3
  8
ﾊｯﾁﾝｸﾞ
  6
CONTINUOUS
 10
4767.585330020753
 20
8064.66502407382
 30
0.0
 11
4823.441030236543
 21
8008.809323858262
 31
0.0
  0
LINE
  5
38F4
  8
ﾊｯﾁﾝｸﾞ
  6
CONTINUOUS
 10
4688.389370527235
 20
8064.66502407382
 30
0.0
 11
4808.389370528166
 21
7944.66502407382
 31
0.0
  0
LINE
  5
38F5
  8
ﾊｯﾁﾝｸﾞ
  6
CONTINUOUS
 10
4609.193411034183
 20
8064.66502407382
 30
0.0
 11
4729.193411035114
 21
7944.66502407382
 31
0.0
  0
LINE
  5
38F6
  8
ﾊｯﾁﾝｸﾞ
  6
CONTINUOUS
 10
4700.863672561594
 20
7972.994762546874
 30
0.0
 11
4672.533934089006
 21
7944.66502407382
 31
0.0
  0
LINE
  5
38F7
  8
ﾊｯﾁﾝｸﾞ
  6
CONTINUOUS
 10
4661.265692814835
 20
8012.5927422934
 30
0.0
 11
4593.337974595488
 21
7944.66502407382
 31
0.0
  0
LINE
  5
38F8
  8
ﾊｯﾁﾝｸﾞ
  6
CONTINUOUS
 10
4621.667713068542
 20
8052.190722039693
 30
0.0
 11
4514.142015102901
 21
7944.66502407382
 31
0.0
  0
LINE
  5
38F9
  8
ﾊｯﾁﾝｸﾞ
  6
CONTINUOUS
 10
4463.275794082438
 20
7972.994762546874
 30
0.0
 11
4434.946055609384
 21
7944.66502407382
 31
0.0
  0
LINE
  5
38FA
  8
ﾊｯﾁﾝｸﾞ
  6
CONTINUOUS
 10
4423.677814335679
 20
8012.5927422934
 30
0.0
 11
4355.750096116331
 21
7944.66502407382
 31
0.0
  0
LINE
  5
38FB
  8
ﾊｯﾁﾝｸﾞ
  6
CONTINUOUS
 10
4529.99745154113
 20
8064.665024074053
 30
0.0
 11
4582.069733322249
 21
8012.5927422934
 31
0.0
  0
LINE
  5
38FC
  8
ﾊｯﾁﾝｸﾞ
  6
CONTINUOUS
 10
4450.801492048078
 20
8064.66502407382
 30
0.0
 11
4542.47175357549
 21
7972.994762546641
 31
0.0
  0
LINE
  5
38FD
  8
ﾊｯﾁﾝｸﾞ
  6
CONTINUOUS
 10
4371.605532555026
 20
8064.66502407382
 30
0.0
 11
4491.605532555957
 21
7944.66502407382
 31
0.0
  0
LINE
  5
38FE
  8
ﾊｯﾁﾝｸﾞ
  6
CONTINUOUS
 10
4384.079834589385
 20
8052.190722039693
 30
0.0
 11
4330.316985606332
 21
7998.42787305664
 31
0.0
  0
LINE
  5
38FF
  8
ﾊｯﾁﾝｸﾞ
  6
CONTINUOUS
 10
5762.802225883701
 20
8052.190722039693
 30
0.0
 11
5816.565074866754
 21
7998.42787305664
 31
0.0
  0
LINE
  5
3900
  8
ﾊｯﾁﾝｸﾞ
  6
CONTINUOUS
 10
5775.27652791806
 20
8064.66502407382
 30
0.0
 11
5655.276527917129
 21
7944.66502407382
 31
0.0
  0
LINE
  5
3901
  8
ﾊｯﾁﾝｸﾞ
  6
CONTINUOUS
 10
5696.080568425008
 20
8064.66502407382
 30
0.0
 11
5604.410306897131
 21
7972.994762546874
 31
0.0
  0
LINE
  5
3902
  8
ﾊｯﾁﾝｸﾞ
  6
CONTINUOUS
 10
5616.88460893149
 20
8064.665024074053
 30
0.0
 11
5564.812327150838
 21
8012.5927422934
 31
0.0
  0
LINE
  5
3903
  8
ﾊｯﾁﾝｸﾞ
  6
CONTINUOUS
 10
5723.204246136942
 20
8012.5927422934
 30
0.0
 11
5791.131964356755
 21
7944.66502407382
 31
0.0
  0
LINE
  5
3904
  8
ﾊｯﾁﾝｸﾞ
  6
CONTINUOUS
 10
5683.606266390649
 20
7972.994762546874
 30
0.0
 11
5711.936004863237
 21
7944.66502407382
 31
0.0
  0
LINE
  5
3905
  8
ﾊｯﾁﾝｸﾞ
  6
CONTINUOUS
 10
5525.214347404544
 20
8052.190722039693
 30
0.0
 11
5632.740045370185
 21
7944.66502407382
 31
0.0
  0
LINE
  5
3906
  8
ﾊｯﾁﾝｸﾞ
  6
CONTINUOUS
 10
5485.616367657785
 20
8012.5927422934
 30
0.0
 11
5553.544085877133
 21
7944.66502407382
 31
0.0
  0
LINE
  5
3907
  8
ﾊｯﾁﾝｸﾞ
  6
CONTINUOUS
 10
5446.018387911492
 20
7972.994762546874
 30
0.0
 11
5474.34812638408
 21
7944.66502407382
 31
0.0
  0
LINE
  5
3908
  8
ﾊｯﾁﾝｸﾞ
  6
CONTINUOUS
 10
5537.688649438438
 20
8064.66502407382
 30
0.0
 11
5417.688649437972
 21
7944.66502407382
 31
0.0
  0
LINE
  5
3909
  8
ﾊｯﾁﾝｸﾞ
  6
CONTINUOUS
 10
5458.492689945386
 20
8064.66502407382
 30
0.0
 11
5338.49268994492
 21
7944.66502407382
 31
0.0
  0
LINE
  5
390A
  8
ﾊｯﾁﾝｸﾞ
  6
CONTINUOUS
 10
5379.296730452334
 20
8064.66502407382
 30
0.0
 11
5323.441030236543
 21
8008.809323858262
 31
0.0
  0
POLYLINE
  5
390B
  8
画層2
 66
     1
 10
0.0
 20
0.0
 30
0.0
1001
ACAD
1000
ASC_BOUNDS
1002
{
1070
    19
1005
4764
1005
4764
1002
}
  0
VERTEX
  5
4C2E
  8
画層2
 10
4823.441030236543
 20
8064.66502407382
 30
0.0
  0
VERTEX
  5
4C2F
  8
画層2
 10
4823.441030236543
 20
7764.66502407382
 30
0.0
  0
VERTEX
  5
4C30
  8
画層2
 10
4848.441030236543
 20
7764.66502407382
 30
0.0
  0
VERTEX
  5
4C31
  8
画層2
 10
4848.441030236543
 20
6964.66502407382
 30
0.0
  0
VERTEX
  5
4C32
  8
画層2
 10
5298.441030236543
 20
6964.66502407382
 30
0.0
  0
VERTEX
  5
4C33
  8
画層2
 10
5298.441030236543
 20
7764.66502407382
 30
0.0
  0
VERTEX
  5
4C34
  8
画層2
 10
5323.441030236543
 20
7764.66502407382
 30
0.0
  0
VERTEX
  5
4C35
  8
画層2
 10
5323.441030236543
 20
8064.66502407382
 30
0.0
  0
SEQEND
  5
4DAE
  8
画層2
  0
LINE
  5
390C
  8
ﾊｯﾁﾝｸﾞ
  6
CONTINUOUS
 10
5258.400153506664
 20
7064.66502407382
 30
0.0
 11
5274.507286813692
 21
7042.821948445428
 31
0.0
  0
LINE
  5
390D
  8
ﾊｯﾁﾝｸﾞ
  6
CONTINUOUS
 10
5242.221649348387
 20
6986.901584000585
 30
0.0
 11
5255.05993320758
 21
6964.66502407382
 31
0.0
  0
LINE
  5
390E
  8
ﾊｯﾁﾝｸﾞ
  6
CONTINUOUS
 10
5229.383365488728
 20
6964.66502407382
 30
0.0
 11
5287.118392407545
 21
7064.66502407382
 31
0.0
  0
LINE
  5
390F
  8
ﾊｯﾁﾝｸﾞ
  6
CONTINUOUS
 10
4891.989991992828
 20
7064.66502407382
 30
0.0
 11
4908.097125299857
 21
7042.821948445428
 31
0.0
  0
LINE
  5
3910
  8
ﾊｯﾁﾝｸﾞ
  6
CONTINUOUS
 10
4875.811487834551
 20
6986.901584000585
 30
0.0
 11
4888.649771693745
 21
6964.66502407382
 31
0.0
  0
LINE
  5
3911
  8
ﾊｯﾁﾝｸﾞ
  6
CONTINUOUS
 10
4862.973203974892
 20
6964.66502407382
 30
0.0
 11
4920.70823089371
 21
7064.66502407382
 31
0.0
  0
LINE
  5
3912
  8
画層2
  6
CONTINUOUS
 10
5298.441030236543
 20
7064.66502407382
 30
0.0
 11
4848.441030236543
 21
7064.66502407382
 31
0.0
1001
ACAD
1000
ASC_BOUNDS
1002
{
1070
    19
1005
4764
1005
4764
1002
}
  0
LINE
  5
3913
  8
ﾊｯﾁﾝｸﾞ
  6
CONTINUOUS
 10
4954.575744353351
 20
6964.66502407382
 30
0.0
 11
5012.310771272168
 21
7064.66502407382
 31
0.0
  0
LINE
  5
3914
  8
ﾊｯﾁﾝｸﾞ
  6
CONTINUOUS
 10
4967.41402821301
 20
6986.901584000585
 30
0.0
 11
4980.252312072203
 21
6964.66502407382
 31
0.0
  0
LINE
  5
3915
  8
ﾊｯﾁﾝｸﾞ
  6
CONTINUOUS
 10
4983.592532371287
 20
7064.66502407382
 30
0.0
 11
4999.699665678316
 21
7042.821948445428
 31
0.0
  0
LINE
  5
3916
  8
ﾊｯﾁﾝｸﾞ
  6
CONTINUOUS
 10
5137.780825110269
 20
6964.66502407382
 30
0.0
 11
5195.515852029086
 21
7064.66502407382
 31
0.0
  0
LINE
  5
3917
  8
ﾊｯﾁﾝｸﾞ
  6
CONTINUOUS
 10
5046.17828473181
 20
6964.66502407382
 30
0.0
 11
5103.913311650627
 21
7064.66502407382
 31
0.0
  0
LINE
  5
3918
  8
ﾊｯﾁﾝｸﾞ
  6
CONTINUOUS
 10
5150.619108969928
 20
6986.901584000585
 30
0.0
 11
5163.457392829121
 21
6964.66502407382
 31
0.0
  0
LINE
  5
3919
  8
ﾊｯﾁﾝｸﾞ
  6
CONTINUOUS
 10
5059.016568591469
 20
6986.901584000585
 30
0.0
 11
5071.854852451128
 21
6964.66502407382
 31
0.0
  0
LINE
  5
391A
  8
ﾊｯﾁﾝｸﾞ
  6
CONTINUOUS
 10
5075.195072749746
 20
7064.66502407382
 30
0.0
 11
5091.302206056775
 21
7042.821948445428
 31
0.0
1001
ACAD
1000
ASC_BOUNDS
1002
{
1070
    19
1005
4764
1002
}
  0
LINE
  5
391B
  8
ﾊｯﾁﾝｸﾞ
  6
CONTINUOUS
 10
5166.797613128205
 20
7064.66502407382
 30
0.0
 11
5182.904746435233
 21
7042.821948445428
 31
0.0
  0
TEXT
  5
391C
  8
寸法文字
  6
CONTINUOUS
 10
3769.7504854395
 20
8270.272004001334
 30
0.0
 40
180.0
  1
（250）
 41
0.75
  7
1_100
  0
LINE
  5
391D
  8
画層3-2
  6
CONTINUOUS
 10
7138.791030236636
 20
10001.56502407396
 30
0.0
 11
7138.791030236636
 21
9419.66502407382
 31
0.0
  0
LINE
  5
391E
  8
画層3-2
  6
CONTINUOUS
 10
7008.09103023645
 20
9419.66502407382
 30
0.0
 11
7008.09103023645
 21
10001.56502407396
 31
0.0
  0
LINE
  5
391F
  8
画層3-2
  6
CONTINUOUS
 10
5138.791030236636
 20
10001.56502407396
 30
0.0
 11
5138.791030236636
 21
9419.66502407382
 31
0.0
  0
ARC
  5
3920
  8
画層3-1
  6
CONTINUOUS
 10
7113.84103023645
 20
9986.56502407396
 30
0.0
 40
15.0
 50
90.0
 51
180.0
  0
LINE
  5
3921
  8
画層3-1
  6
CONTINUOUS
 10
7109.241030236823
 20
9986.56502407396
 30
0.0
 11
7124.241030236823
 21
10001.56502407396
 31
0.0
  0
ARC
  5
3922
  8
画層3-1
  6
CONTINUOUS
 10
7033.041030236636
 20
9986.56502407396
 30
0.0
 40
15.0
 50
0.0
 51
90.0
  0
ARC
  5
3923
  8
画層3-1
  6
CONTINUOUS
 10
5113.84103023645
 20
9986.56502407396
 30
0.0
 40
15.0
 50
90.0
 51
180.0
  0
LINE
  5
3924
  8
画層3-1
  6
CONTINUOUS
 10
5109.241030236823
 20
9986.56502407396
 30
0.0
 11
5124.241030236823
 21
10001.56502407396
 31
0.0
1001
ACAD
1000
ASC_BOUNDS
1002
{
1070
    19
1005
49B1
1002
}
  0
LINE
  5
3925
  8
画層3-1
  6
CONTINUOUS
 10
7022.641030236729
 20
10001.56502407396
 30
0.0
 11
7037.641030236729
 21
9986.56502407396
 31
0.0
1001
ACAD
1000
ASC_BOUNDS
1002
{
1070
    19
1005
49B1
1002
}
  0
LINE
  5
3926
  8
画層3-2
  6
CONTINUOUS
 10
6993.09103023645
 20
8744.66502407382
 30
0.0
 11
5153.791030236636
 21
8744.66502407382
 31
0.0
  0
LINE
  5
3927
  8
画層3-2
  6
CONTINUOUS
 10
5153.791030236636
 20
9404.66502407382
 30
0.0
 11
6993.09103023645
 21
9404.66502407382
 31
0.0
  0
LINE
  5
3928
  8
画層3-1
  6
CONTINUOUS
 10
5098.84103023645
 20
9389.66502407382
 30
0.0
 11
5098.84103023645
 21
8759.66502407382
 31
0.0
1001
ACAD
1000
ASC_BOUNDS
1002
{
1070
    19
1005
49B1
1002
}
  0
LINE
  5
3929
  8
画層3-2
  6
CONTINUOUS
 10
5138.791030236636
 20
9389.66502407382
 30
0.0
 11
5138.791030236636
 21
8759.66502407382
 31
0.0
  0
LINE
  5
392A
  8
画層2-1
  6
CONTINUOUS
 10
5016.291030236636
 20
8164.66502407382
 30
0.0
 11
5130.59103023645
 21
8164.66502407382
 31
0.0
  0
LINE
  5
392B
  8
画層3-1
  6
CONTINUOUS
 10
5153.791030236636
 20
8729.66502407382
 30
0.0
 11
5153.791030236636
 21
8759.66502407382
 31
0.0
1001
ACAD
1000
ASC_BOUNDS
1002
{
1070
    19
1005
49B1
1002
}
  0
LINE
  5
392C
  8
画層3-1
  6
CONTINUOUS
 10
5048.041030236636
 20
8729.66502407382
 30
0.0
 11
5153.791030236636
 21
8729.66502407382
 31
0.0
1001
ACAD
1000
ASC_BOUNDS
1002
{
1070
    19
1005
49B1
1002
}
  0
LINE
  5
392D
  8
画層3-1
  6
CONTINUOUS
 10
5153.791030236636
 20
8759.66502407382
 30
0.0
 11
5048.041030236636
 21
8759.66502407382
 31
0.0
1001
ACAD
1000
ASC_BOUNDS
1002
{
1070
    19
1005
49B1
1002
}
  0
LINE
  5
392E
  8
画層3-1
  6
CONTINUOUS
 10
5098.84103023645
 20
9986.56502407396
 30
0.0
 11
5098.84103023645
 21
9419.66502407382
 31
0.0
1001
ACAD
1000
ASC_BOUNDS
1002
{
1070
    19
1005
49B1
1002
}
  0
LINE
  5
392F
  8
画層3-1
  6
CONTINUOUS
 10
5048.041030236636
 20
9389.66502407382
 30
0.0
 11
5153.791030236636
 21
9389.66502407382
 31
0.0
1001
ACAD
1000
ASC_BOUNDS
1002
{
1070
    19
1005
49B1
1002
}
  0
LINE
  5
3930
  8
画層3-1
  6
CONTINUOUS
 10
5153.791030236636
 20
9419.66502407382
 30
0.0
 11
5048.041030236636
 21
9419.66502407382
 31
0.0
1001
ACAD
1000
ASC_BOUNDS
1002
{
1070
    19
1005
49B1
1002
}
  0
LINE
  5
3931
  8
画層3-1
  6
CONTINUOUS
 10
5153.791030236636
 20
9389.66502407382
 30
0.0
 11
5153.791030236636
 21
9419.66502407382
 31
0.0
1001
ACAD
1000
ASC_BOUNDS
1002
{
1070
    19
1005
49B1
1002
}
  0
LINE
  5
3932
  8
画層3-1
  6
CONTINUOUS
 10
5109.241030236823
 20
9986.56502407396
 30
0.0
 11
5048.041030236636
 21
9986.56502407396
 31
0.0
1001
ACAD
1000
ASC_BOUNDS
1002
{
1070
    19
1005
49B1
1002
}
  0
LINE
  5
3933
  8
画層3-1
  6
CONTINUOUS
 10
7098.84103023645
 20
9389.66502407382
 30
0.0
 11
7098.84103023645
 21
8759.66502407382
 31
0.0
  0
LINE
  5
3934
  8
画層3-1
  6
CONTINUOUS
 10
7048.041030236636
 20
9389.66502407382
 30
0.0
 11
7048.041030236636
 21
8759.66502407382
 31
0.0
1001
ACAD
1000
ASC_BOUNDS
1002
{
1070
    19
1005
49B1
1002
}
  0
LINE
  5
3935
  8
画層3-2
  6
CONTINUOUS
 10
7008.09103023645
 20
8759.66502407382
 30
0.0
 11
7008.09103023645
 21
9389.66502407382
 31
0.0
  0
LINE
  5
3936
  8
画層3-2
  6
CONTINUOUS
 10
7138.791030236636
 20
9389.66502407382
 30
0.0
 11
7138.791030236636
 21
8759.66502407382
 31
0.0
  0
LINE
  5
3937
  8
画層3-1
  6
CONTINUOUS
 10
7153.791030236636
 20
8729.66502407382
 30
0.0
 11
7153.791030236636
 21
8759.66502407382
 31
0.0
  0
LINE
  5
3938
  8
画層3-1
  6
CONTINUOUS
 10
6993.09103023645
 20
8759.66502407382
 30
0.0
 11
6993.09103023645
 21
8729.66502407382
 31
0.0
1001
ACAD
1000
ASC_BOUNDS
1002
{
1070
    19
1005
49B1
1002
}
  0
LINE
  5
3939
  8
画層3-1
  6
CONTINUOUS
 10
6993.09103023645
 20
8729.66502407382
 30
0.0
 11
7153.791030236636
 21
8729.66502407382
 31
0.0
1001
ACAD
1000
ASC_BOUNDS
1002
{
1070
    19
1005
49B1
1002
}
  0
LINE
  5
393A
  8
画層3-1
  6
CONTINUOUS
 10
7153.791030236636
 20
8759.66502407382
 30
0.0
 11
6993.09103023645
 21
8759.66502407382
 31
0.0
1001
ACAD
1000
ASC_BOUNDS
1002
{
1070
    19
1005
49B1
1002
}
  0
LINE
  5
393B
  8
画層3-1
  6
CONTINUOUS
 10
7098.84103023645
 20
9986.56502407396
 30
0.0
 11
7098.84103023645
 21
9419.66502407382
 31
0.0
  0
LINE
  5
393C
  8
画層3-1
  6
CONTINUOUS
 10
7048.041030236636
 20
9986.56502407396
 30
0.0
 11
7048.041030236636
 21
9419.66502407382
 31
0.0
1001
ACAD
1000
ASC_BOUNDS
1002
{
1070
    19
1005
49B1
1002
}
  0
LINE
  5
393D
  8
画層3-1
  6
CONTINUOUS
 10
6993.09103023645
 20
9389.66502407382
 30
0.0
 11
7153.791030236636
 21
9389.66502407382
 31
0.0
1001
ACAD
1000
ASC_BOUNDS
1002
{
1070
    19
1005
49B1
1002
}
  0
LINE
  5
393E
  8
画層3-1
  6
CONTINUOUS
 10
7153.791030236636
 20
9419.66502407382
 30
0.0
 11
6993.09103023645
 21
9419.66502407382
 31
0.0
1001
ACAD
1000
ASC_BOUNDS
1002
{
1070
    19
1005
49B1
1002
}
  0
LINE
  5
393F
  8
画層3-1
  6
CONTINUOUS
 10
6993.09103023645
 20
9419.66502407382
 30
0.0
 11
6993.09103023645
 21
9389.66502407382
 31
0.0
1001
ACAD
1000
ASC_BOUNDS
1002
{
1070
    19
1005
49B1
1002
}
  0
LINE
  5
3940
  8
画層3-1
  6
CONTINUOUS
 10
7153.791030236636
 20
9389.66502407382
 30
0.0
 11
7153.791030236636
 21
9419.66502407382
 31
0.0
  0
LINE
  5
3941
  8
画層3-1
  6
CONTINUOUS
 10
7109.241030236823
 20
9986.56502407396
 30
0.0
 11
7037.641030236729
 21
9986.56502407396
 31
0.0
1001
ACAD
1000
ASC_BOUNDS
1002
{
1070
    19
1005
49B1
1002
}
  0
LINE
  5
3942
  8
画層3-1
  6
CONTINUOUS
 10
5113.84103023645
 20
10001.56502407396
 30
0.0
 11
7033.041030236636
 21
10001.56502407373
 31
0.0
1001
ACAD
1000
ASC_BOUNDS
1002
{
1070
    19
1005
49B1
1002
}
  0
POLYLINE
  5
3943
  8
画層1
 66
     1
 10
0.0
 20
0.0
 30
0.0
 70
     1
1001
ACAD
1000
ASC_BOUNDS
1002
{
1070
    19
1005
3760
1002
}
  0
VERTEX
  5
4C36
  8
画層1
 10
5230.59103023645
 20
10084.66601838803
 30
0.0
  0
VERTEX
  5
4C37
  8
画層1
 10
5410.59103023645
 20
10084.66601838803
 30
0.0
  0
VERTEX
  5
4C38
  8
画層1
 10
5410.59103023645
 20
10044.66601838803
 30
0.0
  0
VERTEX
  5
4C39
  8
画層1
 10
5230.59103023645
 20
10044.66601838803
 30
0.0
  0
SEQEND
  5
4DAF
  8
画層1
  0
LINE
  5
3944
  8
画層1
  6
CONTINUOUS
 10
4966.291030236636
 20
10039.66502407382
 30
0.0
 11
5180.59103023645
 21
10039.66502407382
 31
0.0
  0
LINE
  5
3945
  8
画層1
  6
CONTINUOUS
 10
5180.59103023645
 20
10089.66502407382
 30
0.0
 11
4966.291030236636
 21
10089.66502407382
 31
0.0
1001
ACAD
1000
ASC_BOUNDS
1002
{
1070
    19
1005
3760
1002
}
  0
LINE
  5
3946
  8
画層3-1
  6
CONTINUOUS
 10
5124.241030236823
 20
10001.56502407396
 30
0.0
 11
5124.241030236823
 21
10039.66502407382
 31
0.0
  0
ARC
  5
3947
  8
画層3-1
  6
CONTINUOUS
 10
5085.648071266362
 20
10004.010330054
 30
0.0
 40
37.68645720078
 50
108.89958397055
 51
183.7202809701205
  0
LINE
  5
3948
  8
画層1
  6
CONTINUOUS
 10
5098.441030236543
 20
10039.66502407382
 30
0.0
 11
5098.441030236543
 21
10089.66502407382
 31
0.0
  0
LINE
  5
3949
  8
画層1
  6
CONTINUOUS
 10
5048.441030236543
 20
10089.66502407382
 30
0.0
 11
5048.441030236543
 21
10039.66502407382
 31
0.0
  0
CIRCLE
  5
394A
  8
画層1
  6
CONTINUOUS
 10
4991.291030236636
 20
10064.66502407382
 30
0.0
 40
10.9509940156
  0
LINE
  5
394B
  8
画層1
  6
CONTINUOUS
 10
4966.291030236636
 20
10089.66502407382
 30
0.0
 11
4966.291030236636
 21
10039.66502407382
 31
0.0
  0
CIRCLE
  5
394C
  8
画層1
  6
CONTINUOUS
 10
5155.59103023645
 20
10064.66502407382
 30
0.0
 40
10.9509940156
  0
LINE
  5
394D
  8
画層1
  6
CONTINUOUS
 10
5180.59103023645
 20
10039.66502407382
 30
0.0
 11
5180.59103023645
 21
10089.66502407382
 31
0.0
1001
ACAD
1000
ASC_BOUNDS
1002
{
1070
    19
1005
3760
1002
}
  0
LINE
  5
394E
  8
画層3-1
  6
CONTINUOUS
 10
7124.241030236823
 20
10001.56502407396
 30
0.0
 11
7124.241030236823
 21
10039.66502407382
 31
0.0
  0
LINE
  5
394F
  8
画層3-1
  6
CONTINUOUS
 10
7022.641030236729
 20
10039.66502407382
 30
0.0
 11
7022.641030236729
 21
10001.56502407396
 31
0.0
  0
INSERT
  5
3950
  8
画層3-3
  2
*X37
 10
0.0
 20
0.0
 30
0.0
1001
ACAD
1000
HATCH
1002
{
1070
    19
1000
PLAST
1040
1800.0
1040
0.7853981633974483
1000
R14_HATCH_DATA
1000
3950
1011
1.0
1021
0.0
1031
0.0
1021
0.0
1031
0.0
1011
0.0
1021
1.0
1031
0.0
1021
1.0
1031
0.0
1011
0.0
1021
0.0
1031
1.0
1021
0.0
1031
1.0
1040
0.0
1010
0.0
1020
0.0
1030
1.0
1020
0.0
1030
1.0
1000
PLAST
1070
     0
1070
     1
1071
        1
1071
        7
1070
     0
1070
     1
1071
        4
1040
7198.441030236543
1040
8064.66502407382
1040
6948.441030236543
1040
8064.66502407382
1040
6948.441030236543
1040
7614.66502407382
1040
7198.441030236543
1040
7614.66502407382
1071
        0
1070
     0
1070
     1
1040
0.7853981633974483
1040
1800.0
1070
     0
1070
     3
1040
0.7853981633974483
1040
931.0983744707191
1040
1622.998007562735
1040
-318.1980515339463
1040
318.1980515339464
1070
     0
1040
0.7853981633974483
1040
891.323618028895
1040
1662.772764004559
1040
-318.1980515339463
1040
318.1980515339464
1070
     0
1040
0.7853981633974483
1040
851.5488615870709
1040
1702.547520446151
1040
-318.1980515339463
1040
318.1980515339464
1070
     0
1040
2.4753793195157
1071
        1
1040
7187.334228000254
1040
7823.872472081592
1040
0.0
1002
}
  0
LINE
  5
3951
  8
画層3-1
  6
CONTINUOUS
 10
7098.84103023645
 20
8084.66502407382
 30
0.0
 11
7098.84103023645
 21
7864.66502407382
 31
0.0
  0
LINE
  5
3952
  8
画層3-1
  6
CONTINUOUS
 10
7048.041030236636
 20
8084.665024074053
 30
0.0
 11
7048.041030236636
 21
7864.66502407382
 31
0.0
  0
LINE
  5
3953
  8
画層3-1
  6
CONTINUOUS
 10
5098.84103023645
 20
8084.66502407382
 30
0.0
 11
5098.84103023645
 21
7864.66502407382
 31
0.0
1001
ACAD
1000
ASC_BOUNDS
1002
{
1070
    19
1005
4764
1002
}
  0
POLYLINE
  5
3954
  8
画層3-2
 66
     1
 10
0.0
 20
0.0
 30
0.0
  0
VERTEX
  5
4C3E
  8
画層3-2
 10
7198.441030236543
 20
8064.66502407382
 30
0.0
  0
VERTEX
  5
4C3F
  8
画層3-2
 10
7198.441030236543
 20
7614.66502407382
 30
0.0
  0
VERTEX
  5
4C40
  8
画層3-2
 10
6948.441030236543
 20
7614.66502407382
 30
0.0
  0
VERTEX
  5
4C41
  8
画層3-2
 10
6948.441030236543
 20
8064.66502407382
 30
0.0
  0
SEQEND
  5
4DB0
  8
画層3-2
  0
LINE
  5
3955
  8
画層3-1
  6
CONTINUOUS
 10
5048.041030236636
 20
7864.66502407382
 30
0.0
 11
5098.84103023645
 21
7864.66502407382
 31
0.0
1001
ACAD
1000
ASC_BOUNDS
1002
{
1070
    19
1005
4764
1005
4764
1002
}
  0
LINE
  5
3956
  8
画層2-1
  6
CONTINUOUS
 10
5016.291030236636
 20
7914.66502407382
 30
0.0
 11
5130.59103023645
 21
7914.66502407382
 31
0.0
  0
LINE
  5
3957
  8
画層3-1
  6
CONTINUOUS
 10
7048.041030236636
 20
7864.66502407382
 30
0.0
 11
7098.84103023645
 21
7864.66502407382
 31
0.0
  0
LINE
  5
3958
  8
画層3-1
  6
CONTINUOUS
 10
5048.041030236636
 20
8084.66502407382
 30
0.0
 11
7048.041030236636
 21
8084.66502407382
 31
0.0
  0
LINE
  5
3959
  8
画層3-1
  6
CONTINUOUS
 10
5048.041030236636
 20
8122.765024073913
 30
0.0
 11
7048.041030236636
 21
8122.765024073913
 31
0.0
1001
ACAD
1000
ASC_BOUNDS
1002
{
1070
    19
1005
49B1
1002
}
  0
LINE
  5
395A
  8
画層3-1
  6
CONTINUOUS
 10
7008.09103023645
 20
8142.765024073913
 30
0.0
 11
7138.791030236636
 21
8142.765024073913
 31
0.0
  0
LINE
  5
395B
  8
画層3-1
  6
CONTINUOUS
 10
5048.041030236636
 20
10001.56502407396
 30
0.0
 11
5048.041030236636
 21
7864.66502407382
 31
0.0
1001
ACAD
1000
ASC_BOUNDS
1002
{
1070
    19
1005
4764
1002
}
  0
LINE
  5
395C
  8
画層3-通り芯
  6
DASHDOT
 10
7073.441030236543
 20
7518.295468942055
 30
0.0
 11
7073.441030236543
 21
10064.66502407405
 31
0.0
  0
TEXT
  5
395D
  8
寸法文字
  6
CONTINUOUS
 10
3613.015253010588
 20
8567.51479433427
 30
0.0
 40
180.0
  1
FRPカバー
 41
0.75
  7
1_100
  0
POLYLINE
  5
395E
  8
寸法引出
  6
CONTINUOUS
 66
     1
 10
0.0
 20
0.0
 30
0.0
1001
ACAD
1000
DSTYLE
1002
{
1002
}
  0
VERTEX
  5
4C42
  8
寸法引出
  6
CONTINUOUS
 10
5035.904116878402
 20
8143.322204165419
 30
0.0
  0
VERTEX
  5
4C43
  8
寸法引出
  6
CONTINUOUS
 10
4521.979538724874
 20
8517.51479433427
 30
0.0
  0
VERTEX
  5
4C44
  8
寸法引出
  6
CONTINUOUS
 10
3638.729538724874
 20
8517.51479433427
 30
0.0
  0
SEQEND
  5
4DB1
  8
寸法引出
  6
CONTINUOUS
  0
LINE
  5
395F
  8
画層3-1
  6
CONTINUOUS
 10
5098.84103023645
 20
8729.66502407382
 30
0.0
 11
5098.84103023645
 21
8122.765024073913
 31
0.0
1001
ACAD
1000
ASC_BOUNDS
1002
{
1070
    19
1005
49B1
1002
}
  0
LINE
  5
3960
  8
画層3-2
  6
CONTINUOUS
 10
5138.791030236636
 20
8729.66502407382
 30
0.0
 11
5138.791030236636
 21
8064.66502407382
 31
0.0
  0
LINE
  5
3961
  8
画層3-1
  6
CONTINUOUS
 10
7098.84103023645
 20
8729.66502407382
 30
0.0
 11
7098.84103023645
 21
8122.765024073913
 31
0.0
  0
LINE
  5
3962
  8
画層3-1
  6
CONTINUOUS
 10
7048.041030236636
 20
8729.66502407382
 30
0.0
 11
7048.041030236636
 21
8122.765024073913
 31
0.0
1001
ACAD
1000
ASC_BOUNDS
1002
{
1070
    19
1005
49B1
1002
}
  0
LINE
  5
3963
  8
画層3-2
  6
CONTINUOUS
 10
7008.09103023645
 20
8064.66502407382
 30
0.0
 11
7008.09103023645
 21
8729.66502407382
 31
0.0
  0
LINE
  5
3964
  8
画層3-2
  6
CONTINUOUS
 10
7138.791030236636
 20
8729.66502407382
 30
0.0
 11
7138.791030236636
 21
8064.66502407382
 31
0.0
  0
LINE
  5
3965
  8
画層3-1
  6
CONTINUOUS
 10
5073.441030236543
 20
10039.66502407382
 30
0.0
 11
16024.12338829349
 21
10039.66502407382
 31
0.0
  0
LINE
  5
3966
  8
画層1
  6
CONTINUOUS
 10
5073.441030236543
 20
10064.66502407382
 30
0.0
 11
16024.12338829349
 21
10064.66502407405
 31
0.0
1001
ACAD
1000
ASC_BOUNDS
1002
{
1070
    19
1005
3760
1002
}
  0
LINE
  5
3967
  8
画層2
  6
CONTINUOUS
 10
16024.12338829349
 20
8064.66502407382
 30
0.0
 11
2994.2948474359
 21
8064.66502407382
 31
0.0
1001
ACAD
1000
ASC_BOUNDS
1002
{
1070
    19
1005
474A
1005
474A
1005
4764
1005
4764
1002
}
  0
LINE
  5
3968
  8
画層3-2
  6
CONTINUOUS
 10
8993.09103023645
 20
8744.66502407382
 30
0.0
 11
7153.791030236636
 21
8744.66502407382
 31
0.0
  0
LINE
  5
3969
  8
画層3-2
  6
CONTINUOUS
 10
7153.791030236636
 20
9404.66502407382
 30
0.0
 11
8993.09103023645
 21
9404.66502407382
 31
0.0
  0
LINE
  5
396A
  8
画層3-1
  6
CONTINUOUS
 10
7113.84103023645
 20
10001.56502407373
 30
0.0
 11
9033.041030236636
 21
10001.56502407373
 31
0.0
  0
LINE
  5
396B
  8
画層3-1
  6
CONTINUOUS
 10
7098.84103023645
 20
8122.765024073913
 30
0.0
 11
9048.041030236636
 21
8122.765024073913
 31
0.0
  0
LINE
  5
396C
  8
画層3-1
  6
CONTINUOUS
 10
7098.84103023645
 20
8084.66502407382
 30
0.0
 11
9048.041030236636
 21
8084.66502407382
 31
0.0
  0
LINE
  5
396D
  8
DEFPOINTS
 10
7440.140652262722
 20
12062.81502407396
 30
0.0
 11
7957.94826040708
 21
10039.66502407382
 31
0.0
1001
ACAD
1000
ASC_BOUNDS
1002
{
1070
    19
1005
3760
1002
}
  0
LINE
  5
396E
  8
画層1
  6
CONTINUOUS
 62
     7
 10
5073.441030236543
 20
12049.66502407382
 30
0.0
 11
5073.441030236543
 21
10064.66502407382
 31
0.0
  0
TEXT
  5
396F
  8
寸法文字
  6
CONTINUOUS
 10
2701.589691881872
 20
10565.15696073929
 30
0.0
 40
180.0
  1
タ-ンバックル12mm
 41
0.75
  7
1_100
  0
POLYLINE
  5
3970
  8
寸法引出
  6
CONTINUOUS
 66
     1
 10
0.0
 20
0.0
 30
0.0
  0
VERTEX
  5
4C45
  8
寸法引出
  6
CONTINUOUS
 10
5322.652305702795
 20
10084.66601838803
 30
0.0
  0
VERTEX
  5
4C46
  8
寸法引出
  6
CONTINUOUS
 10
4553.875406167586
 20
10505.15696073929
 30
0.0
  0
VERTEX
  5
4C47
  8
寸法引出
  6
CONTINUOUS
 10
2721.839691881872
 20
10505.15696073929
 30
0.0
  0
SEQEND
  5
4DB2
  8
寸法引出
  6
CONTINUOUS
  0
LINE
  5
3971
  8
画層1
  6
CONTINUOUS
 10
5016.291030236636
 20
12064.66502407382
 30
0.0
 11
5016.291030236636
 21
7064.66502407382
 31
0.0
  0
LINE
  5
3972
  8
画層1
  6
CONTINUOUS
 10
5130.59103023645
 20
7064.66502407382
 30
0.0
 11
5130.59103023645
 21
12064.66502407382
 31
0.0
1001
ACAD
1000
ASC_BOUNDS
1002
{
1070
    19
1005
3760
1002
}
  0
LINE
  5
3973
  8
通り芯
  6
DASHDOT
 10
5073.441030236543
 20
6822.197552280526
 30
0.0
 11
5073.441030236543
 21
12145.12768377646
 31
0.0
1001
ACAD
1000
ASC_BOUNDS
1002
{
1070
    19
1005
4764
1005
4764
1002
}
  0
LINE
  5
3974
  8
画層1
  6
CONTINUOUS
 62
     7
 10
19104.12338863489
 20
12064.66502407382
 30
0.0
 11
19104.12338863489
 21
10064.66502407359
 31
0.0
  0
LINE
  5
3975
  8
画層1-1
  6
DASHED
 10
19021.97338863451
 20
12024.66502407382
 30
0.0
 11
19021.97338863451
 21
10064.66502407359
 31
0.0
  0
LINE
  5
3976
  8
画層1
  6
CONTINUOUS
 10
19161.27338863479
 20
7064.66502407382
 30
0.0
 11
19161.27338863479
 21
12064.66502407382
 31
0.0
  0
LINE
  5
3977
  8
画層1
  6
CONTINUOUS
 10
19046.97338863451
 20
12064.66502407382
 30
0.0
 11
19046.97338863451
 21
7064.66502407382
 31
0.0
  0
LINE
  5
3978
  8
通り芯
  6
DASHDOT
 10
19104.12338863489
 20
6822.197552280526
 30
0.0
 11
19104.12338863489
 21
12145.12768377646
 31
0.0
1001
ACAD
1000
ASC_BOUNDS
1002
{
1070
    19
1005
46F8
1005
46F8
1002
}
  0
TEXT
  5
3979
  8
寸法文字
  6
CONTINUOUS
 10
9945.694632054423
 20
10571.43906670648
 30
0.0
 40
180.0
  1
バンド金具
 41
0.75
  7
1_100
  0
POLYLINE
  5
397A
  8
寸法引出
  6
CONTINUOUS
 66
     1
 10
0.0
 20
0.0
 30
0.0
  0
VERTEX
  5
4C48
  8
寸法引出
  6
CONTINUOUS
 10
10985.0385967443
 20
10089.66502407382
 30
0.0
  0
VERTEX
  5
4C49
  8
寸法引出
  6
CONTINUOUS
 10
10814.846255896
 20
10502.20631101633
 30
0.0
  0
VERTEX
  5
4C4A
  8
寸法引出
  6
CONTINUOUS
 10
9949.346255896002
 20
10502.20631101633
 30
0.0
  0
SEQEND
  5
4DB3
  8
寸法引出
  6
CONTINUOUS
  0
INSERT
  5
397B
  8
ﾈｯﾄ
 62
   230
  2
*X38
 10
0.0
 20
0.0
 30
0.0
1001
ACAD
1000
HATCH
1002
{
1070
    19
1000
NET
1040
40.0
1040
0.0
1000
R14_HATCH_DATA
1000
397B
1011
1.0
1021
0.0
1031
0.0
1021
0.0
1031
0.0
1011
0.0
1021
1.0
1031
0.0
1021
1.0
1031
0.0
1011
0.0
1021
0.0
1031
1.0
1021
0.0
1031
1.0
1040
0.0
1010
0.0
1020
0.0
1030
1.0
1020
0.0
1030
1.0
1000
NET
1070
     0
1070
     1
1071
        1
1071
        7
1070
     0
1070
     1
1071
        4
1040
16024.12338829349
1040
12024.66502407382
1040
14065.93555833458
1040
12024.66502407382
1040
14567.58047441235
1040
10064.66502407402
1040
16024.12338829349
1040
10064.66502407405
1071
        0
1070
     0
1070
     1
1040
0.0
1040
40.0
1070
     0
1070
     2
1040
0.0
1040
0.0
1040
0.0
1040
0.0
1040
127.0
1070
     0
1040
1.570796326794897
1040
0.0
1040
0.0
1040
-127.0
1040
0.0000000000000078
1070
     0
1040
18.00250051073298
1071
        1
1040
15628.37653080199
1040
10671.78898191804
1040
0.0
1002
}
  0
LINE
  5
397C
  8
DEFPOINTS
 10
14065.93555833458
 20
12024.66502407382
 30
0.0
 11
14573.97900650522
 21
10039.66502407382
 31
0.0
  0
LINE
  5
397D
  8
画層1
  6
CONTINUOUS
 10
11016.29103023664
 20
12064.66502407382
 30
0.0
 11
11016.29103023664
 21
7064.66502407382
 31
0.0
  0
LINE
  5
397E
  8
画層1
  6
CONTINUOUS
 10
11130.59103023645
 20
7064.66502407382
 30
0.0
 11
11130.59103023645
 21
12064.66502407382
 31
0.0
  0
LINE
  5
397F
  8
通り芯
  6
DASHDOT
 10
11073.44103023654
 20
6822.197552280526
 30
0.0
 11
11073.44103023654
 21
12145.12768377646
 31
0.0
1001
ACAD
1000
ASC_BOUNDS
1002
{
1070
    19
1005
474A
1005
474A
1002
}
  0
POLYLINE
  5
3980
  8
図面枠
 66
     1
 10
0.0
 20
0.0
 30
0.0
 70
     1
  0
VERTEX
  5
4C6B
  8
図面枠
 10
553.4410237495322
 20
494.6650101790517
 30
0.0
  0
VERTEX
  5
4C6C
  8
図面枠
 10
23953.44102374953
 20
494.6650101790517
 30
0.0
  0
VERTEX
  5
4C6D
  8
図面枠
 10
23953.44102374953
 20
15794.66501017905
 30
0.0
  0
VERTEX
  5
4C6E
  8
図面枠
 10
553.4410237495322
 20
15794.66501017905
 30
0.0
  0
SEQEND
  5
4DB4
  8
図面枠
  0
INSERT
  5
46F8
  8
ﾊｯﾁﾝｸﾞ
  2
*X39
 10
0.0
 20
0.0
 30
0.0
1001
ACAD
1000
HATCH
1002
{
1070
    19
1000
PLAST
1040
80.0
1040
0.7853981633974483
1000
ASC_BOUNDS
1070
     2
1070
     2
1070
     4
1005
382E
1005
3832
1005
3978
1005
3831
1070
     2
1070
     5
1005
3832
1005
3884
1005
382E
1005
3831
1005
3978
1000
ASC_SEEDPOINT
1011
19184.24558928443
1021
7592.752035406225
1031
0.0
1021
7592.752035406225
1031
0.0
1000
R14_HATCH_DATA
1000
46F8
1011
1.0
1021
0.0
1031
0.0
1021
0.0
1031
0.0
1011
0.0
1021
1.0
1031
0.0
1021
1.0
1031
0.0
1011
0.0
1021
0.0
1031
1.0
1021
0.0
1031
1.0
1040
0.0
1010
0.0
1020
0.0
1030
1.0
1020
0.0
1030
1.0
1000
PLAST
1070
     0
1070
     1
1071
        2
1071
        7
1070
     0
1070
     1
1071
        6
1040
19104.12338863488
1040
7064.66502407382
1040
19329.12338863489
1040
7064.665024073821
1040
19329.12338863489
1040
7764.66502407382
1040
19354.12338863489
1040
7764.665024073822
1040
19354.12338863489
1040
8064.66502407382
1040
19104.12338863488
1040
8064.66502407382
1071
        4
1005
382E
1005
3832
1005
3978
1005
3831
1071
        7
1070
     0
1070
     1
1071
       10
1040
19104.12338863489
1040
8064.66502407382
1040
19011.97338863498
1040
8064.665024073821
1040
19011.97338863498
1040
7864.665024074054
1040
18961.1733886347
1040
7864.665024074053
1040
18961.1733886347
1040
8064.665024073819
1040
18854.12338863489
1040
8064.66502407382
1040
18854.12338863489
1040
7764.665024073822
1040
18879.12338863489
1040
7764.66502407382
1040
18879.12338863489
1040
7064.665024073821
1040
19104.12338863489
1040
7064.665024073821
1071
        5
1005
3832
1005
3884
1005
382E
1005
3831
1005
3978
1070
     0
1070
     1
1040
0.7853981633974483
1040
80.0
1070
     0
1070
     3
1040
0.7853981633974483
1040
0.0
1040
0.0
1040
-359.2102448427661
1040
359.2102448427661
1070
     0
1040
0.7853981633974483
1040
-44.90128060534585
1040
44.90128060534577
1040
-359.2102448427661
1040
359.2102448427661
1070
     0
1040
0.7853981633974483
1040
-89.80256121069169
1040
89.80256121069154
1040
-359.2102448427661
1040
359.2102448427661
1070
     0
1040
3.819911921339117
1071
        2
1040
19184.24558928443
1040
7592.752035406225
1040
0.0
1040
19000.78964793765
1040
7592.752035406225
1040
0.0
1002
}
  0
INSERT
  5
474A
  8
ﾊｯﾁﾝｸﾞ
  2
*X40
 10
0.0
 20
0.0
 30
0.0
1001
ACAD
1000
HATCH
1002
{
1070
    19
1000
PLAST
1040
80.0
1040
0.7853981633974483
1000
ASC_BOUNDS
1070
     2
1070
     2
1070
     7
1005
3864
1005
3967
1005
38CF
1005
38D2
1005
397F
1005
3873
1005
386B
1070
     2
1070
     6
1005
38D2
1005
38CE
1005
3967
1005
3864
1005
386B
1005
397F
1000
ASC_SEEDPOINT
1011
11165.44934599516
1021
7543.326162231042
1031
0.0
1021
7543.326162231042
1031
0.0
1000
R14_HATCH_DATA
1000
474A
1011
1.0
1021
0.0
1031
0.0
1021
0.0
1031
0.0
1011
0.0
1021
1.0
1031
0.0
1021
1.0
1031
0.0
1011
0.0
1021
0.0
1031
1.0
1021
0.0
1031
1.0
1040
0.0
1010
0.0
1020
0.0
1030
1.0
1020
0.0
1030
1.0
1000
PLAST
1070
     0
1070
     1
1071
        2
1071
        7
1070
     0
1070
     1
1071
        9
1040
11073.44103023654
1040
7067.043702050896
1040
11075.19507274975
1040
7064.665024073821
1040
11298.44103023654
1040
7064.66502407382
1040
11298.44103023654
1040
7764.66502407382
1040
11323.44103023654
1040
7764.665024073821
1040
11323.44103023654
1040
8064.665024073821
1040
11098.84103023645
1040
8064.665024073821
1040
11098.84103023645
1040
7864.66502407382
1040
11073.44103023654
1040
7864.665024073821
1071
        7
1005
3864
1005
3967
1005
38CF
1005
38D2
1005
397F
1005
3873
1005
386B
1071
        7
1070
     0
1070
     1
1071
        8
1040
11073.44103023654
1040
7864.665024073821
1040
11048.04103023664
1040
7864.665024073822
1040
11048.04103023663
1040
8064.66502407382
1040
10823.44103023654
1040
8064.665024073819
1040
10823.44103023654
1040
7764.665024073821
1040
10848.44103023654
1040
7764.66502407382
1040
10848.44103023654
1040
7064.665024073821
1040
11073.44103023654
1040
7064.66502407382
1071
        6
1005
38D2
1005
38CE
1005
3967
1005
3864
1005
386B
1005
397F
1070
     0
1070
     1
1040
0.7853981633974483
1040
80.0
1070
     0
1070
     3
1040
0.7853981633974483
1040
-2000.0
1040
0.0
1040
-359.2102448427661
1040
359.2102448427661
1070
     0
1040
0.7853981633974483
1040
-2044.901280605346
1040
44.90128060534577
1040
-359.2102448427661
1040
359.2102448427661
1070
     0
1040
0.7853981633974483
1040
-2089.802561210692
1040
89.80256121069154
1040
-359.2102448427661
1040
359.2102448427661
1070
     0
1040
7.328189595352391
1071
        2
1040
11165.44934599516
1040
7543.326162231042
1040
0.0
1040
10974.81232751481
1040
7579.967112960756
1040
0.0
1002
}
  0
INSERT
  5
4764
  8
ﾊｯﾁﾝｸﾞ
  2
*X41
 10
0.0
 20
0.0
 30
0.0
1001
ACAD
1000
HATCH
1002
{
1070
    19
1000
PLAST
1040
80.0
1040
0.7853981633974483
1000
ASC_BOUNDS
1070
     2
1070
     2
1070
     7
1005
390B
1005
3967
1005
3953
1005
3955
1005
3973
1005
391A
1005
3912
1070
     2
1070
     6
1005
3955
1005
395B
1005
3967
1005
390B
1005
3912
1005
3973
1000
ASC_SEEDPOINT
1011
5195.3054573603
1021
7506.133422992691
1031
0.0
1021
7506.133422992691
1031
0.0
1000
R14_HATCH_DATA
1000
4764
1011
1.0
1021
0.0
1031
0.0
1021
0.0
1031
0.0
1011
0.0
1021
1.0
1031
0.0
1021
1.0
1031
0.0
1011
0.0
1021
0.0
1031
1.0
1021
0.0
1031
1.0
1040
0.0
1010
0.0
1020
0.0
1030
1.0
1020
0.0
1030
1.0
1000
PLAST
1070
     0
1070
     1
1071
        2
1071
        7
1070
     0
1070
     1
1071
        9
1040
5298.441030236543
1040
7764.665024073819
1040
5323.441030236543
1040
7764.66502407382
1040
5323.441030236543
1040
8064.66502407382
1040
5098.84103023645
1040
8064.665024073819
1040
5098.841030236449
1040
7864.66502407382
1040
5073.441030236543
1040
7864.665024073821
1040
5073.441030236542
1040
7067.043702050898
1040
5075.195072749744
1040
7064.66502407382
1040
5298.441030236543
1040
7064.66502407382
1071
        7
1005
390B
1005
3967
1005
3953
1005
3955
1005
3973
1005
391A
1005
3912
1071
        7
1070
     0
1070
     1
1071
        8
1040
5073.441030236544
1040
7864.66502407382
1040
5048.041030236636
1040
7864.66502407382
1040
5048.041030236636
1040
8064.665024073821
1040
4823.441030236543
1040
8064.665024073821
1040
4823.441030236544
1040
7764.66502407382
1040
4848.441030236543
1040
7764.665024073819
1040
4848.441030236543
1040
7064.665024073821
1040
5073.441030236542
1040
7064.665024073819
1071
        6
1005
3955
1005
395B
1005
3967
1005
390B
1005
3912
1005
3973
1070
     0
1070
     1
1040
0.7853981633974483
1040
80.0
1070
     0
1070
     3
1040
0.7853981633974483
1040
0.0
1040
0.0
1040
-359.2102448427661
1040
359.2102448427661
1070
     0
1040
0.7853981633974483
1040
-44.90128060534576
1040
44.90128060534577
1040
-359.2102448427661
1040
359.2102448427661
1070
     0
1040
0.7853981633974483
1040
-89.80256121069152
1040
89.80256121069154
1040
-359.2102448427661
1040
359.2102448427661
1070
     0
1040
6.457938856138362
1071
        2
1040
5195.3054573603
1040
7506.133422992691
1040
0.0
1040
4988.538550740021
1040
7544.881078764902
1040
0.0
1002
}
  0
DIMENSION
  5
490E
  8
画層3-寸法
  6
CONTINUOUS
  2
*D31
 10
11073.44102989492
 20
5764.665024073824
 30
0.0
 11
12073.44102989492
 21
5931.80788121668
 31
0.0
 70
    32
  3
1_60
 13
13073.44102989492
 23
6914.665024073824
 33
0.0
 14
11073.44102989492
 24
6914.665024073824
 34
0.0
 50
180.0
  0
DIMENSION
  5
490F
  8
画層3-寸法
  6
CONTINUOUS
  2
*D30
 10
13073.44102989492
 20
5764.665024073824
 30
0.0
 11
14073.44102989492
 21
5931.80788121668
 31
0.0
 70
    32
  3
1_60
 13
15073.44102989492
 23
6914.665024073824
 33
0.0
 14
13073.44102989492
 24
6914.665024073824
 34
0.0
 50
180.0
  0
LINE
  5
493A
  8
画層3-2
  6
CONTINUOUS
 10
13138.79103023664
 20
8729.66502407382
 30
0.0
 11
13138.79103023664
 21
8064.66502407382
 31
0.0
  0
LINE
  5
493B
  8
画層3-1
  6
CONTINUOUS
 10
13098.84103023645
 20
8729.66502407382
 30
0.0
 11
13098.84103023645
 21
8122.765024073913
 31
0.0
1001
ACAD
1000
ASC_BOUNDS
1002
{
1070
    19
1005
4A2E
1002
}
  0
LINE
  5
493C
  8
画層3-1
  6
CONTINUOUS
 10
13098.84103023645
 20
8084.66502407382
 30
0.0
 11
13098.84103023645
 21
7864.66502407382
 31
0.0
  0
LINE
  5
493D
  8
画層3-1
  6
CONTINUOUS
 10
13124.24103023682
 20
10001.56502407396
 30
0.0
 11
13124.24103023682
 21
10039.66502407382
 31
0.0
  0
LINE
  5
493E
  8
画層3-1
  6
CONTINUOUS
 10
13153.79103023664
 20
9389.66502407382
 30
0.0
 11
13153.79103023664
 21
9419.66502407382
 31
0.0
1001
ACAD
1000
ASC_BOUNDS
1002
{
1070
    19
1005
4A2E
1002
}
  0
LINE
  5
493F
  8
画層3-1
  6
CONTINUOUS
 10
13098.84103023645
 20
9986.56502407396
 30
0.0
 11
13098.84103023645
 21
9419.66502407382
 31
0.0
1001
ACAD
1000
ASC_BOUNDS
1002
{
1070
    19
1005
4A2E
1002
}
  0
LINE
  5
4940
  8
画層3-1
  6
CONTINUOUS
 10
13153.79103023664
 20
8729.66502407382
 30
0.0
 11
13153.79103023664
 21
8759.66502407382
 31
0.0
1001
ACAD
1000
ASC_BOUNDS
1002
{
1070
    19
1005
4A2E
1002
}
  0
LINE
  5
4941
  8
画層3-2
  6
CONTINUOUS
 10
13138.79103023664
 20
9389.66502407382
 30
0.0
 11
13138.79103023664
 21
8759.66502407382
 31
0.0
  0
LINE
  5
4942
  8
画層3-1
  6
CONTINUOUS
 10
13098.84103023645
 20
9389.66502407382
 30
0.0
 11
13098.84103023645
 21
8759.66502407382
 31
0.0
1001
ACAD
1000
ASC_BOUNDS
1002
{
1070
    19
1005
4A2E
1002
}
  0
ARC
  5
4943
  8
画層3-1
  6
CONTINUOUS
 10
13113.84103023645
 20
9986.56502407396
 30
0.0
 40
15.0
 50
90.0
 51
180.0
  0
LINE
  5
4944
  8
画層3-1
  6
CONTINUOUS
 10
13109.24103023682
 20
9986.56502407396
 30
0.0
 11
13124.24103023682
 21
10001.56502407396
 31
0.0
1001
ACAD
1000
ASC_BOUNDS
1002
{
1070
    19
1005
4A2E
1002
}
  0
LINE
  5
4945
  8
画層3-2
  6
CONTINUOUS
 10
13138.79103023664
 20
10001.56502407396
 30
0.0
 11
13138.79103023664
 21
9419.66502407382
 31
0.0
  0
LINE
  5
4946
  8
画層3-2
  6
CONTINUOUS
 10
13008.09103023645
 20
8064.66502407382
 30
0.0
 11
13008.09103023645
 21
8729.66502407382
 31
0.0
  0
LINE
  5
4947
  8
画層3-1
  6
CONTINUOUS
 10
13048.04103023664
 20
8729.66502407382
 30
0.0
 11
13048.04103023664
 21
8122.765024073913
 31
0.0
1001
ACAD
1000
ASC_BOUNDS
1002
{
1070
    19
1005
4A2E
1002
}
  0
LINE
  5
4948
  8
画層3-通り芯
  6
DASHDOT
 10
13073.44103023654
 20
7518.295468942055
 30
0.0
 11
13073.44103023654
 21
10064.66502407405
 31
0.0
  0
LINE
  5
4949
  8
画層3-1
  6
CONTINUOUS
 10
13048.04103023664
 20
8084.665024074053
 30
0.0
 11
13048.04103023664
 21
7864.66502407382
 31
0.0
  0
LINE
  5
494A
  8
画層3-1
  6
CONTINUOUS
 10
13022.64103023673
 20
10039.66502407382
 30
0.0
 11
13022.64103023673
 21
10001.56502407396
 31
0.0
  0
LINE
  5
494B
  8
画層3-1
  6
CONTINUOUS
 10
12993.09103023645
 20
9419.66502407382
 30
0.0
 11
12993.09103023645
 21
9389.66502407382
 31
0.0
1001
ACAD
1000
ASC_BOUNDS
1002
{
1070
    19
1005
4A2E
1002
}
  0
LINE
  5
494C
  8
画層3-1
  6
CONTINUOUS
 10
13048.04103023664
 20
9986.56502407396
 30
0.0
 11
13048.04103023664
 21
9419.66502407382
 31
0.0
1001
ACAD
1000
ASC_BOUNDS
1002
{
1070
    19
1005
4A2E
1002
}
  0
LINE
  5
494D
  8
画層3-1
  6
CONTINUOUS
 10
12993.09103023645
 20
8759.66502407382
 30
0.0
 11
12993.09103023645
 21
8729.66502407382
 31
0.0
1001
ACAD
1000
ASC_BOUNDS
1002
{
1070
    19
1005
4A2E
1002
}
  0
LINE
  5
494E
  8
画層3-2
  6
CONTINUOUS
 10
13008.09103023645
 20
8759.66502407382
 30
0.0
 11
13008.09103023645
 21
9389.66502407382
 31
0.0
  0
LINE
  5
494F
  8
画層3-1
  6
CONTINUOUS
 10
13048.04103023664
 20
9389.66502407382
 30
0.0
 11
13048.04103023664
 21
8759.66502407382
 31
0.0
1001
ACAD
1000
ASC_BOUNDS
1002
{
1070
    19
1005
4A2E
1002
}
  0
LINE
  5
4950
  8
画層3-1
  6
CONTINUOUS
 10
13022.64103023673
 20
10001.56502407396
 30
0.0
 11
13037.64103023673
 21
9986.56502407396
 31
0.0
1001
ACAD
1000
ASC_BOUNDS
1002
{
1070
    19
1005
4A2E
1002
}
  0
ARC
  5
4951
  8
画層3-1
  6
CONTINUOUS
 10
13033.04103023664
 20
9986.56502407396
 30
0.0
 40
15.0
 50
0.0
 51
90.0
  0
LINE
  5
4952
  8
画層3-2
  6
CONTINUOUS
 10
13008.09103023645
 20
9419.66502407382
 30
0.0
 11
13008.09103023645
 21
10001.56502407396
 31
0.0
  0
LINE
  5
4953
  8
画層3-1
  6
CONTINUOUS
 10
13008.09103023645
 20
8142.765024073913
 30
0.0
 11
13138.79103023664
 21
8142.765024073913
 31
0.0
  0
LINE
  5
4954
  8
画層3-1
  6
CONTINUOUS
 10
13048.04103023664
 20
7864.66502407382
 30
0.0
 11
13098.84103023645
 21
7864.66502407382
 31
0.0
  0
INSERT
  5
4955
  8
画層3-3
  2
*X42
 10
0.0
 20
0.0
 30
0.0
1001
ACAD
1000
HATCH
1002
{
1070
    19
1000
PLAST
1040
1800.0
1040
0.7853981633974483
1000
R14_HATCH_DATA
1000
4955
1011
1.0
1021
0.0
1031
0.0
1021
0.0
1031
0.0
1011
0.0
1021
1.0
1031
0.0
1021
1.0
1031
0.0
1011
0.0
1021
0.0
1031
1.0
1021
0.0
1031
1.0
1040
0.0
1010
0.0
1020
0.0
1030
1.0
1020
0.0
1030
1.0
1000
PLAST
1070
     0
1070
     1
1071
        1
1071
        7
1070
     0
1070
     1
1071
        4
1040
13198.44103023654
1040
8064.66502407382
1040
12948.44103023654
1040
8064.66502407382
1040
12948.44103023654
1040
7614.66502407382
1040
13198.44103023654
1040
7614.66502407382
1071
        0
1070
     0
1070
     1
1040
0.7853981633974483
1040
1800.0
1070
     0
1070
     3
1040
0.7853981633974483
1040
6931.098374470719
1040
1622.998007562735
1040
-318.1980515339463
1040
318.1980515339464
1070
     0
1040
0.7853981633974483
1040
6891.323618028895
1040
1662.772764004559
1040
-318.1980515339463
1040
318.1980515339464
1070
     0
1040
0.7853981633974483
1040
6851.548861587071
1040
1702.547520446151
1040
-318.1980515339463
1040
318.1980515339464
1070
     0
1040
2.4753793195157
1071
        1
1040
13187.33422800025
1040
7823.872472081592
1040
0.0
1002
}
  0
POLYLINE
  5
4956
  8
画層3-2
 66
     1
 10
0.0
 20
0.0
 30
0.0
  0
VERTEX
  5
4C94
  8
画層3-2
 10
13198.44103023654
 20
8064.66502407382
 30
0.0
  0
VERTEX
  5
4C95
  8
画層3-2
 10
13198.44103023654
 20
7614.66502407382
 30
0.0
  0
VERTEX
  5
4C96
  8
画層3-2
 10
12948.44103023654
 20
7614.66502407382
 30
0.0
  0
VERTEX
  5
4C97
  8
画層3-2
 10
12948.44103023654
 20
8064.66502407382
 30
0.0
  0
SEQEND
  5
4DB5
  8
画層3-2
  0
LINE
  5
4957
  8
画層3-1
  6
CONTINUOUS
 10
13109.24103023682
 20
9986.56502407396
 30
0.0
 11
13037.64103023673
 21
9986.56502407396
 31
0.0
1001
ACAD
1000
ASC_BOUNDS
1002
{
1070
    19
1005
4A2E
1005
4A2E
1002
}
  0
LINE
  5
4958
  8
画層3-1
  6
CONTINUOUS
 10
12993.09103023645
 20
9389.66502407382
 30
0.0
 11
13153.79103023664
 21
9389.66502407382
 31
0.0
1001
ACAD
1000
ASC_BOUNDS
1002
{
1070
    19
1005
4A2E
1005
4A2E
1002
}
  0
LINE
  5
4959
  8
画層3-1
  6
CONTINUOUS
 10
13153.79103023664
 20
9419.66502407382
 30
0.0
 11
12993.09103023645
 21
9419.66502407382
 31
0.0
1001
ACAD
1000
ASC_BOUNDS
1002
{
1070
    19
1005
4A2E
1005
4A2E
1002
}
  0
LINE
  5
495A
  8
画層3-1
  6
CONTINUOUS
 10
13153.79103023664
 20
8759.66502407382
 30
0.0
 11
12993.09103023645
 21
8759.66502407382
 31
0.0
1001
ACAD
1000
ASC_BOUNDS
1002
{
1070
    19
1005
4A2E
1005
4A2E
1002
}
  0
LINE
  5
495B
  8
画層3-1
  6
CONTINUOUS
 10
12993.09103023645
 20
8729.66502407382
 30
0.0
 11
13153.79103023664
 21
8729.66502407382
 31
0.0
1001
ACAD
1000
ASC_BOUNDS
1002
{
1070
    19
1005
4A2E
1005
4A2E
1002
}
  0
LINE
  5
495C
  8
画層3-2
  6
CONTINUOUS
 10
11153.79103023664
 20
9404.66502407382
 30
0.0
 11
12993.09103023645
 21
9404.66502407382
 31
0.0
  0
LINE
  5
495D
  8
画層3-2
  6
CONTINUOUS
 10
12993.09103023645
 20
8744.66502407382
 30
0.0
 11
11153.79103023664
 21
8744.66502407382
 31
0.0
  0
LINE
  5
495E
  8
画層3-2
  6
CONTINUOUS
 10
14993.09103023645
 20
9404.66502407382
 30
0.0
 11
13153.79103023664
 21
9404.66502407382
 31
0.0
  0
LINE
  5
495F
  8
画層3-2
  6
CONTINUOUS
 10
13153.79103023664
 20
8744.66502407382
 30
0.0
 11
14993.09103023645
 21
8744.66502407382
 31
0.0
  0
LINE
  5
4960
  8
画層3-1
  6
CONTINUOUS
 10
11113.84103023645
 20
10001.56502407373
 30
0.0
 11
13033.04103023664
 21
10001.56502407373
 31
0.0
1001
ACAD
1000
ASC_BOUNDS
1002
{
1070
    19
1005
4A2E
1002
}
  0
LINE
  5
4961
  8
画層3-1
  6
CONTINUOUS
 10
15033.04103023664
 20
10001.56502407373
 30
0.0
 11
13113.84103023645
 21
10001.56502407373
 31
0.0
1001
ACAD
1000
ASC_BOUNDS
1002
{
1070
    19
1005
4A2E
1002
}
  0
LINE
  5
4962
  8
画層3-1
  6
CONTINUOUS
 10
11098.84103023645
 20
8084.66502407382
 30
0.0
 11
13048.04103023664
 21
8084.66502407382
 31
0.0
  0
LINE
  5
4963
  8
画層3-1
  6
CONTINUOUS
 10
11098.84103023645
 20
8122.765024073913
 30
0.0
 11
13048.04103023664
 21
8122.765024073913
 31
0.0
1001
ACAD
1000
ASC_BOUNDS
1002
{
1070
    19
1005
4A2E
1002
}
  0
LINE
  5
4964
  8
画層3-1
  6
CONTINUOUS
 10
15048.04103023664
 20
8084.66502407382
 30
0.0
 11
13098.84103023645
 21
8084.66502407382
 31
0.0
  0
LINE
  5
4965
  8
画層3-1
  6
CONTINUOUS
 10
15048.04103023664
 20
8122.765024073913
 30
0.0
 11
13098.84103023645
 21
8122.765024073913
 31
0.0
1001
ACAD
1000
ASC_BOUNDS
1002
{
1070
    19
1005
4A2E
1002
}
  0
INSERT
  5
49B1
  8
ﾈｯﾄ
  2
*X43
 10
0.0
 20
0.0
 30
0.0
1001
ACAD
1000
HATCH
1002
{
1070
    19
1000
NET
1040
40.0
1040
0.7853981633974483
1000
ASC_BOUNDS
1070
     1
1070
     2
1070
    24
1005
393D
1005
393F
1005
393E
1005
393C
1005
3941
1005
3925
1005
3942
1005
3924
1005
3932
1005
392E
1005
3930
1005
3931
1005
392F
1005
3928
1005
392D
1005
392B
1005
392C
1005
395F
1005
3959
1005
3962
1005
3939
1005
3938
1005
393A
1005
3934
1000
ASC_SEEDPOINT
1011
6020.222559936141
1021
8807.236655047542
1031
0.0
1021
8807.236655047542
1031
0.0
1000
R14_HATCH_DATA
1000
49B1
1011
1.0
1021
0.0
1031
0.0
1021
0.0
1031
0.0
1011
0.0
1021
1.0
1031
0.0
1021
1.0
1031
0.0
1011
0.0
1021
0.0
1031
1.0
1021
0.0
1031
1.0
1040
0.0
1010
0.0
1020
0.0
1030
1.0
1020
0.0
1030
1.0
1000
NET
1070
     0
1070
     1
1071
        1
1071
        7
1070
     0
1070
     1
1071
       24
1040
7048.041030236636
1040
8122.765024073913
1040
7048.041030236636
1040
8729.66502407382
1040
6993.091030236449
1040
8729.66502407382
1040
6993.091030236451
1040
8759.66502407382
1040
7048.041030236636
1040
8759.66502407382
1040
7048.041030236636
1040
9389.66502407382
1040
6993.091030236449
1040
9389.66502407382
1040
6993.091030236451
1040
9419.66502407382
1040
7048.041030236637
1040
9419.665024073822
1040
7048.041030236635
1040
9986.56502407396
1040
7037.641030236729
1040
9986.56502407396
1040
7022.641030236961
1040
10001.56502407373
1040
5124.241030236823
1040
10001.56502407396
1040
5109.241030236822
1040
9986.565024073961
1040
5098.84103023645
1040
9986.56502407396
1040
5098.84103023645
1040
9419.66502407382
1040
5153.791030236636
1040
9419.66502407382
1040
5153.791030236637
1040
9389.66502407382
1040
5098.841030236451
1040
9389.665024073822
1040
5098.84103023645
1040
8759.66502407382
1040
5153.791030236636
1040
8759.66502407382
1040
5153.791030236637
1040
8729.66502407382
1040
5098.84103023645
1040
8729.66502407382
1040
5098.84103023645
1040
8122.765024073912
1071
       24
1005
393D
1005
393F
1005
393E
1005
393C
1005
3941
1005
3925
1005
3942
1005
3924
1005
3932
1005
392E
1005
3930
1005
3931
1005
392F
1005
3928
1005
392D
1005
392B
1005
392C
1005
395F
1005
3959
1005
3962
1005
3939
1005
3938
1005
393A
1005
3934
1070
     0
1070
     1
1040
0.7853981633974483
1040
40.0
1070
     0
1070
     2
1040
0.7853981633974483
1040
0.0
1040
0.0
1040
-89.80256121069152
1040
89.80256121069154
1070
     0
1040
2.356194490192345
1040
0.0
1040
0.0
1040
-89.80256121069154
1040
-89.80256121069152
1070
     0
1040
9.109925777033546
1071
        1
1040
6020.222559936141
1040
8807.236655047542
1040
0.0
1002
}
  0
INSERT
  5
49D4
  8
ﾈｯﾄ
  2
*X44
 10
0.0
 20
0.0
 30
0.0
1001
ACAD
1000
HATCH
1002
{
1070
    19
1000
NET
1040
40.0
1040
0.7853981633974483
1000
ASC_BOUNDS
1070
     1
1070
     2
1070
    24
1005
38AA
1005
38AC
1005
38AB
1005
38A8
1005
38AE
1005
3894
1005
3799
1005
3886
1005
381C
1005
388B
1005
381A
1005
388C
1005
381B
1005
3888
1005
3819
1005
388A
1005
3818
1005
38DB
1005
379C
1005
38DE
1005
38A6
1005
38A4
1005
38A7
1005
389F
1000
ASC_SEEDPOINT
1011
10422.71993973352
1021
9217.183308425308
1031
0.0
1021
9217.183308425308
1031
0.0
1000
R14_HATCH_DATA
1000
49D4
1011
1.0
1021
0.0
1031
0.0
1021
0.0
1031
0.0
1011
0.0
1021
1.0
1031
0.0
1021
1.0
1031
0.0
1011
0.0
1021
0.0
1031
1.0
1021
0.0
1031
1.0
1040
0.0
1010
0.0
1020
0.0
1030
1.0
1020
0.0
1030
1.0
1000
NET
1070
     0
1070
     1
1071
        1
1071
        7
1070
     0
1070
     1
1071
       24
1040
10993.09103023645
1040
9389.66502407382
1040
10993.09103023645
1040
9419.66502407382
1040
11048.04103023664
1040
9419.66502407382
1040
11048.04103023664
1040
9986.56502407396
1040
11037.64103023673
1040
9986.565024073961
1040
11022.64103023697
1040
10001.56502407373
1040
9124.24103023659
1040
10001.56502407372
1040
9109.241030236823
1040
9986.56502407396
1040
9098.84103023645
1040
9986.56502407396
1040
9098.84103023645
1040
9419.66502407382
1040
9153.791030236636
1040
9419.66502407382
1040
9153.791030236636
1040
9389.66502407382
1040
9098.84103023645
1040
9389.66502407382
1040
9098.84103023645
1040
8759.66502407382
1040
9153.791030236636
1040
8759.66502407382
1040
9153.791030236636
1040
8729.66502407382
1040
9098.84103023645
1040
8729.66502407382
1040
9098.84103023645
1040
8122.765024073912
1040
11048.04103023664
1040
8122.765024073912
1040
11048.04103023664
1040
8729.66502407382
1040
10993.09103023645
1040
8729.66502407382
1040
10993.09103023645
1040
8759.66502407382
1040
11048.04103023664
1040
8759.66502407382
1040
11048.04103023664
1040
9389.66502407382
1071
       24
1005
38AA
1005
38AC
1005
38AB
1005
38A8
1005
38AE
1005
3894
1005
3799
1005
3886
1005
381C
1005
388B
1005
381A
1005
388C
1005
381B
1005
3888
1005
3819
1005
388A
1005
3818
1005
38DB
1005
379C
1005
38DE
1005
38A6
1005
38A4
1005
38A7
1005
389F
1070
     0
1070
     1
1040
0.7853981633974483
1040
40.0
1070
     0
1070
     2
1040
0.7853981633974483
1040
0.0
1040
0.0
1040
-89.80256121069152
1040
89.80256121069154
1070
     0
1040
2.356194490192345
1040
0.0
1040
0.0
1040
-89.80256121069154
1040
-89.80256121069152
1070
     0
1040
9.109925777033546
1071
        1
1040
10422.71993973352
1040
9217.183308425308
1040
0.0
1002
}
  0
INSERT
  5
4A2E
  8
ﾈｯﾄ
  2
*X45
 10
0.0
 20
0.0
 30
0.0
1001
ACAD
1000
HATCH
1002
{
1070
    19
1000
NET
1040
40.0
1040
0.7853981633974483
1000
ASC_BOUNDS
1070
     3
1070
     2
1070
    14
1005
388E
1005
389A
1005
38BD
1005
38B7
1005
38BA
1005
38BC
1005
38B9
1005
38B1
1005
38B6
1005
38B3
1005
38B5
1005
38E4
1005
38D6
1005
3772
1070
     2
1070
    24
1005
38B9
1005
38BB
1005
38BA
1005
38B8
1005
38BD
1005
389C
1005
4961
1005
4944
1005
4957
1005
493F
1005
4959
1005
493E
1005
4958
1005
4942
1005
495A
1005
4940
1005
495B
1005
493B
1005
4965
1005
38E5
1005
38B5
1005
38B4
1005
38B6
1005
38B2
1070
     2
1070
    24
1005
4958
1005
494B
1005
4959
1005
494C
1005
4957
1005
4950
1005
4960
1005
389B
1005
38AE
1005
38A9
1005
38AB
1005
38AD
1005
38AA
1005
38A2
1005
38A7
1005
38A5
1005
38A6
1005
38E1
1005
4963
1005
4947
1005
495B
1005
494D
1005
495A
1005
494F
1000
ASC_SEEDPOINT
1011
15551.32265010866
1021
8972.506344297173
1031
0.0
1021
8972.506344297173
1031
0.0
1000
R14_HATCH_DATA
1000
4A2E
1011
1.0
1021
0.0
1031
0.0
1021
0.0
1031
0.0
1011
0.0
1021
1.0
1031
0.0
1021
1.0
1031
0.0
1011
0.0
1021
0.0
1031
1.0
1021
0.0
1031
1.0
1040
0.0
1010
0.0
1020
0.0
1030
1.0
1020
0.0
1030
1.0
1000
NET
1070
     0
1070
     1
1071
        3
1071
        7
1070
     0
1070
     1
1071
       14
1040
16024.12338829349
1040
10001.56502407396
1040
15124.24103023682
1040
10001.56502407396
1040
15109.24103023682
1040
9986.56502407396
1040
15098.84103023645
1040
9986.56502407396
1040
15098.84103023645
1040
9419.66502407382
1040
15153.79103023664
1040
9419.66502407382
1040
15153.79103023664
1040
9389.66502407382
1040
15098.84103023645
1040
9389.66502407382
1040
15098.84103023645
1040
8759.66502407382
1040
15153.79103023663
1040
8759.665024073818
1040
15153.79103023664
1040
8729.66502407382
1040
15098.84103023645
1040
8729.66502407382
1040
15098.84103023645
1040
8122.76502407368
1040
16024.12338829349
1040
8122.765024073679
1071
       14
1005
388E
1005
389A
1005
38BD
1005
38B7
1005
38BA
1005
38BC
1005
38B9
1005
38B1
1005
38B6
1005
38B3
1005
38B5
1005
38E4
1005
38D6
1005
3772
1071
        7
1070
     0
1070
     1
1071
       24
1040
15048.04103023663
1040
9389.66502407382
1040
14993.09103023645
1040
9389.66502407382
1040
14993.09103023645
1040
9419.66502407382
1040
15048.04103023664
1040
9419.66502407382
1040
15048.04103023664
1040
9986.56502407396
1040
15037.64103023673
1040
9986.56502407396
1040
15022.64103023697
1040
10001.56502407372
1040
13124.24103023659
1040
10001.56502407373
1040
13109.24103023682
1040
9986.56502407396
1040
13098.84103023645
1040
9986.56502407396
1040
13098.84103023645
1040
9419.66502407382
1040
13153.79103023663
1040
9419.66502407382
1040
13153.79103023664
1040
9389.66502407382
1040
13098.84103023645
1040
9389.66502407382
1040
13098.84103023645
1040
8759.66502407382
1040
13153.79103023663
1040
8759.66502407382
1040
13153.79103023664
1040
8729.66502407382
1040
13098.84103023645
1040
8729.66502407382
1040
13098.84103023645
1040
8122.765024073912
1040
15048.04103023664
1040
8122.765024073912
1040
15048.04103023664
1040
8729.66502407382
1040
14993.09103023645
1040
8729.66502407382
1040
14993.09103023645
1040
8759.66502407382
1040
15048.04103023663
1040
8759.66502407382
1071
       24
1005
38B9
1005
38BB
1005
38BA
1005
38B8
1005
38BD
1005
389C
1005
4961
1005
4944
1005
4957
1005
493F
1005
4959
1005
493E
1005
4958
1005
4942
1005
495A
1005
4940
1005
495B
1005
493B
1005
4965
1005
38E5
1005
38B5
1005
38B4
1005
38B6
1005
38B2
1071
        7
1070
     0
1070
     1
1071
       24
1040
13048.04103023664
1040
9389.66502407382
1040
12993.09103023645
1040
9389.66502407382
1040
12993.09103023645
1040
9419.66502407382
1040
13048.04103023664
1040
9419.66502407382
1040
13048.04103023664
1040
9986.56502407396
1040
13037.64103023673
1040
9986.565024073961
1040
13022.64103023696
1040
10001.56502407373
1040
11124.24103023659
1040
10001.56502407373
1040
11109.24103023682
1040
9986.56502407396
1040
11098.84103023645
1040
9986.56502407396
1040
11098.84103023645
1040
9419.66502407382
1040
11153.79103023663
1040
9419.66502407382
1040
11153.79103023664
1040
9389.66502407382
1040
11098.84103023645
1040
9389.66502407382
1040
11098.84103023645
1040
8759.66502407382
1040
11153.79103023663
1040
8759.66502407382
1040
11153.79103023664
1040
8729.66502407382
1040
11098.84103023645
1040
8729.66502407382
1040
11098.84103023645
1040
8122.765024073912
1040
13048.04103023664
1040
8122.765024073912
1040
13048.04103023664
1040
8729.66502407382
1040
12993.09103023645
1040
8729.66502407382
1040
12993.09103023645
1040
8759.66502407382
1040
13048.04103023664
1040
8759.66502407382
1071
       24
1005
4958
1005
494B
1005
4959
1005
494C
1005
4957
1005
4950
1005
4960
1005
389B
1005
38AE
1005
38A9
1005
38AB
1005
38AD
1005
38AA
1005
38A2
1005
38A7
1005
38A5
1005
38A6
1005
38E1
1005
4963
1005
4947
1005
495B
1005
494D
1005
495A
1005
494F
1070
     0
1070
     1
1040
0.7853981633974483
1040
40.0
1070
     0
1070
     2
1040
0.7853981633974483
1040
0.0
1040
0.0
1040
-89.80256121069152
1040
89.80256121069154
1070
     0
1040
2.356194490192345
1040
0.0
1040
0.0
1040
-89.80256121069154
1040
-89.80256121069152
1070
     0
1040
12.84493929031923
1071
        3
1040
15551.32265010866
1040
8972.506344297173
1040
0.0
1040
14201.86734853573
1040
9049.575994133265
1040
0.0
1040
12711.04059444818
1040
9075.265836046121
1040
0.0
1002
}
  0
POLYLINE
  5
4A65
  8
画層1-1
  6
CONTINUOUS
 66
     1
 10
0.0
 20
0.0
 30
0.0
 70
     1
  0
VERTEX
  5
4D6E
  8
画層1-1
  6
CONTINUOUS
 10
5230.59103023645
 20
12012.81502407373
 30
0.0
  0
VERTEX
  5
4D6F
  8
画層1-1
  6
CONTINUOUS
 10
10916.29103023664
 20
12012.8150240737
 30
0.0
  0
VERTEX
  5
4D70
  8
画層1-1
  6
CONTINUOUS
 10
10916.29103023664
 20
11936.51502407388
 30
0.0
  0
VERTEX
  5
4D71
  8
画層1-1
  6
CONTINUOUS
 10
5230.59103023645
 20
11936.51502407391
 30
0.0
  0
SEQEND
  5
4DB6
  8
画層1-1
  6
CONTINUOUS
  0
LINE
  5
4A66
  8
画層1-1
  6
CONTINUOUS
 10
10916.29103023664
 20
11974.66502407382
 30
0.0
 11
10966.29103023664
 21
11974.66502407382
 31
0.0
  0
POLYLINE
  5
4A67
  8
寸法引出
  6
CONTINUOUS
 66
     1
 10
0.0
 20
0.0
 30
0.0
  0
VERTEX
  5
4D72
  8
寸法引出
  6
CONTINUOUS
 10
8240.831302480314
 20
11977.49818774502
 30
0.0
  0
VERTEX
  5
4D73
  8
寸法引出
  6
CONTINUOUS
 10
8558.124751978197
 20
12625.44771554057
 30
0.0
  0
VERTEX
  5
4D74
  8
寸法引出
  6
CONTINUOUS
 10
12053.55332340677
 20
12625.44771554057
 30
0.0
  0
SEQEND
  5
4DB7
  8
寸法引出
  6
CONTINUOUS
  0
TEXT
  5
4A68
  8
寸法文字
  6
CONTINUOUS
 10
8654.124751978197
 20
12685.44771554057
 30
0.0
 40
180.0
  1
端末・コーナー補強ポールφ76.3×2.8mm
 41
0.75
  7
1_100
  0
TEXT
  5
4A69
  8
寸法文字
  6
CONTINUOUS
 10
9194.861453564683
 20
12375.04363600879
 30
0.0
 40
180.0
  1
（STK-400鋼管）
 41
0.75
  7
1_100
  0
LINE
  5
4A6A
  8
画層1-1
  6
CONTINUOUS
 10
5230.59103023645
 20
11974.66502407382
 30
0.0
 11
5180.59103023645
 21
11974.66502407382
 31
0.0
  0
LINE
  5
4B2F
  8
画層1
  6
CONTINUOUS
 10
4966.291030236636
 20
8064.66502407382
 30
0.0
 11
5180.59103023645
 21
8064.66502407382
 31
0.0
  0
LINE
  5
4B30
  8
画層1
  6
CONTINUOUS
 10
5180.59103023645
 20
8114.66502407382
 30
0.0
 11
4966.291030236636
 21
8114.66502407382
 31
0.0
  0
LINE
  5
4B31
  8
画層1
  6
CONTINUOUS
 10
5098.441030236543
 20
8064.66502407382
 30
0.0
 11
5098.441030236543
 21
8114.66502407382
 31
0.0
  0
LINE
  5
4B32
  8
画層1
  6
CONTINUOUS
 10
5048.441030236543
 20
8114.66502407382
 30
0.0
 11
5048.441030236543
 21
8064.66502407382
 31
0.0
  0
CIRCLE
  5
4B33
  8
画層1
  6
CONTINUOUS
 10
4991.291030236636
 20
8089.66502407382
 30
0.0
 40
10.9509940156
  0
LINE
  5
4B34
  8
画層1
  6
CONTINUOUS
 10
4966.291030236636
 20
8114.66502407382
 30
0.0
 11
4966.291030236636
 21
8064.66502407382
 31
0.0
  0
CIRCLE
  5
4B35
  8
画層1
  6
CONTINUOUS
 10
5155.59103023645
 20
8089.66502407382
 30
0.0
 40
10.9509940156
  0
LINE
  5
4B36
  8
画層1
  6
CONTINUOUS
 10
5180.59103023645
 20
8064.66502407382
 30
0.0
 11
5180.59103023645
 21
8114.66502407382
 31
0.0
  0
LINE
  5
4B37
  8
ﾊｯﾁﾝｸﾞ
 62
     5
 10
8084.706860352373
 20
10039.66502407382
 30
0.0
 11
9575.66703399044
 21
11032.24179714024
 31
0.0
  0
LINE
  5
4B3B
  8
ﾊｯﾁﾝｸﾞ
 62
     5
 10
10739.64261280362
 20
11807.13514732772
 30
0.0
 11
10991.29103023664
 21
11974.66502407382
 31
0.0
  0
LINE
  5
4B43
  8
ﾊｯﾁﾝｸﾞ
 62
     5
 10
7048.041030236636
 20
9349.525580648093
 30
0.0
 11
5155.59103023645
 21
8089.66502407382
 31
0.0
  0
LINE
  5
4B44
  8
ﾊｯﾁﾝｸﾞ
 62
     5
 10
8027.476443363815
 20
10001.56502407373
 30
0.0
 11
7888.407761290748
 21
9908.982843726237
 31
0.0
  0
LINE
  5
4B45
  8
ﾊｯﾁﾝｸﾞ
 62
     5
 10
7396.739599430232
 20
9581.664645596098
 30
0.0
 11
7153.791030236636
 21
9419.66502407382
 31
0.0
  0
LINE
  5
4B47
  8
ﾊｯﾁﾝｸﾞ
 62
     5
 10
5155.59103023645
 20
11974.66502407382
 30
0.0
 11
10991.29103023664
 21
10064.66502407382
 31
0.0
  0
LINE
  5
4B49
  8
ﾊｯﾁﾝｸﾞ
 62
     5
 10
11155.59103023645
 20
11974.66502407382
 30
0.0
 11
16024.12338829349
 21
10381.21491459447
 31
0.0
  0
LINE
  5
4B4A
  8
ﾊｯﾁﾝｸﾞ
 62
     5
 10
11155.59103023645
 20
10064.66502407382
 30
0.0
 11
16024.12338829349
 21
11658.11513355317
 31
0.0
  0
TEXT
  5
4B4B
  8
寸法文字
  6
CONTINUOUS
 10
5522.146781160078
 20
7154.186740868477
 30
0.0
 40
180.0
  1
（21-15-20）
 41
0.75
  7
1_100
  0
TEXT
  5
4B4C
  8
寸法文字
  6
CONTINUOUS
 10
5618.210531800492
 20
6519.137122330078
 30
0.0
 40
180.0
  1
（RC-40）
 41
0.75
  7
1_100
  0
POLYLINE
  5
4B4D
  8
寸法引出
  6
CONTINUOUS
 66
     1
 10
0.0
 20
0.0
 30
0.0
  0
VERTEX
  5
4D75
  8
寸法引出
  6
CONTINUOUS
 10
9165.649000141719
 20
7710.342660494898
 30
0.0
  0
VERTEX
  5
4D76
  8
寸法引出
  6
CONTINUOUS
 10
9456.699346475718
 20
7455.944699424308
 30
0.0
  0
VERTEX
  5
4D77
  8
寸法引出
  6
CONTINUOUS
 10
10466.19934647572
 20
7455.944699424308
 30
0.0
  0
SEQEND
  5
4DB8
  8
寸法引出
  6
CONTINUOUS
  0
INSERT
  5
4B4E
  8
寸法文字
  6
CONTINUOUS
  2
*X46
 10
0.0
 20
0.0
 30
0.0
  0
POLYLINE
  5
4B4F
  8
寸法引出
  6
CONTINUOUS
 66
     1
 10
0.0
 20
0.0
 30
0.0
1001
ACAD
1000
DSTYLE
1002
{
1002
}
  0
VERTEX
  5
4D7B
  8
寸法引出
  6
CONTINUOUS
 10
11298.44103023654
 20
7431.06453044814
 30
0.0
  0
VERTEX
  5
4D7C
  8
寸法引出
  6
CONTINUOUS
 10
11717.29256578085
 20
7181.294417043402
 30
0.0
  0
VERTEX
  5
4D7D
  8
寸法引出
  6
CONTINUOUS
 10
13224.04256578085
 20
7181.294417043402
 30
0.0
  0
SEQEND
  5
4DB9
  8
寸法引出
  6
CONTINUOUS
  0
TEXT
  5
4B50
  8
寸法文字
  6
CONTINUOUS
 10
11802.04256578085
 20
7241.294417043402
 30
0.0
 40
180.0
  1
スパイラルダクト管
 41
0.75
  7
1_100
  0
TEXT
  5
4B51
  8
寸法文字
  6
CONTINUOUS
 10
11744.79377386014
 20
6938.909997861512
 30
0.0
 40
180.0
  1
（φ450×800）
 41
0.75
  7
1_100
  0
LINE
  5
4BA6
  8
画層1
  6
CONTINUOUS
 10
9657.38510378846
 20
14817.95995210607
 30
0.0
 11
14849.4969437106
 21
14817.95995210607
 31
0.0
  0
LINE
  5
4BA7
  8
画層1
  6
CONTINUOUS
 10
9657.38510378846
 20
14853.95995210384
 30
0.0
 11
14849.4969437106
 21
14853.95995210384
 31
0.0
  0
TEXT
  5
4BA8
  8
画層1
  6
CONTINUOUS
 10
11059.03652936696
 20
14508.23967842249
 30
0.0
 40
210.0
  1
(溶融亜鉛メッキ仕上げ)
 41
0.8
  7
ＭＳ_Ｐ明朝
 72
     1
 11
12253.44102374898
 21
14465.76776831013
 31
0.0
 73
     1
  0
TEXT
  5
4BA9
  8
画層1
  6
CONTINUOUS
 10
9939.059001277621
 20
14944.63410940721
 30
0.0
 40
300.0
  1
防球ネット　KS-Ⅱ型　Ｈ＝4,000
 41
0.8
  7
ＭＳ_Ｐ明朝
 72
     1
 11
12253.44102374953
 21
14883.95995210384
 31
0.0
 73
     1
1001
IJCAD_JWWIMPORT_APPID
1002
{
1000
CDataMojiHeightWidthSpace
1010
5000.0
1020
3750.0
1030
0.0
1020
3750.0
1030
0.0
1002
}
  0
ENDSEC
  0
EOF
