  0
SECTION
  2
HEADER
  9
$ACADVER
  1
AC1009
  9
$DWGCODEPAGE
  3
ansi_932
  9
$INSBASE
 10
0.0
 20
0.0
 30
0.0
  9
$EXTMIN
 10
1192.79608536921
 20
518.6542603906105
 30
0.0
  9
$EXTMAX
 10
40192.79608536918
 20
26660.09880423954
 30
0.0
  9
$LIMMIN
 10
0.0
 20
0.0
  9
$LIMMAX
 10
420.0
 20
297.0
  9
$ORTHOMODE
 70
     0
  9
$REGENMODE
 70
     1
  9
$FILLMODE
 70
     1
  9
$QTEXTMODE
 70
     0
  9
$MIRRTEXT
 70
     0
  9
$DRAGMODE
 70
     2
  9
$LTSCALE
 40
1.0
  9
$OSMODE
 70
 16383
  9
$ATTMODE
 70
     1
  9
$TEXTSIZE
 40
2.5
  9
$TRACEWID
 40
1.0
  9
$TEXTSTYLE
  7
STANDARD
  9
$CLAYER
  8
画層1
  9
$CELTYPE
  6
BYLAYER
  9
$CECOLOR
 62
   256
  9
$DIMSCALE
 40
100.0
  9
$DIMASZ
 40
0.6
  9
$DIMEXO
 40
3.0
  9
$DIMDLI
 40
10.0
  9
$DIMRND
 40
0.0
  9
$DIMDLE
 40
0.0
  9
$DIMEXE
 40
0.0
  9
$DIMTP
 40
0.0
  9
$DIMTM
 40
0.0
  9
$DIMTXT
 40
3.0
  9
$DIMCEN
 40
0.0
  9
$DIMTSZ
 40
0.0
  9
$DIMTOL
 70
     0
  9
$DIMLIM
 70
     0
  9
$DIMTIH
 70
     0
  9
$DIMTOH
 70
     0
  9
$DIMSE1
 70
     0
  9
$DIMSE2
 70
     0
  9
$DIMTAD
 70
     1
  9
$DIMZIN
 70
     8
  9
$DIMBLK
  1

  9
$DIMASO
 70
     1
  9
$DIMSHO
 70
     1
  9
$DIMPOST
  1

  9
$DIMAPOST
  1

  9
$DIMALT
 70
     0
  9
$DIMALTD
 70
     2
  9
$DIMALTF
 40
25.4
  9
$DIMLFAC
 40
1.0
  9
$DIMTOFL
 70
     1
  9
$DIMTVP
 40
0.0
  9
$DIMTIX
 70
     0
  9
$DIMSOXD
 70
     0
  9
$DIMSAH
 70
     1
  9
$DIMBLK1
  1
ORIGIN
  9
$DIMBLK2
  1
ORIGIN
  9
$DIMSTYLE
  2
1_100
  9
$DIMCLRD
 70
   256
  9
$DIMCLRE
 70
   256
  9
$DIMCLRT
 70
   256
  9
$DIMTFAC
 40
1.0
  9
$DIMGAP
 40
1.0
  9
$LUNITS
 70
     2
  9
$LUPREC
 70
     4
  9
$SKETCHINC
 40
1.0
  9
$FILLETRAD
 40
0.0
  9
$AUNITS
 70
     0
  9
$AUPREC
 70
     0
  9
$MENU
  1
.
  9
$ELEVATION
 40
0.0
  9
$PELEVATION
 40
0.0
  9
$THICKNESS
 40
0.0
  9
$LIMCHECK
 70
     0
  9
$CHAMFERA
 40
0.0
  9
$CHAMFERB
 40
0.0
  9
$SKPOLY
 70
     0
  9
$TDCREATE
 40
2454357.827333079
  9
$TDUPDATE
 40
2459775.498736574
  9
$TDINDWG
 40
0.1559031944
  9
$TDUSRTIMER
 40
0.1559025116
  9
$USRTIMER
 70
     1
  9
$ANGBASE
 50
0.0
  9
$ANGDIR
 70
     0
  9
$PDMODE
 70
     0
  9
$PDSIZE
 40
0.0
  9
$PLINEWID
 40
0.0
  9
$COORDS
 70
     0
  9
$SPLFRAME
 70
     0
  9
$SPLINETYPE
 70
     6
  9
$SPLINESEGS
 70
     8
  9
$ATTDIA
 70
     1
  9
$ATTREQ
 70
     1
  9
$HANDLING
 70
     1
  9
$HANDSEED
  5
1C84
  9
$SURFTAB1
 70
     6
  9
$SURFTAB2
 70
     6
  9
$SURFTYPE
 70
     6
  9
$SURFU
 70
     6
  9
$SURFV
 70
     6
  9
$UCSNAME
  2

  9
$UCSORG
 10
0.0
 20
0.0
 30
0.0
  9
$UCSXDIR
 10
1.0
 20
0.0
 30
0.0
  9
$UCSYDIR
 10
0.0
 20
1.0
 30
0.0
  9
$PUCSNAME
  2

  9
$PUCSORG
 10
0.0
 20
0.0
 30
0.0
  9
$PUCSXDIR
 10
1.0
 20
0.0
 30
0.0
  9
$PUCSYDIR
 10
0.0
 20
1.0
 30
0.0
  9
$USERI1
 70
     0
  9
$USERI2
 70
     0
  9
$USERI3
 70
     0
  9
$USERI4
 70
     0
  9
$USERI5
 70
     0
  9
$USERR1
 40
0.0
  9
$USERR2
 40
0.0
  9
$USERR3
 40
0.0
  9
$USERR4
 40
0.0
  9
$USERR5
 40
0.0
  9
$WORLDVIEW
 70
     1
  9
$SHADEDGE
 70
     3
  9
$SHADEDIF
 70
    70
  9
$TILEMODE
 70
     1
  9
$MAXACTVP
 70
    64
  9
$PLIMCHECK
 70
     0
  9
$PEXTMIN
 10
26.66999878883362
 20
20.31999878883363
 30
0.0
  9
$PEXTMAX
 10
240.0299890995026
 20
182.8799890995026
 30
0.0
  9
$PLIMMIN
 10
-6.350006103515625
 20
-6.349999904632568
  9
$PLIMMAX
 10
273.0499877929688
 20
209.5499939918518
  9
$UNITMODE
 70
     0
  9
$VISRETAIN
 70
     1
  9
$PLINEGEN
 70
     0
  9
$PSLTSCALE
 70
     1
  0
ENDSEC
  0
SECTION
  2
TABLES
  0
TABLE
  2
VPORT
 70
     1
  0
VPORT
  2
*ACTIVE
 70
     0
 10
0.0
 20
0.0
 11
1.0
 21
1.0
 12
20692.79608536919
 22
13589.37653231507
 13
0.0
 23
0.0
 14
10.0
 24
10.0
 15
10.0
 25
10.0
 16
0.0
 26
0.0
 36
1.0
 17
0.0
 27
0.0
 37
0.0
 40
33298.83570504525
 41
2.046969696969697
 42
50.0
 43
0.0
 44
0.0
 50
0.0
 51
0.0
 71
     0
 72
  1000
 73
     1
 74
     1
 75
     0
 76
     0
 77
     0
 78
     0
  0
ENDTAB
  0
TABLE
  2
LTYPE
 70
     3
  0
LTYPE
  2
CONTINUOUS
 70
     0
  3
Solid line
 72
    65
 73
     0
 40
0.0
  0
LTYPE
  2
DASHED
 70
     0
  3
__ __ __ __ __ __ __ __ __ __ __ __ __ __ __
 72
    65
 73
     2
 40
3.0
 49
2.0
 49
-1.0
  0
LTYPE
  2
DASHDOT
 70
     0
  3
__ . __ . __ . __ . __ . __ . __ . __ . __ . __
 72
    65
 73
     4
 40
8.5
 49
6.0
 49
-1.0
 49
0.5
 49
-1.0
  0
ENDTAB
  0
TABLE
  2
LAYER
 70
    15
  0
LAYER
  2
0
 70
     0
 62
     7
  6
CONTINUOUS
  0
LAYER
  2
DEFPOINTS
 70
     0
 62
     4
  6
CONTINUOUS
  0
LAYER
  2
寸法
 70
     0
 62
     6
  6
CONTINUOUS
  0
LAYER
  2
画層1-1
 70
     0
 62
    82
  6
CONTINUOUS
  0
LAYER
  2
図面枠
 70
     0
 62
     7
  6
CONTINUOUS
  0
LAYER
  2
ﾊｯﾁﾝｸﾞ
 70
     0
 62
     1
  6
CONTINUOUS
  0
LAYER
  2
画層2
 70
     0
 62
    42
  6
CONTINUOUS
  0
LAYER
  2
通り芯
 70
     0
 62
     4
  6
CONTINUOUS
  0
LAYER
  2
画層1
 70
     0
 62
     7
  6
CONTINUOUS
  0
LAYER
  2
ﾈｯﾄ
 70
     0
 62
   230
  6
CONTINUOUS
  0
LAYER
  2
画層2-1
 70
     0
 62
     5
  6
CONTINUOUS
  0
LAYER
  2
寸法文字
 70
     0
 62
     6
  6
CONTINUOUS
  0
LAYER
  2
寸法引出
 70
     0
 62
     7
  6
CONTINUOUS
  0
LAYER
  2
画層3
 70
     0
 62
   190
  6
CONTINUOUS
  0
LAYER
  2
寸法字
 70
     0
 62
     6
  6
CONTINUOUS
  0
ENDTAB
  0
TABLE
  2
STYLE
 70
     4
  0
STYLE
  2
STANDARD
 70
     0
 40
0.0
 41
1.0
 50
0.0
 71
     0
 42
2.5
  3
txt
  4

  0
STYLE
  2
1_100
 70
     0
 40
0.0
 41
0.75
 50
0.0
 71
     0
 42
2.5
  3
romans.shx
  4
extfont2.shx
  0
STYLE
  2
STYLE1
 70
     0
 40
0.0
 41
0.75
 50
0.0
 71
     0
 42
0.2
  3
HGRSKP.TTF
  4

  0
STYLE
  2
ＭＳ_Ｐ明朝
 70
     0
 40
0.0
 41
1.0
 50
0.0
 71
     0
 42
0.2
  3
msmincho.ttc
  4

  0
ENDTAB
  0
TABLE
  2
VIEW
 70
     0
  0
ENDTAB
  0
TABLE
  2
UCS
 70
     0
  0
ENDTAB
  0
TABLE
  2
APPID
 70
    11
  0
APPID
  2
ACAD
 70
     0
  0
APPID
  2
ACDBBLOCKREPETAG
 70
     0
  0
APPID
  2
ACAD_MLEADERVER
 70
     0
  0
APPID
  2
ACAD_EXEMPT_FROM_CAD_STAND
 70
     0
  0
APPID
  2
ACAD_PSEXT
 70
     0
  0
APPID
  2
ACAD_NAV_VCDISPLAY
 70
     0
  0
APPID
  2
ACAECLAYERSTANDARD
 70
     0
  0
APPID
  2
ACADANNOTATIVE
 70
     0
  0
APPID
  2
PLOTTRANSPARENCY
 70
     0
  0
APPID
  2
IJCAD_JWWIMPORT_APPID
 70
     0
  0
APPID
  2
ACCMTRANSPARENCY
 70
     0
  0
ENDTAB
  0
TABLE
  2
DIMSTYLE
 70
     3
  0
DIMSTYLE
  2
ISO-25
 70
     0
  3

  4

  5

  6

  7

 40
1.0
 41
2.5
 42
0.625
 43
3.75
 44
1.25
 45
0.0
 46
0.0
 47
0.0
 48
0.0
140
2.5
141
2.5
142
0.0
143
0.03937007874016
144
1.0
145
0.0
146
1.0
147
0.625
 71
     0
 72
     0
 73
     0
 74
     0
 75
     0
 76
     0
 77
     1
 78
     8
170
     0
171
     3
172
     1
173
     0
174
     0
175
     0
176
     0
177
     0
178
     0
  0
DIMSTYLE
  2
STANDARD
 70
     0
  3

  4

  5

  6

  7

 40
1.0
 41
0.18
 42
0.0625
 43
0.38
 44
0.18
 45
0.0
 46
0.0
 47
0.0
 48
0.0
140
0.18
141
0.09
142
0.0
143
25.4
144
1.0
145
0.0
146
1.0
147
0.09
 71
     0
 72
     0
 73
     1
 74
     1
 75
     0
 76
     0
 77
     0
 78
     0
170
     0
171
     2
172
     0
173
     0
174
     0
175
     0
176
     0
177
     0
178
     0
  0
DIMSTYLE
  2
1_100
 70
     0
  3

  4

  5

  6
ORIGIN
  7
ORIGIN
 40
100.0
 41
0.6
 42
3.0
 43
10.0
 44
0.0
 45
0.0
 46
0.0
 47
0.0
 48
0.0
140
3.0
141
0.0
142
0.0
143
25.4
144
1.0
145
0.0
146
1.0
147
1.0
 71
     0
 72
     0
 73
     0
 74
     0
 75
     0
 76
     0
 77
     1
 78
     8
170
     0
171
     2
172
     1
173
     1
174
     0
175
     0
176
   256
177
   256
178
   256
  0
ENDTAB
  0
ENDSEC
  0
SECTION
  2
BLOCKS
  0
BLOCK
  8
0
  2
$MODEL_SPACE
 70
     0
 10
0.0
 20
0.0
 30
0.0
  3
$MODEL_SPACE
  1

  0
ENDBLK
  5
21
  8
0
  0
BLOCK
 67
     1
  8
0
  2
$PAPER_SPACE
 70
     0
 10
0.0
 20
0.0
 30
0.0
  3
$PAPER_SPACE
  1

  0
ENDBLK
  5
58
 67
     1
  8
0
  0
BLOCK
  8
0
  2
_ORIGIN
 70
     0
 10
0.0
 20
0.0
 30
0.0
  3
_ORIGIN
  1

  0
CIRCLE
  5
89
  8
0
  6
BYBLOCK
 62
     0
 10
0.0
 20
0.0
 30
0.0
 40
0.5
  0
LINE
  5
8A
  8
0
  6
BYBLOCK
 62
     0
 10
0.0
 20
0.0
 30
0.0
 11
-1.0
 21
0.0
 31
0.0
  0
ENDBLK
  5
8B
  8
0
  0
BLOCK
  8
0
  2
SAI450
 70
     0
 10
0.0
 20
0.0
 30
0.0
  3
SAI450
  1

  0
LINE
  5
8E
  8
ﾊｯﾁﾝｸﾞ
  6
CONTINUOUS
 10
184.9591232701205
 20
0.0
 30
0.0
 11
201.0662565772654
 21
-21.8430756283924
 31
0.0
  0
LINE
  5
8F
  8
ﾊｯﾁﾝｸﾞ
  6
CONTINUOUS
 10
168.7806191118434
 20
-77.76344007329317
 30
0.0
 11
181.6189029712696
 21
-100.0
 31
0.0
  0
LINE
  5
90
  8
ﾊｯﾁﾝｸﾞ
  6
CONTINUOUS
 10
155.9423352523008
 20
-100.0
 30
0.0
 11
213.6773621712346
 21
0.0
 31
0.0
  0
LINE
  5
91
  8
ﾊｯﾁﾝｸﾞ
  6
CONTINUOUS
 10
64.33979487384204
 20
-100.0
 30
0.0
 11
122.0748217927758
 21
0.0
 31
0.0
  0
LINE
  5
92
  8
ﾊｯﾁﾝｸﾞ
  6
CONTINUOUS
 10
-27.26274550461676
 20
-100.0
 30
0.0
 11
30.47228141431697
 21
0.0
 31
0.0
  0
LINE
  5
93
  8
ﾊｯﾁﾝｸﾞ
  6
CONTINUOUS
 10
77.17807873338461
 20
-77.76344007329317
 30
0.0
 11
90.01636259281076
 21
-100.0
 31
0.0
  0
LINE
  5
94
  8
ﾊｯﾁﾝｸﾞ
  6
CONTINUOUS
 10
-14.4244616451906
 20
-77.76344007329317
 30
0.0
 11
-1.586177785531618
 21
-100.0
 31
0.0
  0
LINE
  5
95
  8
ﾊｯﾁﾝｸﾞ
  6
CONTINUOUS
 10
1.754042513202876
 20
0.0
 30
0.0
 11
17.86117582034785
 21
-21.8430756283924
 31
0.0
  0
LINE
  5
96
  8
ﾊｯﾁﾝｸﾞ
  6
CONTINUOUS
 10
93.35658289166167
 20
0.0
 30
0.0
 11
109.4637161988067
 21
-21.8430756283924
 31
0.0
  0
LINE
  5
97
  8
ﾊｯﾁﾝｸﾞ
  6
CONTINUOUS
 10
-181.4510382437147
 20
0.0
 30
0.0
 11
-165.3439049364533
 21
-21.8430756283924
 31
0.0
  0
LINE
  5
98
  8
ﾊｯﾁﾝｸﾞ
  6
CONTINUOUS
 10
-197.6295424019918
 20
-77.76344007329317
 30
0.0
 11
-184.7912585424492
 21
-100.0
 31
0.0
  0
LINE
  5
99
  8
ﾊｯﾁﾝｸﾞ
  6
CONTINUOUS
 10
-210.4678262615344
 20
-100.0
 30
0.0
 11
-152.7327993426006
 21
0.0
 31
0.0
  0
LINE
  5
9A
  8
ﾊｯﾁﾝｸﾞ
  6
CONTINUOUS
 10
-118.8652858830756
 20
-100.0
 30
0.0
 11
-61.13025896414183
 21
0.0
 31
0.0
  0
LINE
  5
9B
  8
ﾊｯﾁﾝｸﾞ
  6
CONTINUOUS
 10
-106.027002023533
 20
-77.76344007329317
 30
0.0
 11
-93.18871816399042
 21
-100.0
 31
0.0
  0
LINE
  5
9C
  8
ﾊｯﾁﾝｸﾞ
  6
CONTINUOUS
 10
-89.84849786525592
 20
0.0
 30
0.0
 11
-73.74136455799453
 21
-21.8430756283924
 31
0.0
  0
ENDBLK
  5
9D
  8
0
  0
BLOCK
  8
0
  2
*D3
 70
     1
 10
0.0
 20
0.0
 30
0.0
  3
*D3
  1

  0
LINE
  5
570
  8
寸法
  6
CONTINUOUS
 10
26926.12931774663
 20
19883.4321363333
 30
0.0
 11
27726.12931774663
 21
19883.4321363333
 31
0.0
  0
LINE
  5
571
  8
寸法
  6
CONTINUOUS
 10
26926.12931774663
 20
19943.4321363333
 30
0.0
 11
27726.12931774663
 21
19943.4321363333
 31
0.0
  0
LINE
  5
572
  8
寸法
  6
CONTINUOUS
 10
27726.12931774663
 20
19823.4321363333
 30
0.0
 11
27726.12931774663
 21
19763.4321363333
 31
0.0
  0
LINE
  5
573
  8
寸法
  6
CONTINUOUS
 10
27726.12931774663
 20
20003.4321363333
 30
0.0
 11
27726.12931774663
 21
20063.4321363333
 31
0.0
  0
TEXT
  5
574
  8
寸法
  6
CONTINUOUS
 10
27611.18062455872
 20
19993.40314428895
 30
0.0
 40
300.0
  1
60
 50
90.0
 41
0.75
  7
1_100
  0
LINE
  5
575
  8
寸法
  6
CONTINUOUS
 10
27726.12931774663
 20
19883.4321363333
 30
0.0
 11
27726.12931774663
 21
19943.4321363333
 31
0.0
  0
INSERT
  5
576
  8
寸法
  6
CONTINUOUS
  2
_ORIGIN
 10
27726.12931774663
 20
19883.4321363333
 30
0.0
 41
60.0
 42
60.0
 43
60.0
 50
90.0
  0
INSERT
  5
577
  8
寸法
  6
CONTINUOUS
  2
_ORIGIN
 10
27726.12931774663
 20
19943.4321363333
 30
0.0
 41
60.0
 42
60.0
 43
60.0
 50
270.0
  0
POINT
  5
578
  8
DEFPOINTS
  6
CONTINUOUS
 62
     0
 10
26626.12931774663
 20
19883.4321363333
 30
0.0
  0
POINT
  5
579
  8
DEFPOINTS
  6
CONTINUOUS
 62
     0
 10
26626.12931774663
 20
19943.4321363333
 30
0.0
  0
POINT
  5
57A
  8
DEFPOINTS
  6
CONTINUOUS
 62
     0
 10
27726.12931774663
 20
19943.4321363333
 30
0.0
  0
ENDBLK
  5
455
  8
0
  0
BLOCK
  8
0
  2
*D4
 70
     1
 10
0.0
 20
0.0
 30
0.0
  3
*D4
  1

  0
LINE
  5
57B
  8
寸法
  6
CONTINUOUS
 10
26926.12931774663
 20
13743.4321363333
 30
0.0
 11
27726.12931774663
 21
13743.4321363333
 31
0.0
  0
LINE
  5
57C
  8
寸法
  6
CONTINUOUS
 10
26926.12931774663
 20
13943.4321363333
 30
0.0
 11
27726.12931774663
 21
13943.4321363333
 31
0.0
  0
LINE
  5
57D
  8
寸法
  6
CONTINUOUS
 10
27726.12931774663
 20
13683.4321363333
 30
0.0
 11
27726.12931774663
 21
13623.4321363333
 31
0.0
  0
LINE
  5
57E
  8
寸法
  6
CONTINUOUS
 10
27726.12931774663
 20
14003.4321363333
 30
0.0
 11
27726.12931774663
 21
14063.4321363333
 31
0.0
  0
TEXT
  5
57F
  8
寸法
  6
CONTINUOUS
 10
28095.62540637692
 20
13265.10677843488
 30
0.0
 40
300.0
  1
200
 50
90.0
 41
0.75
  7
1_100
  0
LINE
  5
580
  8
寸法
  6
CONTINUOUS
 10
27726.12931774663
 20
13743.4321363333
 30
0.0
 11
27726.12931774663
 21
13943.4321363333
 31
0.0
  0
INSERT
  5
581
  8
寸法
  6
CONTINUOUS
  2
_ORIGIN
 10
27726.12931774663
 20
13743.4321363333
 30
0.0
 41
60.0
 42
60.0
 43
60.0
 50
90.0
  0
INSERT
  5
582
  8
寸法
  6
CONTINUOUS
  2
_ORIGIN
 10
27726.12931774663
 20
13943.4321363333
 30
0.0
 41
60.0
 42
60.0
 43
60.0
 50
270.0
  0
POINT
  5
583
  8
DEFPOINTS
  6
CONTINUOUS
 62
     0
 10
26626.12931774663
 20
13743.4321363333
 30
0.0
  0
POINT
  5
584
  8
DEFPOINTS
  6
CONTINUOUS
 62
     0
 10
26626.12931774663
 20
13943.4321363333
 30
0.0
  0
POINT
  5
585
  8
DEFPOINTS
  6
CONTINUOUS
 62
     0
 10
27726.12931774663
 20
13943.4321363333
 30
0.0
  0
ENDBLK
  5
463
  8
0
  0
BLOCK
  8
0
  2
*D5
 70
     1
 10
0.0
 20
0.0
 30
0.0
  3
*D5
  1

  0
LINE
  5
163A
  8
寸法
  6
CONTINUOUS
 10
26926.12931774663
 20
13943.4321363333
 30
0.0
 11
28726.12931774663
 21
13943.4321363333
 31
0.0
  0
LINE
  5
163B
  8
寸法
  6
CONTINUOUS
 10
26926.12931774663
 20
12343.4321363333
 30
0.0
 11
28726.12931774663
 21
12343.4321363333
 31
0.0
  0
LINE
  5
163C
  8
寸法
  6
CONTINUOUS
 10
28726.12931774663
 20
13883.4321363333
 30
0.0
 11
28726.12931774663
 21
12403.4321363333
 31
0.0
  0
INSERT
  5
163D
  8
寸法
  6
CONTINUOUS
  2
_ORIGIN
 10
28726.12931774663
 20
13943.4321363333
 30
0.0
 41
60.0
 42
60.0
 43
60.0
 50
90.0
  0
INSERT
  5
163E
  8
寸法
  6
CONTINUOUS
  2
_ORIGIN
 10
28726.12931774663
 20
12343.4321363333
 30
0.0
 41
60.0
 42
60.0
 43
60.0
 50
270.0
  0
TEXT
  5
163F
  8
寸法
  6
CONTINUOUS
 10
28568.98646060377
 20
12645.21785061902
 30
0.0
 40
300.0
  1
1,600
 50
90.0
 41
0.75
  7
1_100
  0
POINT
  5
1640
  8
DEFPOINTS
  6
CONTINUOUS
 62
     0
 10
26626.12931774663
 20
13943.4321363333
 30
0.0
  0
POINT
  5
1641
  8
DEFPOINTS
  6
CONTINUOUS
 62
     0
 10
26626.12931774663
 20
12343.4321363333
 30
0.0
  0
POINT
  5
1642
  8
DEFPOINTS
  6
CONTINUOUS
 62
     0
 10
28726.12931774663
 20
12343.4321363333
 30
0.0
  0
ENDBLK
  5
46F
  8
0
  0
BLOCK
  8
0
  2
*D6
 70
     1
 10
0.0
 20
0.0
 30
0.0
  3
*D6
  1

  0
LINE
  5
1631
  8
寸法
  6
CONTINUOUS
 10
26926.12931774663
 20
12343.4321363333
 30
0.0
 11
27726.12931774663
 21
12343.4321363333
 31
0.0
  0
LINE
  5
1632
  8
寸法
  6
CONTINUOUS
 10
26926.12931774663
 20
13743.4321363333
 30
0.0
 11
27726.12931774663
 21
13743.4321363333
 31
0.0
  0
LINE
  5
1633
  8
寸法
  6
CONTINUOUS
 10
27726.12931774663
 20
12403.4321363333
 30
0.0
 11
27726.12931774663
 21
13683.4321363333
 31
0.0
  0
INSERT
  5
1634
  8
寸法
  6
CONTINUOUS
  2
_ORIGIN
 10
27726.12931774663
 20
12343.4321363333
 30
0.0
 41
60.0
 42
60.0
 43
60.0
 50
270.0
  0
INSERT
  5
1635
  8
寸法
  6
CONTINUOUS
  2
_ORIGIN
 10
27726.12931774663
 20
13743.4321363333
 30
0.0
 41
60.0
 42
60.0
 43
60.0
 50
90.0
  0
TEXT
  5
1636
  8
寸法
  6
CONTINUOUS
 10
27568.98646060377
 20
12545.21785061902
 30
0.0
 40
300.0
  1
1,400
 50
90.0
 41
0.75
  7
1_100
  0
POINT
  5
1637
  8
DEFPOINTS
  6
CONTINUOUS
 62
     0
 10
26626.12931774663
 20
12343.4321363333
 30
0.0
  0
POINT
  5
1638
  8
DEFPOINTS
  6
CONTINUOUS
 62
     0
 10
26626.12931774663
 20
13743.4321363333
 30
0.0
  0
POINT
  5
1639
  8
DEFPOINTS
  6
CONTINUOUS
 62
     0
 10
27726.12931774663
 20
13743.4321363333
 30
0.0
  0
ENDBLK
  5
47B
  8
0
  0
BLOCK
  8
0
  2
*D7
 70
     1
 10
0.0
 20
0.0
 30
0.0
  3
*D7
  1

  0
LINE
  5
1626
  8
寸法
  6
CONTINUOUS
 10
26926.12931774663
 20
12243.4321363333
 30
0.0
 11
27726.12931774663
 21
12243.4321363333
 31
0.0
  0
LINE
  5
1627
  8
寸法
  6
CONTINUOUS
 10
26926.12931774663
 20
12343.4321363333
 30
0.0
 11
27726.12931774663
 21
12343.4321363333
 31
0.0
  0
LINE
  5
1628
  8
寸法
  6
CONTINUOUS
 10
27726.12931774663
 20
12183.4321363333
 30
0.0
 11
27726.12931774663
 21
12123.4321363333
 31
0.0
  0
LINE
  5
1629
  8
寸法
  6
CONTINUOUS
 10
27726.12931774663
 20
12403.4321363333
 30
0.0
 11
27726.12931774663
 21
12463.4321363333
 31
0.0
  0
TEXT
  5
162A
  8
寸法
  6
CONTINUOUS
 10
27609.69193793986
 20
11525.17980252938
 30
0.0
 40
300.0
  1
100
 50
90.0
 41
0.75
  7
1_100
  0
LINE
  5
162B
  8
寸法
  6
CONTINUOUS
 10
27726.12931774663
 20
12243.4321363333
 30
0.0
 11
27726.12931774663
 21
12343.4321363333
 31
0.0
  0
INSERT
  5
162C
  8
寸法
  6
CONTINUOUS
  2
_ORIGIN
 10
27726.12931774663
 20
12243.4321363333
 30
0.0
 41
60.0
 42
60.0
 43
60.0
 50
90.0
  0
INSERT
  5
162D
  8
寸法
  6
CONTINUOUS
  2
_ORIGIN
 10
27726.12931774663
 20
12343.4321363333
 30
0.0
 41
60.0
 42
60.0
 43
60.0
 50
270.0
  0
POINT
  5
162E
  8
DEFPOINTS
  6
CONTINUOUS
 62
     0
 10
26626.12931774663
 20
12243.4321363333
 30
0.0
  0
POINT
  5
162F
  8
DEFPOINTS
  6
CONTINUOUS
 62
     0
 10
26626.12931774663
 20
12343.4321363333
 30
0.0
  0
POINT
  5
1630
  8
DEFPOINTS
  6
CONTINUOUS
 62
     0
 10
27726.12931774663
 20
12343.4321363333
 30
0.0
  0
ENDBLK
  5
489
  8
0
  0
BLOCK
  8
0
  2
*D8
 70
     1
 10
0.0
 20
0.0
 30
0.0
  3
*D8
  1

  0
LINE
  5
5A3
  8
寸法
  6
CONTINUOUS
 10
26926.12931774663
 20
13943.4321363333
 30
0.0
 11
27726.12931774663
 21
13943.4321363333
 31
0.0
  0
LINE
  5
5A4
  8
寸法
  6
CONTINUOUS
 10
26926.12931774663
 20
16913.4321363333
 30
0.0
 11
27726.12931774663
 21
16913.4321363333
 31
0.0
  0
LINE
  5
5A5
  8
寸法
  6
CONTINUOUS
 10
27726.12931774663
 20
14003.4321363333
 30
0.0
 11
27726.12931774663
 21
16853.4321363333
 31
0.0
  0
INSERT
  5
5A6
  8
寸法
  6
CONTINUOUS
  2
_ORIGIN
 10
27726.12931774663
 20
13943.4321363333
 30
0.0
 41
60.0
 42
60.0
 43
60.0
 50
270.0
  0
INSERT
  5
5A7
  8
寸法
  6
CONTINUOUS
  2
_ORIGIN
 10
27726.12931774663
 20
16913.4321363333
 30
0.0
 41
60.0
 42
60.0
 43
60.0
 50
90.0
  0
TEXT
  5
5A8
  8
寸法
  6
CONTINUOUS
 10
27568.98646060377
 20
14946.28927919044
 30
0.0
 40
300.0
  1
2,970
 50
90.0
 41
0.75
  7
1_100
  0
POINT
  5
5A9
  8
DEFPOINTS
  6
CONTINUOUS
 62
     0
 10
26626.12931774663
 20
13943.4321363333
 30
0.0
  0
POINT
  5
5AA
  8
DEFPOINTS
  6
CONTINUOUS
 62
     0
 10
26626.12931774663
 20
16913.4321363333
 30
0.0
  0
POINT
  5
5AB
  8
DEFPOINTS
  6
CONTINUOUS
 62
     0
 10
27726.12931774663
 20
16913.4321363333
 30
0.0
  0
ENDBLK
  5
495
  8
0
  0
BLOCK
  8
0
  2
*D9
 70
     1
 10
0.0
 20
0.0
 30
0.0
  3
*D9
  1

  0
LINE
  5
5AC
  8
寸法
  6
CONTINUOUS
 10
26926.12931774663
 20
16913.4321363333
 30
0.0
 11
27726.12931774663
 21
16913.4321363333
 31
0.0
  0
LINE
  5
5AD
  8
寸法
  6
CONTINUOUS
 10
26926.12931774663
 20
19883.4321363333
 30
0.0
 11
27726.12931774663
 21
19883.4321363333
 31
0.0
  0
LINE
  5
5AE
  8
寸法
  6
CONTINUOUS
 10
27726.12931774663
 20
16973.4321363333
 30
0.0
 11
27726.12931774663
 21
19823.4321363333
 31
0.0
  0
INSERT
  5
5AF
  8
寸法
  6
CONTINUOUS
  2
_ORIGIN
 10
27726.12931774663
 20
16913.4321363333
 30
0.0
 41
60.0
 42
60.0
 43
60.0
 50
270.0
  0
INSERT
  5
5B0
  8
寸法
  6
CONTINUOUS
  2
_ORIGIN
 10
27726.12931774663
 20
19883.4321363333
 30
0.0
 41
60.0
 42
60.0
 43
60.0
 50
90.0
  0
TEXT
  5
5B1
  8
寸法
  6
CONTINUOUS
 10
27568.98646060378
 20
17916.28927919045
 30
0.0
 40
300.0
  1
2,970
 50
90.0
 41
0.75
  7
1_100
  0
POINT
  5
5B2
  8
DEFPOINTS
  6
CONTINUOUS
 62
     0
 10
26626.12931774663
 20
16913.4321363333
 30
0.0
  0
POINT
  5
5B3
  8
DEFPOINTS
  6
CONTINUOUS
 62
     0
 10
26626.12931774663
 20
19883.4321363333
 30
0.0
  0
POINT
  5
5B4
  8
DEFPOINTS
  6
CONTINUOUS
 62
     0
 10
27726.12931774663
 20
19883.4321363333
 30
0.0
  0
ENDBLK
  5
4A1
  8
0
  0
BLOCK
  8
0
  2
*D10
 70
     1
 10
0.0
 20
0.0
 30
0.0
  3
*D10
  1

  0
LINE
  5
5B5
  8
寸法
  6
CONTINUOUS
 10
26926.12931774663
 20
19943.4321363333
 30
0.0
 11
28726.12931774663
 21
19943.4321363333
 31
0.0
  0
LINE
  5
5B6
  8
寸法
  6
CONTINUOUS
 10
26926.12931774663
 20
13943.4321363333
 30
0.0
 11
28726.12931774663
 21
13943.4321363333
 31
0.0
  0
LINE
  5
5B7
  8
寸法
  6
CONTINUOUS
 10
28726.12931774663
 20
19883.4321363333
 30
0.0
 11
28726.12931774663
 21
14003.4321363333
 31
0.0
  0
INSERT
  5
5B8
  8
寸法
  6
CONTINUOUS
  2
_ORIGIN
 10
28726.12931774663
 20
19943.4321363333
 30
0.0
 41
60.0
 42
60.0
 43
60.0
 50
90.0
  0
INSERT
  5
5B9
  8
寸法
  6
CONTINUOUS
  2
_ORIGIN
 10
28726.12931774663
 20
13943.4321363333
 30
0.0
 41
60.0
 42
60.0
 43
60.0
 50
270.0
  0
TEXT
  5
5BA
  8
寸法
  6
CONTINUOUS
 10
28568.98646060378
 20
16455.9321363333
 30
0.0
 40
300.0
  1
6,000
 50
90.0
 41
0.75
  7
1_100
  0
POINT
  5
5BB
  8
DEFPOINTS
  6
CONTINUOUS
 62
     0
 10
26626.12931774663
 20
19943.4321363333
 30
0.0
  0
POINT
  5
5BC
  8
DEFPOINTS
  6
CONTINUOUS
 62
     0
 10
26626.12931774663
 20
13943.4321363333
 30
0.0
  0
POINT
  5
5BD
  8
DEFPOINTS
  6
CONTINUOUS
 62
     0
 10
28726.12931774663
 20
13943.4321363333
 30
0.0
  0
ENDBLK
  5
4AD
  8
0
  0
BLOCK
  8
0
  2
*D11
 70
     1
 10
0.0
 20
0.0
 30
0.0
  3
*D11
  1

  0
LINE
  5
161D
  8
寸法
  6
CONTINUOUS
 10
9726.129317746632
 20
10643.43213633324
 30
0.0
 11
9726.129317746632
 21
9343.432137572481
 31
0.0
  0
LINE
  5
161E
  8
寸法
  6
CONTINUOUS
 10
19726.12931774663
 20
11800.96466454
 30
0.0
 11
19726.12931774663
 21
9343.432137572481
 31
0.0
  0
LINE
  5
161F
  8
寸法
  6
CONTINUOUS
 10
9786.129317746632
 20
9343.432137572481
 30
0.0
 11
19666.12931774663
 21
9343.432137572481
 31
0.0
  0
INSERT
  5
1620
  8
寸法
  6
CONTINUOUS
  2
_ORIGIN
 10
9726.129317746632
 20
9343.432137572481
 30
0.0
 41
60.0
 42
60.0
 43
60.0
 50
180.0
  0
INSERT
  5
1621
  8
寸法
  6
CONTINUOUS
  2
_ORIGIN
 10
19726.12931774663
 20
9343.432137572481
 30
0.0
 41
60.0
 42
60.0
 43
60.0
  0
TEXT
  5
1622
  8
寸法
  6
CONTINUOUS
 10
14120.77217488949
 20
9500.57499471534
 30
0.0
 40
300.0
  1
10,000
 41
0.75
  7
1_100
  0
POINT
  5
1623
  8
DEFPOINTS
  6
CONTINUOUS
 62
     0
 10
9726.129317746632
 20
10943.43213633324
 30
0.0
  0
POINT
  5
1624
  8
DEFPOINTS
  6
CONTINUOUS
 62
     0
 10
19726.12931774663
 20
12100.96466454
 30
0.0
  0
POINT
  5
1625
  8
DEFPOINTS
  6
CONTINUOUS
 62
     0
 10
19726.12931774663
 20
9343.432137572481
 30
0.0
  0
ENDBLK
  5
4B9
  8
0
  0
BLOCK
  8
0
  2
*D12
 70
     1
 10
0.0
 20
0.0
 30
0.0
  3
*D12
  1

  0
LINE
  5
1614
  8
寸法
  6
CONTINUOUS
 10
9501.129317746632
 20
11943.43213633336
 30
0.0
 11
9501.129317746632
 21
11643.43213633336
 31
0.0
  0
LINE
  5
1615
  8
寸法
  6
CONTINUOUS
 10
9951.129317746632
 20
11943.43213633336
 30
0.0
 11
9951.129317746632
 21
11643.43213633336
 31
0.0
  0
LINE
  5
1616
  8
寸法
  6
CONTINUOUS
 10
9561.129317746632
 20
11643.43213633336
 30
0.0
 11
9891.129317746632
 21
11643.43213633336
 31
0.0
  0
TEXT
  5
1617
  8
寸法
  6
CONTINUOUS
 10
8461.881938695244
 20
11674.76579792225
 30
0.0
 40
300.0
  1
φ450
 41
0.75
  7
1_100
  0
INSERT
  5
1618
  8
寸法
  6
CONTINUOUS
  2
_ORIGIN
 10
9501.129317746632
 20
11643.43213633336
 30
0.0
 41
60.0
 42
60.0
 43
60.0
 50
180.0
  0
INSERT
  5
1619
  8
寸法
  6
CONTINUOUS
  2
_ORIGIN
 10
9951.129317746632
 20
11643.43213633336
 30
0.0
 41
60.0
 42
60.0
 43
60.0
  0
POINT
  5
161A
  8
DEFPOINTS
  6
CONTINUOUS
 62
     0
 10
9501.129317746632
 20
12243.43213633336
 30
0.0
  0
POINT
  5
161B
  8
DEFPOINTS
  6
CONTINUOUS
 62
     0
 10
9951.129317746632
 20
12243.43213633336
 30
0.0
  0
POINT
  5
161C
  8
DEFPOINTS
  6
CONTINUOUS
 62
     0
 10
9951.129317746632
 20
11643.43213633336
 30
0.0
  0
ENDBLK
  5
4C5
  8
0
  0
BLOCK
  8
0
  2
*D13
 70
     1
 10
0.0
 20
0.0
 30
0.0
  3
*D13
  1

  0
LINE
  5
1609
  8
寸法
  6
CONTINUOUS
 10
9476.129317746632
 20
11943.43213633336
 30
0.0
 11
9476.129317746632
 21
11243.43213633324
 31
0.0
  0
LINE
  5
160A
  8
寸法
  6
CONTINUOUS
 10
9976.129317746632
 20
11943.4321363333
 30
0.0
 11
9976.129317746632
 21
11243.43213633324
 31
0.0
  0
LINE
  5
160B
  8
寸法
  6
CONTINUOUS
 10
9416.129317746632
 20
11243.43213633324
 30
0.0
 11
9356.129317746632
 21
11243.43213633324
 31
0.0
  0
LINE
  5
160C
  8
寸法
  6
CONTINUOUS
 10
10036.12931774663
 20
11243.43213633324
 30
0.0
 11
10096.12931774663
 21
11243.43213633324
 31
0.0
  0
LINE
  5
160D
  8
寸法
  6
CONTINUOUS
 10
9476.129317746632
 20
11243.43213633324
 30
0.0
 11
9976.129317746632
 21
11243.43213633324
 31
0.0
  0
INSERT
  5
160E
  8
寸法
  6
CONTINUOUS
  2
_ORIGIN
 10
9476.129317746632
 20
11243.43213633324
 30
0.0
 41
60.0
 42
60.0
 43
60.0
  0
INSERT
  5
160F
  8
寸法
  6
CONTINUOUS
  2
_ORIGIN
 10
9976.129317746632
 20
11243.43213633324
 30
0.0
 41
60.0
 42
60.0
 43
60.0
 50
180.0
  0
TEXT
  5
1610
  8
寸法
  6
CONTINUOUS
 10
9270.77217488949
 20
10843.43213633324
 30
0.0
 40
300.0
  1
□500
 41
0.75
  7
1_100
  0
POINT
  5
1611
  8
DEFPOINTS
  6
CONTINUOUS
 62
     0
 10
9476.129317746632
 20
12243.43213633336
 30
0.0
  0
POINT
  5
1612
  8
DEFPOINTS
  6
CONTINUOUS
 62
     0
 10
9976.129317746632
 20
12243.4321363333
 30
0.0
  0
POINT
  5
1613
  8
DEFPOINTS
  6
CONTINUOUS
 62
     0
 10
9976.129317746632
 20
11243.43213633324
 30
0.0
  0
ENDBLK
  5
4D3
  8
0
  0
BLOCK
  8
0
  2
*D14
 70
     1
 10
0.0
 20
0.0
 30
0.0
  3
*D14
  1

  0
LINE
  5
5DB
  8
寸法
  6
CONTINUOUS
 10
9630.779317746772
 20
20243.43213633335
 30
0.0
 11
9630.779317746772
 21
20543.43213633335
 31
0.0
  0
LINE
  5
5DC
  8
寸法
  6
CONTINUOUS
 10
9821.479317746725
 20
20243.43213633335
 30
0.0
 11
9821.479317746725
 21
20543.43213633335
 31
0.0
  0
LINE
  5
5DD
  8
寸法
  6
CONTINUOUS
 10
9570.779317746772
 20
20543.43213633335
 30
0.0
 11
9510.779317746772
 21
20543.43213633335
 31
0.0
  0
LINE
  5
5DE
  8
寸法
  6
CONTINUOUS
 10
9881.479317746725
 20
20543.43213633335
 30
0.0
 11
9941.479317746725
 21
20543.43213633335
 31
0.0
  0
TEXT
  5
5DF
  8
寸法
  6
CONTINUOUS
 10
9102.55788917532
 20
20693.43213633335
 30
0.0
 40
300.0
  1
φ190.7
 41
0.75
  7
1_100
  0
LINE
  5
5E0
  8
寸法
  6
CONTINUOUS
 10
9630.779317746772
 20
20543.43213633335
 30
0.0
 11
9821.479317746725
 21
20543.43213633335
 31
0.0
  0
INSERT
  5
5E1
  8
寸法
  6
CONTINUOUS
  2
_ORIGIN
 10
9630.779317746772
 20
20543.43213633335
 30
0.0
 41
60.0
 42
60.0
 43
60.0
  0
INSERT
  5
5E2
  8
寸法
  6
CONTINUOUS
  2
_ORIGIN
 10
9821.479317746725
 20
20543.43213633335
 30
0.0
 41
60.0
 42
60.0
 43
60.0
 50
180.0
  0
POINT
  5
5E3
  8
DEFPOINTS
  6
CONTINUOUS
 62
     0
 10
9630.779317746772
 20
19943.43213633335
 30
0.0
  0
POINT
  5
5E4
  8
DEFPOINTS
  6
CONTINUOUS
 62
     0
 10
9821.479317746725
 20
19943.43213633335
 30
0.0
  0
POINT
  5
5E5
  8
DEFPOINTS
  6
CONTINUOUS
 62
     0
 10
9821.479317746725
 20
20543.43213633335
 30
0.0
  0
ENDBLK
  5
4E1
  8
0
  0
BLOCK
  8
0
  2
*D15
 70
     1
 10
0.0
 20
0.0
 30
0.0
  3
*D15
  1

  0
LINE
  5
5E6
  8
寸法
  6
CONTINUOUS
 10
33526.12931774664
 20
19883.43213633417
 30
0.0
 11
34326.12931774664
 21
19883.43213633417
 31
0.0
  0
LINE
  5
5E7
  8
寸法
  6
CONTINUOUS
 10
33526.12931774664
 20
19943.43213633417
 30
0.0
 11
34326.12931774664
 21
19943.43213633417
 31
0.0
  0
LINE
  5
5E8
  8
寸法
  6
CONTINUOUS
 10
34326.12931774664
 20
19823.43213633417
 30
0.0
 11
34326.12931774664
 21
19763.43213633417
 31
0.0
  0
LINE
  5
5E9
  8
寸法
  6
CONTINUOUS
 10
34326.12931774664
 20
20003.43213633417
 30
0.0
 11
34326.12931774664
 21
20063.43213633417
 31
0.0
  0
TEXT
  5
5EA
  8
寸法
  6
CONTINUOUS
 10
34210.71225874745
 20
20027.31463457099
 30
0.0
 40
300.0
  1
60
 50
90.0
 41
0.75
  7
1_100
  0
LINE
  5
5EB
  8
寸法
  6
CONTINUOUS
 10
34326.12931774664
 20
19883.43213633417
 30
0.0
 11
34326.12931774664
 21
19943.43213633417
 31
0.0
  0
INSERT
  5
5EC
  8
寸法
  6
CONTINUOUS
  2
_ORIGIN
 10
34326.12931774664
 20
19883.43213633417
 30
0.0
 41
60.0
 42
60.0
 43
60.0
 50
90.0
  0
INSERT
  5
5ED
  8
寸法
  6
CONTINUOUS
  2
_ORIGIN
 10
34326.12931774664
 20
19943.43213633417
 30
0.0
 41
60.0
 42
60.0
 43
60.0
 50
270.0
  0
POINT
  5
5EE
  8
DEFPOINTS
  6
CONTINUOUS
 62
     0
 10
33226.12931774664
 20
19883.43213633417
 30
0.0
  0
POINT
  5
5EF
  8
DEFPOINTS
  6
CONTINUOUS
 62
     0
 10
33226.12931774664
 20
19943.43213633417
 30
0.0
  0
POINT
  5
5F0
  8
DEFPOINTS
  6
CONTINUOUS
 62
     0
 10
34326.12931774664
 20
19943.43213633417
 30
0.0
  0
ENDBLK
  5
4EF
  8
0
  0
BLOCK
  8
0
  2
*D16
 70
     1
 10
0.0
 20
0.0
 30
0.0
  3
*D16
  1

  0
LINE
  5
5F1
  8
寸法
  6
CONTINUOUS
 10
33566.12931774664
 20
16913.43213633417
 30
0.0
 11
34326.12931774664
 21
16913.43213633417
 31
0.0
  0
LINE
  5
5F2
  8
寸法
  6
CONTINUOUS
 10
33526.12931774664
 20
19883.43213633417
 30
0.0
 11
34326.12931774664
 21
19883.43213633417
 31
0.0
  0
LINE
  5
5F3
  8
寸法
  6
CONTINUOUS
 10
34326.12931774664
 20
16973.43213633417
 30
0.0
 11
34326.12931774664
 21
19823.43213633417
 31
0.0
  0
INSERT
  5
5F4
  8
寸法
  6
CONTINUOUS
  2
_ORIGIN
 10
34326.12931774664
 20
16913.43213633417
 30
0.0
 41
60.0
 42
60.0
 43
60.0
 50
270.0
  0
INSERT
  5
5F5
  8
寸法
  6
CONTINUOUS
  2
_ORIGIN
 10
34326.12931774664
 20
19883.43213633417
 30
0.0
 41
60.0
 42
60.0
 43
60.0
 50
90.0
  0
TEXT
  5
5F6
  8
寸法
  6
CONTINUOUS
 10
34168.98646060377
 20
17916.28927919132
 30
0.0
 40
300.0
  1
2,970
 50
90.0
 41
0.75
  7
1_100
  0
POINT
  5
5F7
  8
DEFPOINTS
  6
CONTINUOUS
 62
     0
 10
33266.12931774664
 20
16913.43213633417
 30
0.0
  0
POINT
  5
5F8
  8
DEFPOINTS
  6
CONTINUOUS
 62
     0
 10
33226.12931774664
 20
19883.43213633417
 30
0.0
  0
POINT
  5
5F9
  8
DEFPOINTS
  6
CONTINUOUS
 62
     0
 10
34326.12931774664
 20
19883.43213633417
 30
0.0
  0
ENDBLK
  5
4FB
  8
0
  0
BLOCK
  8
0
  2
*D17
 70
     1
 10
0.0
 20
0.0
 30
0.0
  3
*D17
  1

  0
LINE
  5
5FA
  8
寸法
  6
CONTINUOUS
 10
33526.12931774664
 20
19943.43213633417
 30
0.0
 11
35326.12931774664
 21
19943.43213633417
 31
0.0
  0
LINE
  5
5FB
  8
寸法
  6
CONTINUOUS
 10
33526.12931774664
 20
13943.43213633417
 30
0.0
 11
35326.12931774664
 21
13943.43213633417
 31
0.0
  0
LINE
  5
5FC
  8
寸法
  6
CONTINUOUS
 10
35326.12931774664
 20
19883.43213633417
 30
0.0
 11
35326.12931774664
 21
14003.43213633417
 31
0.0
  0
INSERT
  5
5FD
  8
寸法
  6
CONTINUOUS
  2
_ORIGIN
 10
35326.12931774664
 20
19943.43213633417
 30
0.0
 41
60.0
 42
60.0
 43
60.0
 50
90.0
  0
INSERT
  5
5FE
  8
寸法
  6
CONTINUOUS
  2
_ORIGIN
 10
35326.12931774664
 20
13943.43213633417
 30
0.0
 41
60.0
 42
60.0
 43
60.0
 50
270.0
  0
TEXT
  5
5FF
  8
寸法
  6
CONTINUOUS
 10
35168.98646060379
 20
16455.93213633417
 30
0.0
 40
300.0
  1
6,000
 50
90.0
 41
0.75
  7
1_100
  0
POINT
  5
600
  8
DEFPOINTS
  6
CONTINUOUS
 62
     0
 10
33226.12931774664
 20
19943.43213633417
 30
0.0
  0
POINT
  5
601
  8
DEFPOINTS
  6
CONTINUOUS
 62
     0
 10
33226.12931774664
 20
13943.43213633417
 30
0.0
  0
POINT
  5
602
  8
DEFPOINTS
  6
CONTINUOUS
 62
     0
 10
35326.12931774664
 20
13943.43213633417
 30
0.0
  0
ENDBLK
  5
507
  8
0
  0
BLOCK
  8
0
  2
*D18
 70
     1
 10
0.0
 20
0.0
 30
0.0
  3
*D18
  1

  0
LINE
  5
603
  8
寸法
  6
CONTINUOUS
 10
33526.12931774664
 20
13743.43213633417
 30
0.0
 11
34326.12931774664
 21
13743.43213633417
 31
0.0
  0
LINE
  5
604
  8
寸法
  6
CONTINUOUS
 10
33526.12931774664
 20
13943.43213633417
 30
0.0
 11
34326.12931774664
 21
13943.43213633417
 31
0.0
  0
LINE
  5
605
  8
寸法
  6
CONTINUOUS
 10
34326.12931774664
 20
13683.43213633417
 30
0.0
 11
34326.12931774664
 21
13623.43213633417
 31
0.0
  0
LINE
  5
606
  8
寸法
  6
CONTINUOUS
 10
34326.12931774664
 20
14003.43213633417
 30
0.0
 11
34326.12931774664
 21
14063.43213633417
 31
0.0
  0
TEXT
  5
607
  8
寸法
  6
CONTINUOUS
 10
34695.62540637692
 20
13265.10677843575
 30
0.0
 40
300.0
  1
200
 50
90.0
 41
0.75
  7
1_100
  0
LINE
  5
608
  8
寸法
  6
CONTINUOUS
 10
34326.12931774664
 20
13743.43213633417
 30
0.0
 11
34326.12931774664
 21
13943.43213633417
 31
0.0
  0
INSERT
  5
609
  8
寸法
  6
CONTINUOUS
  2
_ORIGIN
 10
34326.12931774664
 20
13743.43213633417
 30
0.0
 41
60.0
 42
60.0
 43
60.0
 50
90.0
  0
INSERT
  5
60A
  8
寸法
  6
CONTINUOUS
  2
_ORIGIN
 10
34326.12931774664
 20
13943.43213633417
 30
0.0
 41
60.0
 42
60.0
 43
60.0
 50
270.0
  0
POINT
  5
60B
  8
DEFPOINTS
  6
CONTINUOUS
 62
     0
 10
33226.12931774664
 20
13743.43213633417
 30
0.0
  0
POINT
  5
60C
  8
DEFPOINTS
  6
CONTINUOUS
 62
     0
 10
33226.12931774664
 20
13943.43213633417
 30
0.0
  0
POINT
  5
60D
  8
DEFPOINTS
  6
CONTINUOUS
 62
     0
 10
34326.12931774664
 20
13943.43213633417
 30
0.0
  0
ENDBLK
  5
515
  8
0
  0
BLOCK
  8
0
  2
*D19
 70
     1
 10
0.0
 20
0.0
 30
0.0
  3
*D19
  1

  0
LINE
  5
1600
  8
寸法
  6
CONTINUOUS
 10
33526.12931774664
 20
13943.43213633417
 30
0.0
 11
35326.12931774664
 21
13943.43213633417
 31
0.0
  0
LINE
  5
1601
  8
寸法
  6
CONTINUOUS
 10
33526.12931774664
 20
12343.43213633417
 30
0.0
 11
35326.12931774664
 21
12343.43213633417
 31
0.0
  0
LINE
  5
1602
  8
寸法
  6
CONTINUOUS
 10
35326.12931774664
 20
13883.43213633417
 30
0.0
 11
35326.12931774664
 21
12403.43213633417
 31
0.0
  0
INSERT
  5
1603
  8
寸法
  6
CONTINUOUS
  2
_ORIGIN
 10
35326.12931774664
 20
13943.43213633417
 30
0.0
 41
60.0
 42
60.0
 43
60.0
 50
90.0
  0
INSERT
  5
1604
  8
寸法
  6
CONTINUOUS
  2
_ORIGIN
 10
35326.12931774664
 20
12343.43213633417
 30
0.0
 41
60.0
 42
60.0
 43
60.0
 50
270.0
  0
TEXT
  5
1605
  8
寸法
  6
CONTINUOUS
 10
35168.98646060377
 20
12645.21785061989
 30
0.0
 40
300.0
  1
1,600
 50
90.0
 41
0.75
  7
1_100
  0
POINT
  5
1606
  8
DEFPOINTS
  6
CONTINUOUS
 62
     0
 10
33226.12931774664
 20
13943.43213633417
 30
0.0
  0
POINT
  5
1607
  8
DEFPOINTS
  6
CONTINUOUS
 62
     0
 10
33226.12931774664
 20
12343.43213633417
 30
0.0
  0
POINT
  5
1608
  8
DEFPOINTS
  6
CONTINUOUS
 62
     0
 10
35326.12931774664
 20
12343.43213633417
 30
0.0
  0
ENDBLK
  5
521
  8
0
  0
BLOCK
  8
0
  2
*D20
 70
     1
 10
0.0
 20
0.0
 30
0.0
  3
*D20
  1

  0
LINE
  5
15F7
  8
寸法
  6
CONTINUOUS
 10
33526.12931774664
 20
12343.43213633417
 30
0.0
 11
34326.12931774664
 21
12343.43213633417
 31
0.0
  0
LINE
  5
15F8
  8
寸法
  6
CONTINUOUS
 10
33526.12931774664
 20
13743.43213633417
 30
0.0
 11
34326.12931774664
 21
13743.43213633417
 31
0.0
  0
LINE
  5
15F9
  8
寸法
  6
CONTINUOUS
 10
34326.12931774664
 20
12403.43213633417
 30
0.0
 11
34326.12931774664
 21
13683.43213633417
 31
0.0
  0
INSERT
  5
15FA
  8
寸法
  6
CONTINUOUS
  2
_ORIGIN
 10
34326.12931774664
 20
12343.43213633417
 30
0.0
 41
60.0
 42
60.0
 43
60.0
 50
270.0
  0
INSERT
  5
15FB
  8
寸法
  6
CONTINUOUS
  2
_ORIGIN
 10
34326.12931774664
 20
13743.43213633417
 30
0.0
 41
60.0
 42
60.0
 43
60.0
 50
90.0
  0
TEXT
  5
15FC
  8
寸法
  6
CONTINUOUS
 10
34168.98646060377
 20
12545.21785061989
 30
0.0
 40
300.0
  1
1,400
 50
90.0
 41
0.75
  7
1_100
  0
POINT
  5
15FD
  8
DEFPOINTS
  6
CONTINUOUS
 62
     0
 10
33226.12931774664
 20
12343.43213633417
 30
0.0
  0
POINT
  5
15FE
  8
DEFPOINTS
  6
CONTINUOUS
 62
     0
 10
33226.12931774664
 20
13743.43213633417
 30
0.0
  0
POINT
  5
15FF
  8
DEFPOINTS
  6
CONTINUOUS
 62
     0
 10
34326.12931774664
 20
13743.43213633417
 30
0.0
  0
ENDBLK
  5
52D
  8
0
  0
BLOCK
  8
0
  2
*D21
 70
     1
 10
0.0
 20
0.0
 30
0.0
  3
*D21
  1

  0
LINE
  5
15EC
  8
寸法
  6
CONTINUOUS
 10
33526.12931774664
 20
12243.43213633417
 30
0.0
 11
34326.12931774664
 21
12243.43213633417
 31
0.0
  0
LINE
  5
15ED
  8
寸法
  6
CONTINUOUS
 10
33526.12931774664
 20
12343.43213633417
 30
0.0
 11
34326.12931774664
 21
12343.43213633417
 31
0.0
  0
LINE
  5
15EE
  8
寸法
  6
CONTINUOUS
 10
34326.12931774664
 20
12183.43213633417
 30
0.0
 11
34326.12931774664
 21
12123.43213633417
 31
0.0
  0
LINE
  5
15EF
  8
寸法
  6
CONTINUOUS
 10
34326.12931774664
 20
12403.43213633417
 30
0.0
 11
34326.12931774664
 21
12463.43213633417
 31
0.0
  0
TEXT
  5
15F0
  8
寸法
  6
CONTINUOUS
 10
34234.84665065318
 20
11526.18003003373
 30
0.0
 40
300.0
  1
100
 50
90.0
 41
0.75
  7
1_100
  0
LINE
  5
15F1
  8
寸法
  6
CONTINUOUS
 10
34326.12931774664
 20
12243.43213633417
 30
0.0
 11
34326.12931774664
 21
12343.43213633417
 31
0.0
  0
INSERT
  5
15F2
  8
寸法
  6
CONTINUOUS
  2
_ORIGIN
 10
34326.12931774664
 20
12243.43213633417
 30
0.0
 41
60.0
 42
60.0
 43
60.0
 50
90.0
  0
INSERT
  5
15F3
  8
寸法
  6
CONTINUOUS
  2
_ORIGIN
 10
34326.12931774664
 20
12343.43213633417
 30
0.0
 41
60.0
 42
60.0
 43
60.0
 50
270.0
  0
POINT
  5
15F4
  8
DEFPOINTS
  6
CONTINUOUS
 62
     0
 10
33226.12931774664
 20
12243.43213633417
 30
0.0
  0
POINT
  5
15F5
  8
DEFPOINTS
  6
CONTINUOUS
 62
     0
 10
33226.12931774664
 20
12343.43213633417
 30
0.0
  0
POINT
  5
15F6
  8
DEFPOINTS
  6
CONTINUOUS
 62
     0
 10
34326.12931774664
 20
12343.43213633417
 30
0.0
  0
ENDBLK
  5
53B
  8
0
  0
BLOCK
  8
0
  2
*D22
 70
     1
 10
0.0
 20
0.0
 30
0.0
  3
*D22
  1

  0
LINE
  5
62B
  8
寸法
  6
CONTINUOUS
 10
33526.12931774664
 20
13943.43213633417
 30
0.0
 11
34326.12931774663
 21
13943.43213633417
 31
0.0
  0
LINE
  5
62C
  8
寸法
  6
CONTINUOUS
 10
33566.12931774664
 20
16913.43213633417
 30
0.0
 11
34326.12931774664
 21
16913.43213633417
 31
0.0
  0
LINE
  5
62D
  8
寸法
  6
CONTINUOUS
 10
34326.12931774663
 20
14003.43213633417
 30
0.0
 11
34326.12931774664
 21
16853.43213633417
 31
0.0
  0
INSERT
  5
62E
  8
寸法
  6
CONTINUOUS
  2
_ORIGIN
 10
34326.12931774663
 20
13943.43213633417
 30
0.0
 41
60.0
 42
60.0
 43
60.0
 50
270.0
  0
INSERT
  5
62F
  8
寸法
  6
CONTINUOUS
  2
_ORIGIN
 10
34326.12931774664
 20
16913.43213633417
 30
0.0
 41
60.0
 42
60.0
 43
60.0
 50
90.0
  0
TEXT
  5
630
  8
寸法
  6
CONTINUOUS
 10
34168.98646060377
 20
14946.28927919132
 30
0.0
 40
300.0
  1
2,970
 50
90.0
 41
0.75
  7
1_100
  0
POINT
  5
631
  8
DEFPOINTS
  6
CONTINUOUS
 62
     0
 10
33226.12931774664
 20
13943.43213633417
 30
0.0
  0
POINT
  5
632
  8
DEFPOINTS
  6
CONTINUOUS
 62
     0
 10
33266.12931774664
 20
16913.43213633417
 30
0.0
  0
POINT
  5
633
  8
DEFPOINTS
  6
CONTINUOUS
 62
     0
 10
34326.12931774664
 20
16913.43213633417
 30
0.0
  0
ENDBLK
  5
547
  8
0
  0
BLOCK
  8
0
  2
*D23
 70
     1
 10
0.0
 20
0.0
 30
0.0
  3
*D23
  1

  0
LINE
  5
15E3
  8
寸法
  6
CONTINUOUS
 10
31501.12931774663
 20
11943.43213633371
 30
0.0
 11
31501.12931774663
 21
11643.43213633371
 31
0.0
  0
LINE
  5
15E4
  8
寸法
  6
CONTINUOUS
 10
31951.12931774663
 20
11943.43213633371
 30
0.0
 11
31951.12931774663
 21
11643.43213633371
 31
0.0
  0
LINE
  5
15E5
  8
寸法
  6
CONTINUOUS
 10
31561.12931774663
 20
11643.43213633371
 30
0.0
 11
31891.12931774663
 21
11643.43213633371
 31
0.0
  0
TEXT
  5
15E6
  8
寸法
  6
CONTINUOUS
 10
30463.74544111433
 20
11667.48757481585
 30
0.0
 40
300.0
  1
φ450
 41
0.75
  7
1_100
  0
INSERT
  5
15E7
  8
寸法
  6
CONTINUOUS
  2
_ORIGIN
 10
31501.12931774663
 20
11643.43213633371
 30
0.0
 41
60.0
 42
60.0
 43
60.0
 50
180.0
  0
INSERT
  5
15E8
  8
寸法
  6
CONTINUOUS
  2
_ORIGIN
 10
31951.12931774663
 20
11643.43213633371
 30
0.0
 41
60.0
 42
60.0
 43
60.0
  0
POINT
  5
15E9
  8
DEFPOINTS
  6
CONTINUOUS
 62
     0
 10
31501.12931774663
 20
12243.43213633371
 30
0.0
  0
POINT
  5
15EA
  8
DEFPOINTS
  6
CONTINUOUS
 62
     0
 10
31951.12931774663
 20
12243.43213633371
 30
0.0
  0
POINT
  5
15EB
  8
DEFPOINTS
  6
CONTINUOUS
 62
     0
 10
31951.12931774663
 20
11643.43213633371
 30
0.0
  0
ENDBLK
  5
553
  8
0
  0
BLOCK
  8
0
  2
*D24
 70
     1
 10
0.0
 20
0.0
 30
0.0
  3
*D24
  1

  0
LINE
  5
15D8
  8
寸法
  6
CONTINUOUS
 10
31476.12931774663
 20
11943.43213633371
 30
0.0
 11
31476.12931774663
 21
11243.43213633324
 31
0.0
  0
LINE
  5
15D9
  8
寸法
  6
CONTINUOUS
 10
31976.12931774663
 20
11943.43213633365
 30
0.0
 11
31976.12931774663
 21
11243.43213633324
 31
0.0
  0
LINE
  5
15DA
  8
寸法
  6
CONTINUOUS
 10
31416.12931774663
 20
11243.43213633324
 30
0.0
 11
31356.12931774663
 21
11243.43213633324
 31
0.0
  0
LINE
  5
15DB
  8
寸法
  6
CONTINUOUS
 10
32036.12931774663
 20
11243.43213633324
 30
0.0
 11
32096.12931774663
 21
11243.43213633324
 31
0.0
  0
LINE
  5
15DC
  8
寸法
  6
CONTINUOUS
 10
31476.12931774663
 20
11243.43213633324
 30
0.0
 11
31976.12931774663
 21
11243.43213633324
 31
0.0
  0
INSERT
  5
15DD
  8
寸法
  6
CONTINUOUS
  2
_ORIGIN
 10
31476.12931774663
 20
11243.43213633324
 30
0.0
 41
60.0
 42
60.0
 43
60.0
  0
INSERT
  5
15DE
  8
寸法
  6
CONTINUOUS
  2
_ORIGIN
 10
31976.12931774663
 20
11243.43213633324
 30
0.0
 41
60.0
 42
60.0
 43
60.0
 50
180.0
  0
TEXT
  5
15DF
  8
寸法
  6
CONTINUOUS
 10
31270.77217488949
 20
10843.43213633324
 30
0.0
 40
300.0
  1
□500
 41
0.75
  7
1_100
  0
POINT
  5
15E0
  8
DEFPOINTS
  6
CONTINUOUS
 62
     0
 10
31476.12931774663
 20
12243.43213633371
 30
0.0
  0
POINT
  5
15E1
  8
DEFPOINTS
  6
CONTINUOUS
 62
     0
 10
31976.12931774663
 20
12243.43213633365
 30
0.0
  0
POINT
  5
15E2
  8
DEFPOINTS
  6
CONTINUOUS
 62
     0
 10
31976.12931774663
 20
11243.43213633324
 30
0.0
  0
ENDBLK
  5
561
  8
0
  0
BLOCK
  8
0
  2
*D25
 70
     1
 10
0.0
 20
0.0
 30
0.0
  3
*D25
  1

  0
LINE
  5
648
  8
寸法
  6
CONTINUOUS
 10
31630.77931774654
 20
20243.43213633376
 30
0.0
 11
31630.77931774654
 21
20543.43213633335
 31
0.0
  0
LINE
  5
649
  8
寸法
  6
CONTINUOUS
 10
31821.47931774649
 20
20243.43213633376
 30
0.0
 11
31821.47931774649
 21
20543.43213633335
 31
0.0
  0
LINE
  5
64A
  8
寸法
  6
CONTINUOUS
 10
31570.77931774654
 20
20543.43213633335
 30
0.0
 11
31510.77931774654
 21
20543.43213633335
 31
0.0
  0
LINE
  5
64B
  8
寸法
  6
CONTINUOUS
 10
31881.47931774649
 20
20543.43213633335
 30
0.0
 11
31941.47931774649
 21
20543.43213633335
 31
0.0
  0
TEXT
  5
64C
  8
寸法
  6
CONTINUOUS
 10
31102.55788917509
 20
20693.43213633335
 30
0.0
 40
300.0
  1
φ190.7
 41
0.75
  7
1_100
  0
LINE
  5
64D
  8
寸法
  6
CONTINUOUS
 10
31630.77931774654
 20
20543.43213633335
 30
0.0
 11
31821.47931774649
 21
20543.43213633335
 31
0.0
  0
INSERT
  5
64E
  8
寸法
  6
CONTINUOUS
  2
_ORIGIN
 10
31630.77931774654
 20
20543.43213633335
 30
0.0
 41
60.0
 42
60.0
 43
60.0
  0
INSERT
  5
64F
  8
寸法
  6
CONTINUOUS
  2
_ORIGIN
 10
31821.47931774649
 20
20543.43213633335
 30
0.0
 41
60.0
 42
60.0
 43
60.0
 50
180.0
  0
POINT
  5
650
  8
DEFPOINTS
  6
CONTINUOUS
 62
     0
 10
31630.77931774654
 20
19943.43213633376
 30
0.0
  0
POINT
  5
651
  8
DEFPOINTS
  6
CONTINUOUS
 62
     0
 10
31821.47931774649
 20
19943.43213633376
 30
0.0
  0
POINT
  5
652
  8
DEFPOINTS
  6
CONTINUOUS
 62
     0
 10
31821.47931774649
 20
20543.43213633335
 30
0.0
  0
ENDBLK
  5
56F
  8
0
  0
BLOCK
  8
画層1
  2
*X26
 70
     1
 10
0.0
 20
0.0
 30
0.0
  3
*X26
  1
Acad:XRef
  0
TEXT
  5
1B4B
  8
寸法文字
  6
CONTINUOUS
 10
22818.78430484714
 20
21965.02125881803
 30
0.0
 40
300.0
  1
ネット上下6mm合繊ロープに4mm合繊
 41
0.75
  7
1_100
  0
TEXT
  5
1B4C
  8
寸法文字
  6
CONTINUOUS
 10
22796.28430484714
 20
21465.02125881803
 30
0.0
 40
300.0
  1
ロープにて38m㎡ワイヤーに巻付
 41
0.75
  7
1_100
  0
ENDBLK
  5
1C56
  8
画層1
  0
BLOCK
  8
画層1
  2
*X27
 70
     1
 10
0.0
 20
0.0
 30
0.0
  3
*X27
  1
Acad:XRef
  0
LINE
  5
1B4E
  8
ﾈｯﾄ
  6
CONTINUOUS
 62
   230
 10
23884.86627755759
 20
19812.0
 30
0.0
 11
26126.12931774663
 21
19812.0
 31
0.0
  0
LINE
  5
1B4F
  8
ﾈｯﾄ
  6
CONTINUOUS
 62
   230
 10
23925.22914317743
 20
19621.5
 30
0.0
 11
26126.12931774663
 21
19621.5
 31
0.0
  0
LINE
  5
1B50
  8
ﾈｯﾄ
  6
CONTINUOUS
 62
   230
 10
23965.59200879727
 20
19431.0
 30
0.0
 11
26126.12931774663
 21
19431.0
 31
0.0
  0
LINE
  5
1B51
  8
ﾈｯﾄ
  6
CONTINUOUS
 62
   230
 10
24005.9548744171
 20
19240.5
 30
0.0
 11
26126.12931774663
 21
19240.5
 31
0.0
  0
LINE
  5
1B52
  8
ﾈｯﾄ
  6
CONTINUOUS
 62
   230
 10
24046.31774003695
 20
19050.0
 30
0.0
 11
26126.12931774663
 21
19050.0
 31
0.0
  0
LINE
  5
1B53
  8
ﾈｯﾄ
  6
CONTINUOUS
 62
   230
 10
24086.68060565678
 20
18859.5
 30
0.0
 11
26126.12931774663
 21
18859.5
 31
0.0
  0
LINE
  5
1B54
  8
ﾈｯﾄ
  6
CONTINUOUS
 62
   230
 10
24127.04347127662
 20
18669.0
 30
0.0
 11
26126.12931774663
 21
18669.0
 31
0.0
  0
LINE
  5
1B55
  8
ﾈｯﾄ
  6
CONTINUOUS
 62
   230
 10
24167.40633689646
 20
18478.5
 30
0.0
 11
26126.12931774663
 21
18478.5
 31
0.0
  0
LINE
  5
1B56
  8
ﾈｯﾄ
  6
CONTINUOUS
 62
   230
 10
24207.7692025163
 20
18288.0
 30
0.0
 11
26126.12931774663
 21
18288.0
 31
0.0
  0
LINE
  5
1B57
  8
ﾈｯﾄ
  6
CONTINUOUS
 62
   230
 10
24248.13206813614
 20
18097.5
 30
0.0
 11
26126.12931774663
 21
18097.5
 31
0.0
  0
LINE
  5
1B58
  8
ﾈｯﾄ
  6
CONTINUOUS
 62
   230
 10
24288.49493375598
 20
17907.0
 30
0.0
 11
26126.12931774663
 21
17907.0
 31
0.0
  0
LINE
  5
1B59
  8
ﾈｯﾄ
  6
CONTINUOUS
 62
   230
 10
24328.85779937582
 20
17716.5
 30
0.0
 11
26126.12931774663
 21
17716.5
 31
0.0
  0
LINE
  5
1B5A
  8
ﾈｯﾄ
  6
CONTINUOUS
 62
   230
 10
24369.22066499566
 20
17526.0
 30
0.0
 11
26126.12931774663
 21
17526.0
 31
0.0
  0
LINE
  5
1B5B
  8
ﾈｯﾄ
  6
CONTINUOUS
 62
   230
 10
24409.5835306155
 20
17335.5
 30
0.0
 11
26126.12931774663
 21
17335.5
 31
0.0
  0
LINE
  5
1B5C
  8
ﾈｯﾄ
  6
CONTINUOUS
 62
   230
 10
24449.94639623534
 20
17145.0
 30
0.0
 11
26126.12931774663
 21
17145.0
 31
0.0
  0
LINE
  5
1B5D
  8
ﾈｯﾄ
  6
CONTINUOUS
 62
   230
 10
24490.30926185517
 20
16954.5
 30
0.0
 11
26126.12931774663
 21
16954.5
 31
0.0
  0
LINE
  5
1B5E
  8
ﾈｯﾄ
  6
CONTINUOUS
 62
   230
 10
24530.67212747502
 20
16764.0
 30
0.0
 11
26126.12931774663
 21
16764.0
 31
0.0
  0
LINE
  5
1B5F
  8
ﾈｯﾄ
  6
CONTINUOUS
 62
   230
 10
24571.03499309485
 20
16573.5
 30
0.0
 11
26126.12931774663
 21
16573.5
 31
0.0
  0
LINE
  5
1B60
  8
ﾈｯﾄ
  6
CONTINUOUS
 62
   230
 10
24611.39785871469
 20
16383.0
 30
0.0
 11
26126.12931774663
 21
16383.0
 31
0.0
  0
LINE
  5
1B61
  8
ﾈｯﾄ
  6
CONTINUOUS
 62
   230
 10
24651.76072433453
 20
16192.5
 30
0.0
 11
26126.12931774663
 21
16192.5
 31
0.0
  0
LINE
  5
1B62
  8
ﾈｯﾄ
  6
CONTINUOUS
 62
   230
 10
24692.12358995437
 20
16002.0
 30
0.0
 11
26126.12931774663
 21
16002.0
 31
0.0
  0
LINE
  5
1B63
  8
ﾈｯﾄ
  6
CONTINUOUS
 62
   230
 10
24732.48645557421
 20
15811.5
 30
0.0
 11
26126.12931774663
 21
15811.5
 31
0.0
  0
LINE
  5
1B64
  8
ﾈｯﾄ
  6
CONTINUOUS
 62
   230
 10
24772.84932119405
 20
15621.0
 30
0.0
 11
26126.12931774663
 21
15621.0
 31
0.0
  0
LINE
  5
1B65
  8
ﾈｯﾄ
  6
CONTINUOUS
 62
   230
 10
24813.21218681389
 20
15430.5
 30
0.0
 11
26126.12931774663
 21
15430.5
 31
0.0
  0
LINE
  5
1B66
  8
ﾈｯﾄ
  6
CONTINUOUS
 62
   230
 10
24853.57505243373
 20
15240.0
 30
0.0
 11
26126.12931774663
 21
15240.0
 31
0.0
  0
LINE
  5
1B67
  8
ﾈｯﾄ
  6
CONTINUOUS
 62
   230
 10
24893.93791805357
 20
15049.5
 30
0.0
 11
26126.12931774663
 21
15049.5
 31
0.0
  0
LINE
  5
1B68
  8
ﾈｯﾄ
  6
CONTINUOUS
 62
   230
 10
24934.30078367341
 20
14859.0
 30
0.0
 11
26126.12931774663
 21
14859.0
 31
0.0
  0
LINE
  5
1B69
  8
ﾈｯﾄ
  6
CONTINUOUS
 62
   230
 10
24974.66364929324
 20
14668.5
 30
0.0
 11
26126.12931774663
 21
14668.5
 31
0.0
  0
LINE
  5
1B6A
  8
ﾈｯﾄ
  6
CONTINUOUS
 62
   230
 10
25015.02651491309
 20
14478.0
 30
0.0
 11
26126.12931774663
 21
14478.0
 31
0.0
  0
LINE
  5
1B6B
  8
ﾈｯﾄ
  6
CONTINUOUS
 62
   230
 10
25055.38938053292
 20
14287.5
 30
0.0
 11
26126.12931774663
 21
14287.5
 31
0.0
  0
LINE
  5
1B6C
  8
ﾈｯﾄ
  6
CONTINUOUS
 62
   230
 10
25095.75224615276
 20
14097.0
 30
0.0
 11
26126.12931774663
 21
14097.0
 31
0.0
  0
LINE
  5
1B6D
  8
ﾈｯﾄ
  6
CONTINUOUS
 62
   230
 10
24003.0
 20
19254.44607562705
 30
0.0
 11
24003.0
 21
19883.43213633335
 31
0.0
  0
LINE
  5
1B6E
  8
ﾈｯﾄ
  6
CONTINUOUS
 62
   230
 10
24193.5
 20
18355.34613703987
 30
0.0
 11
24193.5
 21
19883.43213633335
 31
0.0
  0
LINE
  5
1B6F
  8
ﾈｯﾄ
  6
CONTINUOUS
 62
   230
 10
24384.0
 20
17456.24619845269
 30
0.0
 11
24384.0
 21
19883.43213633335
 31
0.0
  0
LINE
  5
1B70
  8
ﾈｯﾄ
  6
CONTINUOUS
 62
   230
 10
24574.5
 20
16557.14625986551
 30
0.0
 11
24574.5
 21
19883.43213633335
 31
0.0
  0
LINE
  5
1B71
  8
ﾈｯﾄ
  6
CONTINUOUS
 62
   230
 10
24765.0
 20
15658.04632127833
 30
0.0
 11
24765.0
 21
19883.43213633335
 31
0.0
  0
LINE
  5
1B72
  8
ﾈｯﾄ
  6
CONTINUOUS
 62
   230
 10
24955.5
 20
14758.94638269115
 30
0.0
 11
24955.5
 21
19883.43213633335
 31
0.0
  0
LINE
  5
1B73
  8
ﾈｯﾄ
  6
CONTINUOUS
 62
   230
 10
25146.0
 20
13968.43213633336
 30
0.0
 11
25146.0
 21
19883.43213633335
 31
0.0
  0
LINE
  5
1B74
  8
ﾈｯﾄ
  6
CONTINUOUS
 62
   230
 10
25336.5
 20
13968.43213633336
 30
0.0
 11
25336.5
 21
19883.43213633335
 31
0.0
  0
LINE
  5
1B75
  8
ﾈｯﾄ
  6
CONTINUOUS
 62
   230
 10
25527.0
 20
13968.43213633336
 30
0.0
 11
25527.0
 21
19883.43213633335
 31
0.0
  0
LINE
  5
1B76
  8
ﾈｯﾄ
  6
CONTINUOUS
 62
   230
 10
25717.5
 20
13968.43213633336
 30
0.0
 11
25717.5
 21
19883.43213633335
 31
0.0
  0
LINE
  5
1B77
  8
ﾈｯﾄ
  6
CONTINUOUS
 62
   230
 10
25908.0
 20
13968.43213633336
 30
0.0
 11
25908.0
 21
19883.43213633335
 31
0.0
  0
LINE
  5
1B78
  8
ﾈｯﾄ
  6
CONTINUOUS
 62
   230
 10
26098.5
 20
13968.43213633336
 30
0.0
 11
26098.5
 21
19883.43213633335
 31
0.0
  0
ENDBLK
  5
1C58
  8
画層1
  0
BLOCK
  8
画層1
  2
*X28
 70
     1
 10
0.0
 20
0.0
 30
0.0
  3
*X28
  1
Acad:XRef
  0
LINE
  5
1B7A
  8
ﾈｯﾄ
  6
CONTINUOUS
 62
   230
 10
9871.479317746725
 20
19812.0
 30
0.0
 11
11994.56746916708
 21
19812.0
 31
0.0
  0
LINE
  5
1B7B
  8
ﾈｯﾄ
  6
CONTINUOUS
 62
   230
 10
9821.479317746725
 20
19621.5
 30
0.0
 11
12034.93033478691
 21
19621.5
 31
0.0
  0
LINE
  5
1B7C
  8
ﾈｯﾄ
  6
CONTINUOUS
 62
   230
 10
9821.479317746725
 20
19431.0
 30
0.0
 11
12075.29320040674
 21
19431.0
 31
0.0
  0
LINE
  5
1B7D
  8
ﾈｯﾄ
  6
CONTINUOUS
 62
   230
 10
9821.479317746725
 20
19240.5
 30
0.0
 11
12115.65606602657
 21
19240.5
 31
0.0
  0
LINE
  5
1B7E
  8
ﾈｯﾄ
  6
CONTINUOUS
 62
   230
 10
9821.479317746725
 20
19050.0
 30
0.0
 11
12156.01893164641
 21
19050.0
 31
0.0
  0
LINE
  5
1B7F
  8
ﾈｯﾄ
  6
CONTINUOUS
 62
   230
 10
9821.479317746725
 20
18859.5
 30
0.0
 11
12196.38179726624
 21
18859.5
 31
0.0
  0
LINE
  5
1B80
  8
ﾈｯﾄ
  6
CONTINUOUS
 62
   230
 10
9821.479317746725
 20
18669.0
 30
0.0
 11
12236.74466288607
 21
18669.0
 31
0.0
  0
LINE
  5
1B81
  8
ﾈｯﾄ
  6
CONTINUOUS
 62
   230
 10
9821.479317746725
 20
18478.5
 30
0.0
 11
12277.1075285059
 21
18478.5
 31
0.0
  0
LINE
  5
1B82
  8
ﾈｯﾄ
  6
CONTINUOUS
 62
   230
 10
9821.479317746725
 20
18288.0
 30
0.0
 11
12317.47039412573
 21
18288.0
 31
0.0
  0
LINE
  5
1B83
  8
ﾈｯﾄ
  6
CONTINUOUS
 62
   230
 10
9821.479317746725
 20
18097.5
 30
0.0
 11
12357.83325974556
 21
18097.5
 31
0.0
  0
LINE
  5
1B84
  8
ﾈｯﾄ
  6
CONTINUOUS
 62
   230
 10
9821.479317746725
 20
17907.0
 30
0.0
 11
12398.1961253654
 21
17907.0
 31
0.0
  0
LINE
  5
1B85
  8
ﾈｯﾄ
  6
CONTINUOUS
 62
   230
 10
9821.479317746725
 20
17716.5
 30
0.0
 11
12438.55899098523
 21
17716.5
 31
0.0
  0
LINE
  5
1B86
  8
ﾈｯﾄ
  6
CONTINUOUS
 62
   230
 10
9821.479317746725
 20
17526.0
 30
0.0
 11
12478.92185660506
 21
17526.0
 31
0.0
  0
LINE
  5
1B87
  8
ﾈｯﾄ
  6
CONTINUOUS
 62
   230
 10
9821.479317746725
 20
17335.5
 30
0.0
 11
12519.28472222489
 21
17335.5
 31
0.0
  0
LINE
  5
1B88
  8
ﾈｯﾄ
  6
CONTINUOUS
 62
   230
 10
9821.479317746725
 20
17145.0
 30
0.0
 11
12559.64758784472
 21
17145.0
 31
0.0
  0
LINE
  5
1B89
  8
ﾈｯﾄ
  6
CONTINUOUS
 62
   230
 10
9821.479317746725
 20
16954.5
 30
0.0
 11
12600.01045346455
 21
16954.5
 31
0.0
  0
LINE
  5
1B8A
  8
ﾈｯﾄ
  6
CONTINUOUS
 62
   230
 10
9821.479317746725
 20
16764.0
 30
0.0
 11
12640.37331908439
 21
16764.0
 31
0.0
  0
LINE
  5
1B8B
  8
ﾈｯﾄ
  6
CONTINUOUS
 62
   230
 10
9821.479317746725
 20
16573.5
 30
0.0
 11
12680.73618470422
 21
16573.5
 31
0.0
  0
LINE
  5
1B8C
  8
ﾈｯﾄ
  6
CONTINUOUS
 62
   230
 10
9821.479317746725
 20
16383.0
 30
0.0
 11
12721.09905032405
 21
16383.0
 31
0.0
  0
LINE
  5
1B8D
  8
ﾈｯﾄ
  6
CONTINUOUS
 62
   230
 10
9821.479317746725
 20
16192.5
 30
0.0
 11
12761.46191594388
 21
16192.5
 31
0.0
  0
LINE
  5
1B8E
  8
ﾈｯﾄ
  6
CONTINUOUS
 62
   230
 10
9821.479317746725
 20
16002.0
 30
0.0
 11
12801.82478156371
 21
16002.0
 31
0.0
  0
LINE
  5
1B8F
  8
ﾈｯﾄ
  6
CONTINUOUS
 62
   230
 10
9821.479317746725
 20
15811.5
 30
0.0
 11
12842.18764718354
 21
15811.5
 31
0.0
  0
LINE
  5
1B90
  8
ﾈｯﾄ
  6
CONTINUOUS
 62
   230
 10
9821.479317746725
 20
15621.0
 30
0.0
 11
12882.55051280337
 21
15621.0
 31
0.0
  0
LINE
  5
1B91
  8
ﾈｯﾄ
  6
CONTINUOUS
 62
   230
 10
9821.479317746725
 20
15430.5
 30
0.0
 11
12922.91337842321
 21
15430.5
 31
0.0
  0
LINE
  5
1B92
  8
ﾈｯﾄ
  6
CONTINUOUS
 62
   230
 10
9821.479317746725
 20
15240.0
 30
0.0
 11
12963.27624404304
 21
15240.0
 31
0.0
  0
LINE
  5
1B93
  8
ﾈｯﾄ
  6
CONTINUOUS
 62
   230
 10
9821.479317746725
 20
15049.5
 30
0.0
 11
13003.63910966287
 21
15049.5
 31
0.0
  0
LINE
  5
1B94
  8
ﾈｯﾄ
  6
CONTINUOUS
 62
   230
 10
9821.479317746725
 20
14859.0
 30
0.0
 11
13044.0019752827
 21
14859.0
 31
0.0
  0
LINE
  5
1B95
  8
ﾈｯﾄ
  6
CONTINUOUS
 62
   230
 10
9821.479317746725
 20
14668.5
 30
0.0
 11
13084.36484090253
 21
14668.5
 31
0.0
  0
LINE
  5
1B96
  8
ﾈｯﾄ
  6
CONTINUOUS
 62
   230
 10
9821.479317746725
 20
14478.0
 30
0.0
 11
13124.72770652236
 21
14478.0
 31
0.0
  0
LINE
  5
1B97
  8
ﾈｯﾄ
  6
CONTINUOUS
 62
   230
 10
9821.479317746725
 20
14287.5
 30
0.0
 11
13165.0905721422
 21
14287.5
 31
0.0
  0
LINE
  5
1B98
  8
ﾈｯﾄ
  6
CONTINUOUS
 62
   230
 10
9821.479317746725
 20
14097.0
 30
0.0
 11
13205.45343776203
 21
14097.0
 31
0.0
  0
LINE
  5
1B99
  8
ﾈｯﾄ
  6
CONTINUOUS
 62
   230
 10
9906.0
 20
13968.43213633336
 30
0.0
 11
9906.0
 21
19883.43213633335
 31
0.0
  0
LINE
  5
1B9A
  8
ﾈｯﾄ
  6
CONTINUOUS
 62
   230
 10
10096.5
 20
13988.20841567211
 30
0.0
 11
10096.5
 21
19883.43213633335
 31
0.0
  0
LINE
  5
1B9B
  8
ﾈｯﾄ
  6
CONTINUOUS
 62
   230
 10
10287.0
 20
13968.43213633336
 30
0.0
 11
10287.0
 21
19883.43213633335
 31
0.0
  0
LINE
  5
1B9C
  8
ﾈｯﾄ
  6
CONTINUOUS
 62
   230
 10
10477.5
 20
13968.43213633336
 30
0.0
 11
10477.5
 21
19883.43213633335
 31
0.0
  0
LINE
  5
1B9D
  8
ﾈｯﾄ
  6
CONTINUOUS
 62
   230
 10
10668.0
 20
13968.43213633336
 30
0.0
 11
10668.0
 21
19883.43213633335
 31
0.0
  0
LINE
  5
1B9E
  8
ﾈｯﾄ
  6
CONTINUOUS
 62
   230
 10
10858.5
 20
13968.43213633336
 30
0.0
 11
10858.5
 21
19883.43213633335
 31
0.0
  0
LINE
  5
1B9F
  8
ﾈｯﾄ
  6
CONTINUOUS
 62
   230
 10
11049.0
 20
13968.43213633336
 30
0.0
 11
11049.0
 21
19883.43213633335
 31
0.0
  0
LINE
  5
1BA0
  8
ﾈｯﾄ
  6
CONTINUOUS
 62
   230
 10
11239.5
 20
13968.43213633336
 30
0.0
 11
11239.5
 21
19883.43213633335
 31
0.0
  0
LINE
  5
1BA1
  8
ﾈｯﾄ
  6
CONTINUOUS
 62
   230
 10
11430.0
 20
13968.43213633336
 30
0.0
 11
11430.0
 21
19883.43213633335
 31
0.0
  0
LINE
  5
1BA2
  8
ﾈｯﾄ
  6
CONTINUOUS
 62
   230
 10
11620.5
 20
13968.43213633336
 30
0.0
 11
11620.5
 21
19883.43213633335
 31
0.0
  0
LINE
  5
1BA3
  8
ﾈｯﾄ
  6
CONTINUOUS
 62
   230
 10
11811.0
 20
13968.43213633336
 30
0.0
 11
11811.0
 21
19883.43213633335
 31
0.0
  0
LINE
  5
1BA4
  8
ﾈｯﾄ
  6
CONTINUOUS
 62
   230
 10
12001.5
 20
13968.43213633336
 30
0.0
 11
12001.5
 21
19779.28064017777
 31
0.0
  0
LINE
  5
1BA5
  8
ﾈｯﾄ
  6
CONTINUOUS
 62
   230
 10
12192.0
 20
13968.43213633336
 30
0.0
 11
12192.0
 21
18880.18070159042
 31
0.0
  0
LINE
  5
1BA6
  8
ﾈｯﾄ
  6
CONTINUOUS
 62
   230
 10
12382.5
 20
13968.43213633336
 30
0.0
 11
12382.5
 21
17981.08076300308
 31
0.0
  0
LINE
  5
1BA7
  8
ﾈｯﾄ
  6
CONTINUOUS
 62
   230
 10
12573.0
 20
13968.43213633336
 30
0.0
 11
12573.0
 21
17081.98082441573
 31
0.0
  0
LINE
  5
1BA8
  8
ﾈｯﾄ
  6
CONTINUOUS
 62
   230
 10
12763.5
 20
13968.43213633336
 30
0.0
 11
12763.5
 21
16182.88088582838
 31
0.0
  0
LINE
  5
1BA9
  8
ﾈｯﾄ
  6
CONTINUOUS
 62
   230
 10
12954.0
 20
13968.43213633336
 30
0.0
 11
12954.0
 21
15283.78094724104
 31
0.0
  0
LINE
  5
1BAA
  8
ﾈｯﾄ
  6
CONTINUOUS
 62
   230
 10
13144.5
 20
13968.43213633336
 30
0.0
 11
13144.5
 21
14384.68100865369
 31
0.0
  0
ENDBLK
  5
1C5A
  8
画層1
  0
BLOCK
  8
画層1
  2
*X29
 70
     1
 10
0.0
 20
0.0
 30
0.0
  3
*X29
  1
Acad:XRef
  0
LINE
  5
1BD1
  8
ﾊｯﾁﾝｸﾞ
  6
CONTINUOUS
 10
9501.12931774663
 20
13313.34698200119
 30
0.0
 11
9726.12931774663
 21
13538.34698200119
 31
0.0
  0
LINE
  5
1BD2
  8
ﾊｯﾁﾝｸﾞ
  6
CONTINUOUS
 10
9726.129317746632
 20
13538.34698200119
 30
0.0
 11
9976.129317746634
 21
13788.3469820012
 31
0.0
  0
LINE
  5
1BD3
  8
ﾊｯﾁﾝｸﾞ
  6
CONTINUOUS
 10
9501.12931774663
 20
12606.24020081465
 30
0.0
 11
9726.129317746632
 21
12831.24020081465
 31
0.0
  0
LINE
  5
1BD4
  8
ﾊｯﾁﾝｸﾞ
  6
CONTINUOUS
 10
9726.129317746632
 20
12831.24020081465
 30
0.0
 11
9951.12931774663
 21
13056.24020081465
 31
0.0
  0
LINE
  5
1BD5
  8
ﾊｯﾁﾝｸﾞ
  6
CONTINUOUS
 10
9945.428034451772
 20
12343.43213633324
 30
0.0
 11
9951.12931774663
 21
12349.1334196281
 31
0.0
  0
LINE
  5
1BD6
  8
ﾊｯﾁﾝｸﾞ
  6
CONTINUOUS
 10
9501.12931774663
 20
13401.73532964951
 30
0.0
 11
9726.12931774663
 21
13626.73532964951
 31
0.0
  0
LINE
  5
1BD7
  8
ﾊｯﾁﾝｸﾞ
  6
CONTINUOUS
 10
9726.129317746632
 20
13626.73532964951
 30
0.0
 11
9976.129317746632
 21
13876.73532964951
 31
0.0
  0
LINE
  5
1BD8
  8
ﾊｯﾁﾝｸﾞ
  6
CONTINUOUS
 10
9501.12931774663
 20
12694.62854846296
 30
0.0
 11
9726.129317746632
 21
12919.62854846296
 31
0.0
  0
LINE
  5
1BD9
  8
ﾊｯﾁﾝｸﾞ
  6
CONTINUOUS
 10
9726.129317746632
 20
12919.62854846297
 30
0.0
 11
9951.12931774663
 21
13144.62854846296
 31
0.0
  0
LINE
  5
1BDA
  8
ﾊｯﾁﾝｸﾞ
  6
CONTINUOUS
 10
9857.039686803453
 20
12343.43213633324
 30
0.0
 11
9951.12931774663
 21
12437.52176727642
 31
0.0
  0
LINE
  5
1BDB
  8
ﾊｯﾁﾝｸﾞ
  6
CONTINUOUS
 10
9501.12931774663
 20
13490.12367729783
 30
0.0
 11
9726.12931774663
 21
13715.12367729783
 31
0.0
  0
LINE
  5
1BDC
  8
ﾊｯﾁﾝｸﾞ
  6
CONTINUOUS
 10
9726.129317746632
 20
13715.12367729783
 30
0.0
 11
9954.437776782157
 21
13943.43213633336
 31
0.0
  0
LINE
  5
1BDD
  8
ﾊｯﾁﾝｸﾞ
  6
CONTINUOUS
 10
9501.12931774663
 20
12783.01689611128
 30
0.0
 11
9726.129317746632
 21
13008.01689611128
 31
0.0
  0
LINE
  5
1BDE
  8
ﾊｯﾁﾝｸﾞ
  6
CONTINUOUS
 10
9726.129317746632
 20
13008.01689611128
 30
0.0
 11
9951.12931774663
 21
13233.01689611128
 31
0.0
  0
LINE
  5
1BDF
  8
ﾊｯﾁﾝｸﾞ
  6
CONTINUOUS
 10
9768.651339155134
 20
12343.43213633324
 30
0.0
 11
9951.12931774663
 21
12525.91011492473
 31
0.0
  0
ENDBLK
  5
1C5C
  8
画層1
  0
BLOCK
  8
画層1
  2
*X30
 70
     1
 10
0.0
 20
0.0
 30
0.0
  3
*X30
  1
Acad:XRef
  0
LINE
  5
1BF5
  8
ﾊｯﾁﾝｸﾞ
  6
CONTINUOUS
 10
19501.12931774663
 20
13413.85204538961
 30
0.0
 11
19726.12931774663
 21
13638.85204538961
 31
0.0
  0
LINE
  5
1BF6
  8
ﾊｯﾁﾝｸﾞ
  6
CONTINUOUS
 10
19726.12931774663
 20
13638.85204538961
 30
0.0
 11
19976.12931774663
 21
13888.85204538961
 31
0.0
  0
LINE
  5
1BF7
  8
ﾊｯﾁﾝｸﾞ
  6
CONTINUOUS
 10
19501.12931774663
 20
12706.74526420307
 30
0.0
 11
19726.12931774663
 21
12931.74526420306
 31
0.0
  0
LINE
  5
1BF8
  8
ﾊｯﾁﾝｸﾞ
  6
CONTINUOUS
 10
19726.12931774663
 20
12931.74526420306
 30
0.0
 11
19951.12931774663
 21
13156.74526420307
 31
0.0
  0
LINE
  5
1BF9
  8
ﾊｯﾁﾝｸﾞ
  6
CONTINUOUS
 10
19844.92297106336
 20
12343.43213633324
 30
0.0
 11
19951.12931774663
 21
12449.63848301652
 31
0.0
  0
LINE
  5
1BFA
  8
ﾊｯﾁﾝｸﾞ
  6
CONTINUOUS
 10
19501.12931774663
 20
13502.24039303793
 30
0.0
 11
19726.12931774663
 21
13727.24039303793
 31
0.0
  0
LINE
  5
1BFB
  8
ﾊｯﾁﾝｸﾞ
  6
CONTINUOUS
 10
19726.12931774663
 20
13727.24039303793
 30
0.0
 11
19942.32106104206
 21
13943.43213633336
 31
0.0
  0
LINE
  5
1BFC
  8
ﾊｯﾁﾝｸﾞ
  6
CONTINUOUS
 10
19501.12931774663
 20
12795.13361185138
 30
0.0
 11
19726.12931774663
 21
13020.13361185138
 31
0.0
  0
LINE
  5
1BFD
  8
ﾊｯﾁﾝｸﾞ
  6
CONTINUOUS
 10
19726.12931774663
 20
13020.13361185138
 30
0.0
 11
19951.12931774663
 21
13245.13361185138
 31
0.0
  0
LINE
  5
1BFE
  8
ﾊｯﾁﾝｸﾞ
  6
CONTINUOUS
 10
19756.53462341503
 20
12343.43213633324
 30
0.0
 11
19951.12931774663
 21
12538.02683066484
 31
0.0
  0
LINE
  5
1BFF
  8
ﾊｯﾁﾝｸﾞ
  6
CONTINUOUS
 10
19501.12931774663
 20
13590.62874068625
 30
0.0
 11
19726.12931774663
 21
13815.62874068625
 31
0.0
  0
LINE
  5
1C00
  8
ﾊｯﾁﾝｸﾞ
  6
CONTINUOUS
 10
19726.12931774663
 20
13815.62874068625
 30
0.0
 11
19853.93271339374
 21
13943.43213633336
 31
0.0
  0
LINE
  5
1C01
  8
ﾊｯﾁﾝｸﾞ
  6
CONTINUOUS
 10
19501.12931774663
 20
12883.5219594997
 30
0.0
 11
19726.12931774663
 21
13108.5219594997
 31
0.0
  0
LINE
  5
1C02
  8
ﾊｯﾁﾝｸﾞ
  6
CONTINUOUS
 10
19726.12931774663
 20
13108.5219594997
 30
0.0
 11
19951.12931774663
 21
13333.5219594997
 31
0.0
  0
LINE
  5
1C03
  8
ﾊｯﾁﾝｸﾞ
  6
CONTINUOUS
 10
19668.14627576672
 20
12343.43213633324
 30
0.0
 11
19726.12931774663
 21
12401.41517831315
 31
0.0
  0
LINE
  5
1C04
  8
ﾊｯﾁﾝｸﾞ
  6
CONTINUOUS
 10
19726.12931774663
 20
12401.41517831315
 30
0.0
 11
19951.12931774663
 21
12626.41517831315
 31
0.0
  0
ENDBLK
  5
1C5E
  8
画層1
  0
BLOCK
  8
画層1
  2
*X31
 70
     1
 10
0.0
 20
0.0
 30
0.0
  3
*X31
  1
Acad:XRef
  0
TEXT
  5
1C23
  8
寸法文字
  6
CONTINUOUS
 10
13482.21678088363
 20
22135.78515752287
 30
0.0
 40
300.0
  1
端末・コーナー補強ポール
 41
0.75
  7
1_100
  0
TEXT
  5
1C24
  8
寸法文字
  6
CONTINUOUS
 10
13437.21678088363
 20
21635.78515752287
 30
0.0
 40
300.0
  1
φ114.3×3.5mm
 41
0.75
  7
1_100
  0
ENDBLK
  5
1C60
  8
画層1
  0
BLOCK
  8
画層1
  2
*X32
 70
     1
 10
0.0
 20
0.0
 30
0.0
  3
*X32
  1
Acad:XRef
  0
LINE
  5
1C38
  8
ﾊｯﾁﾝｸﾞ
  6
CONTINUOUS
 10
31501.12931774663
 20
13293.0367652183
 30
0.0
 11
31726.12931774663
 21
13518.0367652183
 31
0.0
  0
LINE
  5
1C39
  8
ﾊｯﾁﾝｸﾞ
  6
CONTINUOUS
 10
31726.12931774663
 20
13518.0367652183
 30
0.0
 11
31951.12931774663
 21
13743.0367652183
 31
0.0
  0
LINE
  5
1C3A
  8
ﾊｯﾁﾝｸﾞ
  6
CONTINUOUS
 10
31951.52468886169
 20
13743.43213633336
 30
0.0
 11
31976.12931774663
 21
13768.0367652183
 31
0.0
  0
LINE
  5
1C3B
  8
ﾊｯﾁﾝｸﾞ
  6
CONTINUOUS
 10
31501.12931774663
 20
12585.92998403175
 30
0.0
 11
31726.12931774663
 21
12810.92998403175
 31
0.0
  0
LINE
  5
1C3C
  8
ﾊｯﾁﾝｸﾞ
  6
CONTINUOUS
 10
31726.12931774663
 20
12810.92998403175
 30
0.0
 11
31951.12931774663
 21
13035.92998403175
 31
0.0
  0
LINE
  5
1C3D
  8
ﾊｯﾁﾝｸﾞ
  6
CONTINUOUS
 10
31501.12931774663
 20
13381.42511286658
 30
0.0
 11
31726.12931774663
 21
13606.42511286658
 31
0.0
  0
LINE
  5
1C3E
  8
ﾊｯﾁﾝｸﾞ
  6
CONTINUOUS
 10
31726.12931774663
 20
13606.42511286658
 30
0.0
 11
31976.12931774663
 21
13856.42511286658
 31
0.0
  0
LINE
  5
1C3F
  8
ﾊｯﾁﾝｸﾞ
  6
CONTINUOUS
 10
31501.12931774663
 20
12674.31833168003
 30
0.0
 11
31726.12931774663
 21
12899.31833168003
 31
0.0
  0
LINE
  5
1C40
  8
ﾊｯﾁﾝｸﾞ
  6
CONTINUOUS
 10
31726.12931774663
 20
12899.31833168003
 30
0.0
 11
31951.12931774663
 21
13124.31833168003
 31
0.0
  0
LINE
  5
1C41
  8
ﾊｯﾁﾝｸﾞ
  6
CONTINUOUS
 10
31877.34990358651
 20
12343.43213633336
 30
0.0
 11
31951.12931774663
 21
12417.21155049348
 31
0.0
  0
LINE
  5
1C42
  8
ﾊｯﾁﾝｸﾞ
  6
CONTINUOUS
 10
31501.12931774663
 20
13469.8134605149
 30
0.0
 11
31726.12931774663
 21
13694.8134605149
 31
0.0
  0
LINE
  5
1C43
  8
ﾊｯﾁﾝｸﾞ
  6
CONTINUOUS
 10
31726.12931774663
 20
13694.8134605149
 30
0.0
 11
31974.7479935659
 21
13943.43213633417
 31
0.0
  0
LINE
  5
1C44
  8
ﾊｯﾁﾝｸﾞ
  6
CONTINUOUS
 10
31501.12931774663
 20
12762.70667932835
 30
0.0
 11
31726.12931774663
 21
12987.70667932835
 31
0.0
  0
LINE
  5
1C45
  8
ﾊｯﾁﾝｸﾞ
  6
CONTINUOUS
 10
31726.12931774663
 20
12987.70667932835
 30
0.0
 11
31951.12931774663
 21
13212.70667932835
 31
0.0
  0
LINE
  5
1C46
  8
ﾊｯﾁﾝｸﾞ
  6
CONTINUOUS
 10
31788.96155593819
 20
12343.43213633336
 30
0.0
 11
31951.12931774663
 21
12505.5998981418
 31
0.0
  0
ENDBLK
  5
1C62
  8
画層1
  0
ENDSEC
  0
SECTION
  2
ENTITIES
  0
POLYLINE
  5
316
  8
図面枠
 66
     1
 10
0.0
 20
0.0
 30
0.0
 70
     1
  0
VERTEX
  5
1B43
  8
図面枠
 10
1192.79608536921
 20
1160.098804239545
 30
0.0
  0
VERTEX
  5
1B44
  8
図面枠
 10
40192.79608536918
 20
1160.098804239545
 30
0.0
  0
VERTEX
  5
1B45
  8
図面枠
 10
40192.79608536918
 20
26660.09880423954
 30
0.0
  0
VERTEX
  5
1B46
  8
図面枠
 10
1192.79608536921
 20
26660.09880423954
 30
0.0
  0
SEQEND
  5
1C63
  8
図面枠
  0
DIMENSION
  5
328
  8
寸法
  6
CONTINUOUS
  2
*D3
 10
27726.12931774663
 20
19943.4321363333
 30
0.0
 11
27461.18062455872
 21
20213.04600143181
 31
0.0
 70
   160
  3
1_100
 13
26626.12931774663
 23
19883.4321363333
 33
0.0
 14
26626.12931774663
 24
19943.4321363333
 34
0.0
 50
90.0
  0
POLYLINE
  5
329
  8
寸法引出
  6
CONTINUOUS
 66
     1
 10
0.0
 20
0.0
 30
0.0
  0
VERTEX
  5
1B47
  8
寸法引出
  6
CONTINUOUS
 10
22041.73736175768
 20
19883.43213633335
 30
0.0
  0
VERTEX
  5
1B48
  8
寸法引出
  6
CONTINUOUS
 10
22673.78430484714
 20
21365.02125881803
 30
0.0
  0
VERTEX
  5
1B49
  8
寸法引出
  6
CONTINUOUS
 10
27983.07001913286
 20
21365.02125881803
 30
0.0
  0
SEQEND
  5
1C64
  8
寸法引出
  6
CONTINUOUS
  0
INSERT
  5
32A
  8
寸法文字
  6
CONTINUOUS
  2
*X26
 10
0.0
 20
0.0
 30
0.0
  0
DIMENSION
  5
32B
  8
寸法
  6
CONTINUOUS
  2
*D4
 10
27726.12931774663
 20
13943.4321363333
 30
0.0
 11
27945.62540637692
 21
13586.53534986345
 31
0.0
 70
   160
  3
1_100
 13
26626.12931774663
 23
13743.4321363333
 33
0.0
 14
26626.12931774663
 24
13943.4321363333
 34
0.0
 50
90.0
  0
DIMENSION
  5
32C
  8
寸法
  6
CONTINUOUS
  2
*D5
 10
28726.12931774663
 20
12343.4321363333
 30
0.0
 11
28447.5578891752
 21
13143.4321363333
 31
0.0
 70
    32
  3
1_100
 13
26626.12931774663
 23
13943.4321363333
 33
0.0
 14
26626.12931774663
 24
12343.4321363333
 34
0.0
 50
90.0
  0
DIMENSION
  5
32D
  8
寸法
  6
CONTINUOUS
  2
*D6
 10
27726.12931774663
 20
13743.4321363333
 30
0.0
 11
27447.5578891752
 21
13043.4321363333
 31
0.0
 70
    32
  3
1_100
 13
26626.12931774663
 23
12343.4321363333
 33
0.0
 14
26626.12931774663
 24
13743.4321363333
 34
0.0
 50
90.0
  0
DIMENSION
  5
32E
  8
寸法
  6
CONTINUOUS
  2
*D7
 10
27726.12931774663
 20
12343.4321363333
 30
0.0
 11
27459.69193793986
 21
11862.67980252938
 31
0.0
 70
   160
  3
1_100
 13
26626.12931774663
 23
12243.4321363333
 33
0.0
 14
26626.12931774663
 24
12343.4321363333
 34
0.0
 50
90.0
  0
DIMENSION
  5
32F
  8
寸法
  6
CONTINUOUS
  2
*D8
 10
27726.12931774663
 20
16913.4321363333
 30
0.0
 11
27447.5578891752
 21
15428.4321363333
 31
0.0
 70
    32
  3
1_100
 13
26626.12931774663
 23
13943.4321363333
 33
0.0
 14
26626.12931774663
 24
16913.4321363333
 34
0.0
 50
90.0
  0
DIMENSION
  5
330
  8
寸法
  6
CONTINUOUS
  2
*D9
 10
27726.12931774663
 20
19883.4321363333
 30
0.0
 11
27447.5578891752
 21
18398.4321363333
 31
0.0
 70
    32
  3
1_100
 13
26626.12931774663
 23
16913.4321363333
 33
0.0
 14
26626.12931774663
 24
19883.4321363333
 34
0.0
 50
90.0
  0
DIMENSION
  5
331
  8
寸法
  6
CONTINUOUS
  2
*D10
 10
28726.12931774663
 20
13943.4321363333
 30
0.0
 11
28447.5578891752
 21
16943.4321363333
 31
0.0
 70
    32
  3
1_100
 13
26626.12931774663
 23
19943.4321363333
 33
0.0
 14
26626.12931774663
 24
13943.4321363333
 34
0.0
 50
90.0
  0
LINE
  5
332
  8
画層1
  6
CONTINUOUS
 10
19630.77931774677
 20
19943.43213633335
 30
0.0
 11
19630.77931774677
 21
17914.05461380278
 31
0.0
  0
LINE
  5
333
  8
通り芯
  6
DASHDOT
 10
19726.12931774663
 20
12100.96466454
 30
0.0
 11
19726.12931774663
 21
17367.38794713611
 31
0.0
1001
ACAD
1000
ASC_BOUNDS
1002
{
1070
    19
1005
3B1
1005
3B1
1002
}
  0
LINE
  5
334
  8
画層1
  6
CONTINUOUS
 10
19821.47931774673
 20
12343.43213633336
 30
0.0
 11
19821.47931774673
 21
17367.38794713611
 31
0.0
  0
LINE
  5
335
  8
画層1
  6
CONTINUOUS
 10
9630.779317746772
 20
19943.43213633335
 30
0.0
 11
9630.779317746772
 21
12343.43213633336
 31
0.0
  0
LINE
  5
336
  8
通り芯
  6
DASHDOT
 10
9726.129317746632
 20
12100.96466454
 30
0.0
 11
9726.129317746632
 21
20003.89479603599
 31
0.0
1001
ACAD
1000
ASC_BOUNDS
1002
{
1070
    19
1005
382
1005
382
1002
}
  0
LINE
  5
337
  8
画層1
  6
CONTINUOUS
 10
9821.479317746725
 20
12343.43213633336
 30
0.0
 11
9821.479317746725
 21
19943.43213633335
 31
0.0
  0
LINE
  5
338
  8
画層1-1
  6
CONTINUOUS
 10
19605.77931774677
 20
13968.43213633336
 30
0.0
 11
9846.479317746725
 21
19833.43213633335
 31
0.0
  0
LINE
  5
339
  8
画層1-1
  6
CONTINUOUS
 10
19605.77931774677
 20
19833.43213633335
 30
0.0
 11
9846.479317746725
 21
13968.43213633336
 31
0.0
  0
LINE
  5
33A
  8
DEFPOINTS
 10
11967.32367131989
 20
19940.58213633332
 30
0.0
 11
13237.99117552945
 21
13943.43213633336
 31
0.0
  0
LINE
  5
33B
  8
画層1
  6
CONTINUOUS
 10
9726.129317746632
 20
19908.43213633335
 30
0.0
 11
9726.129317746632
 21
13968.20399134925
 31
0.0
  0
LINE
  5
33C
  8
画層1-1
  6
CONTINUOUS
 10
19846.47931774649
 20
19833.43213633335
 30
0.0
 11
26126.12931774663
 21
16059.58080990617
 31
0.0
  0
LINE
  5
33D
  8
DEFPOINTS
 10
23867.08285740031
 20
19895.93213633335
 30
0.0
 11
25125.64150192416
 21
13955.93213633336
 31
0.0
  0
LINE
  5
33E
  8
DEFPOINTS
 10
26126.12931774663
 20
19883.43213633335
 30
0.0
 11
26126.12931774663
 21
13943.43213633336
 31
0.0
  0
INSERT
  5
33F
  8
ﾈｯﾄ
 62
   230
  2
*X27
 10
0.0
 20
0.0
 30
0.0
1001
ACAD
1000
HATCH
1002
{
1070
    19
1000
NET
1040
60.0
1040
0.0
1000
R14_HATCH_DATA
1000
33F
1011
1.0
1021
0.0
1031
0.0
1021
0.0
1031
0.0
1011
0.0
1021
1.0
1031
0.0
1021
1.0
1031
0.0
1011
0.0
1021
0.0
1031
1.0
1021
0.0
1031
1.0
1040
0.0
1010
0.0
1020
0.0
1030
1.0
1020
0.0
1030
1.0
1000
NET
1070
     0
1070
     1
1071
        1
1071
        7
1070
     0
1070
     1
1071
        4
1040
26126.12931774663
1040
19883.43213633335
1040
23869.73133939611
1040
19883.43213633335
1040
25122.99301992813
1040
13968.43213633336
1040
26126.12931774663
1040
13968.43213633336
1071
        0
1070
     0
1070
     1
1040
0.0
1040
60.0
1070
     0
1070
     2
1040
0.0
1040
0.0
1040
0.0
1040
0.0
1040
190.5
1070
     0
1040
1.570796326794897
1040
0.0
1040
0.0
1040
-190.5
1040
0.0000000000000117
1070
     0
1040
62.15887015789414
1071
        1
1040
25452.73946852204
1040
17358.800883523
1040
0.0
1002
}
  0
INSERT
  5
340
  8
ﾈｯﾄ
 62
   230
  2
*X28
 10
0.0
 20
0.0
 30
0.0
1001
ACAD
1000
HATCH
1002
{
1070
    19
1000
NET
1040
60.0
1040
0.0
1000
R14_HATCH_DATA
1000
340
1011
1.0
1021
0.0
1031
0.0
1021
0.0
1031
0.0
1011
0.0
1021
1.0
1031
0.0
1021
1.0
1031
0.0
1011
0.0
1021
0.0
1031
1.0
1021
0.0
1031
1.0
1040
0.0
1010
0.0
1020
0.0
1030
1.0
1020
0.0
1030
1.0
1000
NET
1070
     0
1070
     1
1071
        1
1071
        7
1070
     0
1070
     1
1071
       16
1040
11979.4325310056
1040
19883.43213633335
1040
9871.479317746725
1040
19883.43213633335
1040
9871.479317746725
1040
19808.43213633335
1040
9821.479317746725
1040
19808.43213633335
1040
9821.479317746725
1040
16938.43213633335
1040
9871.479317746725
1040
16938.43213633335
1040
9871.479317746725
1040
16888.43213633335
1040
9821.479317746725
1040
16888.43213633335
1040
9821.479317746725
1040
13993.43213633336
1040
9871.479317746725
1040
13993.43213633336
1040
9871.479317746725
1040
13968.43213633336
1040
9946.929317746679
1040
13968.43213633336
1040
9946.929317746679
1040
13988.20841567211
1040
10101.47931774673
1040
13988.20841567211
1040
10101.47931774673
1040
13968.43213633336
1040
13232.69421153739
1040
13968.43213633336
1071
        0
1070
     0
1070
     1
1040
0.0
1040
60.0
1070
     0
1070
     2
1040
0.0
1040
0.0
1040
0.0
1040
0.0
1040
190.5
1070
     0
1040
1.570796326794897
1040
0.0
1040
0.0
1040
-190.5
1040
0.0000000000000117
1070
     0
1040
62.15887015789414
1071
        1
1040
11518.38473332501
1040
16177.78337493753
1040
0.0
1002
}
  0
DIMENSION
  5
343
  8
寸法
  6
CONTINUOUS
  2
*D11
 10
19726.12931774663
 20
9343.432137572481
 30
0.0
 11
14726.12931774663
 21
9622.00356614391
 31
0.0
 70
    32
  3
1_100
 13
9726.129317746632
 23
10943.43213633324
 33
0.0
 14
19726.12931774663
 24
12100.96466454
 34
0.0
  0
LINE
  5
344
  8
画層1-1
  6
CONTINUOUS
 10
9726.129317746632
 20
16913.43213633335
 30
0.0
 11
26126.12931774663
 21
16913.43213633341
 31
0.0
  0
LINE
  5
345
  8
画層2
  6
CONTINUOUS
 10
26126.1293177464
 20
13943.43213633336
 30
0.0
 11
6279.160714471382
 21
13943.43213633336
 31
0.0
1001
ACAD
1000
ASC_BOUNDS
1002
{
1070
    19
1005
382
1005
382
1005
3B1
1005
3B1
1002
}
  0
LINE
  5
346
  8
画層1
  6
CONTINUOUS
 10
26126.12931774663
 20
13968.43213633336
 30
0.0
 11
9726.129317746632
 21
13968.43213633336
 31
0.0
  0
INSERT
  5
347
  8
ﾊｯﾁﾝｸﾞ
  6
CONTINUOUS
  2
SAI450
 10
9726.129317746632
 20
12343.43213633324
 30
0.0
  0
POLYLINE
  5
348
  8
寸法引出
  6
CONTINUOUS
 66
     1
 10
0.0
 20
0.0
 30
0.0
  0
VERTEX
  5
1BAB
  8
寸法引出
  6
CONTINUOUS
 10
9630.779317746772
 20
18621.45791857018
 30
0.0
  0
VERTEX
  5
1BAC
  8
寸法引出
  6
CONTINUOUS
 10
8694.85172844226
 20
19280.9491769563
 30
0.0
  0
VERTEX
  5
1BAD
  8
寸法引出
  6
CONTINUOUS
 10
3835.566014156546
 20
19280.9491769563
 30
0.0
  0
SEQEND
  5
1C65
  8
寸法引出
  6
CONTINUOUS
  0
TEXT
  5
349
  8
寸法字
  6
CONTINUOUS
 10
3835.566014156546
 20
19380.9491769563
 30
0.0
 40
300.0
  1
主柱KSポールφ190.7厚さ3.5mm
 41
0.75
  7
1_100
  0
TEXT
  5
34A
  8
寸法文字
  6
CONTINUOUS
 10
5404.690947814886
 20
18820.81749098077
 30
0.0
 40
300.0
  1
（STKT-590鋼管）
 41
0.75
  7
1_100
  0
LINE
  5
34D
  8
画層2-1
  6
CONTINUOUS
 10
9630.779317746772
 20
13793.43213633336
 30
0.0
 11
9821.479317746725
 21
13793.43213633336
 31
0.0
  0
DIMENSION
  5
34E
  8
寸法
  6
CONTINUOUS
  2
*D12
 10
9951.129317746632
 20
11643.43213633336
 30
0.0
 11
8924.739081552387
 21
11824.76579792225
 31
0.0
 70
   160
  1
φ<>
  3
1_100
 13
9501.129317746632
 23
12243.43213633336
 33
0.0
 14
9951.129317746632
 24
12243.43213633336
 34
0.0
  0
DIMENSION
  5
34F
  8
寸法
  6
CONTINUOUS
  2
*D13
 10
9976.129317746632
 20
11243.43213633324
 30
0.0
 11
9726.129317746632
 21
10993.43213633324
 31
0.0
 70
    32
  1
□<>
  3
1_100
 13
9476.129317746632
 23
12243.43213633336
 33
0.0
 14
9976.129317746632
 24
12243.4321363333
 34
0.0
1001
ACAD
1000
DSTYLE
1002
{
1070
    77
1070
     2
1070
   174
1070
     1
1002
}
  0
TEXT
  5
350
  8
寸法文字
  6
CONTINUOUS
 10
7418.716611435413
 20
14366.73612547414
 30
0.0
 40
300.0
  1
（250）
 41
0.75
  7
1_100
  0
POLYLINE
  5
351
  8
寸法引出
  6
CONTINUOUS
 66
     1
 10
0.0
 20
0.0
 30
0.0
  0
VERTEX
  5
1BAE
  8
寸法引出
  6
CONTINUOUS
 10
9659.98481203047
 20
14014.6787190546
 30
0.0
  0
VERTEX
  5
1BAF
  8
寸法引出
  6
CONTINUOUS
 10
8650.310280642607
 20
14761.85375485323
 30
0.0
  0
VERTEX
  5
1BB0
  8
寸法引出
  6
CONTINUOUS
 10
7151.560280642607
 20
14761.85375485323
 30
0.0
  0
SEQEND
  5
1C66
  8
寸法引出
  6
CONTINUOUS
  0
TEXT
  5
352
  8
寸法文字
  6
CONTINUOUS
 10
7108.703137785464
 20
14861.85375485323
 30
0.0
 40
300.0
  1
FRPカバー
 41
0.75
  7
1_100
  0
POLYLINE
  5
353
  8
寸法引出
  6
CONTINUOUS
 66
     1
 10
0.0
 20
0.0
 30
0.0
  0
VERTEX
  5
1BB1
  8
寸法引出
  6
CONTINUOUS
 10
9726.129317746632
 20
15869.84237541268
 30
0.0
  0
VERTEX
  5
1BB2
  8
寸法引出
  6
CONTINUOUS
 10
8713.005881209061
 20
16577.52698795926
 30
0.0
  0
VERTEX
  5
1BB3
  8
寸法引出
  6
CONTINUOUS
 10
5493.005881209061
 20
16577.52698795926
 30
0.0
  0
SEQEND
  5
1C67
  8
寸法引出
  6
CONTINUOUS
  0
TEXT
  5
354
  8
寸法文字
  6
CONTINUOUS
 10
5455.505881209061
 20
16677.52698795926
 30
0.0
 40
300.0
  1
メッセンワイヤー22m㎡
 41
0.75
  7
1_100
  0
TEXT
  5
355
  8
寸法
  6
CONTINUOUS
 10
6418.76681162477
 20
14023.43213633336
 30
0.0
 40
300.0
  1
▽GL
 41
0.75
  7
1_100
 11
6418.76681162477
 21
14023.43213633336
 31
0.0
 73
     1
  0
POLYLINE
  5
356
  8
画層1-1
 66
     1
 10
0.0
 20
0.0
 30
0.0
 70
     1
  0
VERTEX
  5
1BB4
  8
画層1-1
 10
9946.929317746679
 20
16933.43313064745
 30
0.0
  0
VERTEX
  5
1BB5
  8
画層1-1
 10
10101.47931774673
 20
16933.43313064745
 30
0.0
  0
VERTEX
  5
1BB6
  8
画層1-1
 10
10101.47931774673
 20
16893.43313064745
 30
0.0
  0
VERTEX
  5
1BB7
  8
画層1-1
 10
9946.929317746679
 20
16893.43313064745
 30
0.0
  0
SEQEND
  5
1C68
  8
画層1-1
  0
LINE
  5
357
  8
画層1
  6
CONTINUOUS
 10
9871.479317746725
 20
16888.43213633335
 30
0.0
 11
9871.479317746725
 21
16938.43213633335
 31
0.0
  0
POLYLINE
  5
358
  8
画層1
 66
     1
 10
0.0
 20
0.0
 30
0.0
 70
     1
  0
VERTEX
  5
1BB8
  8
画層1
 10
9946.929317746679
 20
13988.20841567205
 30
0.0
  0
VERTEX
  5
1BB9
  8
画層1
 10
10101.47931774673
 20
13988.20841567205
 30
0.0
  0
VERTEX
  5
1BBA
  8
画層1
 10
10101.47931774673
 20
13948.20841567205
 30
0.0
  0
VERTEX
  5
1BBB
  8
画層1
 10
9946.929317746679
 20
13948.20841567205
 30
0.0
  0
SEQEND
  5
1C69
  8
画層1
  0
POLYLINE
  5
359
  8
画層1-1
 66
     1
 10
0.0
 20
0.0
 30
0.0
 70
     1
  0
VERTEX
  5
1BBC
  8
画層1-1
 10
9962.195905025717
 20
14061.95760905223
 30
0.0
  0
VERTEX
  5
1BBD
  8
画層1-1
 10
10116.12960786409
 20
14155.25506402225
 30
0.0
  0
VERTEX
  5
1BBE
  8
画層1-1
 10
10136.86223571482
 20
14121.04748967969
 30
0.0
  0
VERTEX
  5
1BBF
  8
画層1-1
 10
9982.928532876442
 20
14027.75003470962
 30
0.0
  0
SEQEND
  5
1C6A
  8
画層1-1
  0
CIRCLE
  5
35A
  8
画層1
  6
CONTINUOUS
 10
9605.779317746772
 20
16913.43213633335
 30
0.0
 40
10.9509940156
  0
LINE
  5
35B
  8
画層1
  6
CONTINUOUS
 10
9580.779317746772
 20
16938.43213633335
 30
0.0
 11
9580.779317746772
 21
16888.43213633335
 31
0.0
  0
LINE
  5
35C
  8
画層1
  6
CONTINUOUS
 10
9751.129317746632
 20
16888.43213633335
 30
0.0
 11
9751.129317746632
 21
16938.43213633335
 31
0.0
  0
LINE
  5
35D
  8
画層1
  6
CONTINUOUS
 10
9701.129317746632
 20
16888.43213633335
 30
0.0
 11
9701.129317746632
 21
16938.43213633335
 31
0.0
  0
LINE
  5
35E
  8
画層2-1
  6
CONTINUOUS
 10
9630.779317746772
 20
14043.43213633336
 30
0.0
 11
9821.479317746725
 21
14043.43213633336
 31
0.0
  0
CIRCLE
  5
35F
  8
画層1
  6
CONTINUOUS
 10
9605.779317746772
 20
13968.43213633336
 30
0.0
 40
10.9509940156
  0
POLYLINE
  5
360
  8
画層1
 66
     1
 10
0.0
 20
0.0
 30
0.0
 70
     1
  0
VERTEX
  5
1BC0
  8
画層1
 10
9707.248179287551
 20
14323.43213633336
 30
0.0
  0
VERTEX
  5
1BC1
  8
画層1
 10
9747.248179287551
 20
14323.43213633336
 30
0.0
  0
VERTEX
  5
1BC2
  8
画層1
 10
9747.248179287551
 20
14143.43213633336
 30
0.0
  0
VERTEX
  5
1BC3
  8
画層1
 10
9707.248179287551
 20
14143.43213633336
 30
0.0
  0
SEQEND
  5
1C6B
  8
画層1
  0
LINE
  5
361
  8
画層1
  6
CONTINUOUS
 10
9751.129317746632
 20
13943.43213633336
 30
0.0
 11
9751.129317746632
 21
13993.43213633336
 31
0.0
  0
LINE
  5
362
  8
画層1
  6
CONTINUOUS
 10
9701.129317746632
 20
13943.43213633336
 30
0.0
 11
9701.129317746632
 21
13993.43213633336
 31
0.0
  0
LINE
  5
363
  8
画層1
  6
CONTINUOUS
 10
9580.779317746772
 20
16888.43213633335
 30
0.0
 11
9871.479317746725
 21
16888.43213633335
 31
0.0
  0
LINE
  5
364
  8
画層1
  6
CONTINUOUS
 10
9871.479317746725
 20
16938.43213633335
 30
0.0
 11
9580.779317746772
 21
16938.43213633335
 31
0.0
  0
CIRCLE
  5
365
  8
画層1
  6
CONTINUOUS
 10
9846.479317746725
 20
16913.43213633335
 30
0.0
 40
10.9509940156
  0
CIRCLE
  5
366
  8
画層1
  6
CONTINUOUS
 10
9846.479317746725
 20
13968.43213633336
 30
0.0
 40
10.9509940156
  0
POLYLINE
  5
367
  8
画層1
  6
CONTINUOUS
 66
     1
 10
0.0
 20
0.0
 30
0.0
 70
     1
  0
VERTEX
  5
1BC4
  8
画層1
  6
CONTINUOUS
 10
9580.779317746772
 20
13993.43213633336
 30
0.0
  0
VERTEX
  5
1BC5
  8
画層1
  6
CONTINUOUS
 10
9871.479317746725
 20
13993.43213633336
 30
0.0
  0
VERTEX
  5
1BC6
  8
画層1
  6
CONTINUOUS
 10
9871.479317746725
 20
13943.43213633336
 30
0.0
  0
VERTEX
  5
1BC7
  8
画層1
  6
CONTINUOUS
 10
9580.779317746772
 20
13943.43213633336
 30
0.0
  0
SEQEND
  5
1C6C
  8
画層1
  6
CONTINUOUS
  0
LINE
  5
368
  8
ﾊｯﾁﾝｸﾞ
  6
CONTINUOUS
 10
9261.881698544737
 20
13943.43213633336
 30
0.0
 11
9381.881698545203
 21
13823.43213633324
 31
0.0
  0
LINE
  5
369
  8
ﾊｯﾁﾝｸﾞ
  6
CONTINUOUS
 10
9353.551960071683
 20
13851.76187480629
 30
0.0
 11
9325.222221599095
 21
13823.43213633324
 31
0.0
  0
LINE
  5
36A
  8
ﾊｯﾁﾝｸﾞ
  6
CONTINUOUS
 10
9313.95398032539
 20
13891.35985455282
 30
0.0
 11
9246.026262106043
 21
13823.43213633336
 31
0.0
  0
LINE
  5
36B
  8
ﾊｯﾁﾝｸﾞ
  6
CONTINUOUS
 10
9274.356000578864
 20
13930.95783429923
 30
0.0
 11
9166.83030261299
 21
13823.43213633336
 31
0.0
  0
LINE
  5
36C
  8
ﾊｯﾁﾝｸﾞ
  6
CONTINUOUS
 10
9115.964081592527
 20
13851.76187480629
 30
0.0
 11
9087.634343119938
 21
13823.43213633324
 31
0.0
  0
LINE
  5
36D
  8
ﾊｯﾁﾝｸﾞ
  6
CONTINUOUS
 10
9076.366101846234
 20
13891.35985455282
 30
0.0
 11
9008.438383626653
 21
13823.43213633336
 31
0.0
  0
LINE
  5
36E
  8
ﾊｯﾁﾝｸﾞ
  6
CONTINUOUS
 10
9182.685739051685
 20
13943.43213633347
 30
0.0
 11
9234.758020832338
 21
13891.35985455282
 31
0.0
  0
LINE
  5
36F
  8
ﾊｯﾁﾝｸﾞ
  6
CONTINUOUS
 10
9103.4897795584
 20
13943.43213633336
 30
0.0
 11
9195.160041086045
 21
13851.76187480629
 31
0.0
  0
LINE
  5
370
  8
ﾊｯﾁﾝｸﾞ
  6
CONTINUOUS
 10
9024.293820065348
 20
13943.43213633336
 30
0.0
 11
9144.29382006628
 21
13823.43213633336
 31
0.0
  0
LINE
  5
371
  8
ﾊｯﾁﾝｸﾞ
  6
CONTINUOUS
 10
9036.768122099475
 20
13930.95783429923
 30
0.0
 11
8983.005273116654
 21
13877.19498531629
 31
0.0
  0
LINE
  5
372
  8
ﾊｯﾁﾝｸﾞ
  6
CONTINUOUS
 10
9420.273617530842
 20
13943.43213633324
 30
0.0
 11
9476.129317746632
 21
13887.57643611768
 31
0.0
  0
LINE
  5
373
  8
ﾊｯﾁﾝｸﾞ
  6
CONTINUOUS
 10
9341.07765803779
 20
13943.43213633336
 30
0.0
 11
9461.077658038488
 21
13823.43213633324
 31
0.0
  0
LINE
  5
374
  8
ﾊｯﾁﾝｸﾞ
  6
CONTINUOUS
 10
10269.57289644205
 20
13943.43213633347
 30
0.0
 11
10217.50061466093
 21
13891.35985455282
 31
0.0
  0
LINE
  5
375
  8
ﾊｯﾁﾝｸﾞ
  6
CONTINUOUS
 10
10177.90263491463
 20
13930.95783429923
 30
0.0
 11
10285.42833288051
 21
13823.43213633336
 31
0.0
  0
LINE
  5
376
  8
ﾊｯﾁﾝｸﾞ
  6
CONTINUOUS
 10
10138.30465516834
 20
13891.35985455282
 30
0.0
 11
10206.23237338769
 21
13823.43213633336
 31
0.0
  0
LINE
  5
377
  8
ﾊｯﾁﾝｸﾞ
  6
CONTINUOUS
 10
10098.70667542158
 20
13851.76187480629
 30
0.0
 11
10127.0364138944
 21
13823.43213633324
 31
0.0
  0
LINE
  5
378
  8
ﾊｯﾁﾝｸﾞ
  6
CONTINUOUS
 10
10190.37693694899
 20
13943.43213633336
 30
0.0
 11
10070.37693694806
 21
13823.43213633324
 31
0.0
  0
LINE
  5
379
  8
ﾊｯﾁﾝｸﾞ
  6
CONTINUOUS
 10
10111.18097745594
 20
13943.43213633336
 30
0.0
 11
9991.18097745501
 21
13823.43213633324
 31
0.0
  0
LINE
  5
37A
  8
ﾊｯﾁﾝｸﾞ
  6
CONTINUOUS
 10
10031.98501796266
 20
13943.43213633324
 30
0.0
 11
9976.129317746632
 21
13887.57643611768
 31
0.0
  0
LINE
  5
37B
  8
ﾊｯﾁﾝｸﾞ
  6
CONTINUOUS
 10
10415.49051339379
 20
13930.95783429923
 30
0.0
 11
10469.25336237684
 21
13877.19498531629
 31
0.0
  0
LINE
  5
37C
  8
ﾊｯﾁﾝｸﾞ
  6
CONTINUOUS
 10
10427.96481542815
 20
13943.43213633336
 30
0.0
 11
10307.96481542722
 21
13823.43213633336
 31
0.0
  0
LINE
  5
37D
  8
ﾊｯﾁﾝｸﾞ
  6
CONTINUOUS
 10
10348.7688559351
 20
13943.43213633336
 30
0.0
 11
10257.09859440769
 21
13851.76187480629
 31
0.0
  0
LINE
  5
37E
  8
ﾊｯﾁﾝｸﾞ
  6
CONTINUOUS
 10
10375.8925336475
 20
13891.35985455282
 30
0.0
 11
10443.82025186684
 21
13823.43213633336
 31
0.0
  0
LINE
  5
37F
  8
ﾊｯﾁﾝｸﾞ
  6
CONTINUOUS
 10
10336.29455390097
 20
13851.76187480629
 30
0.0
 11
10364.62429237379
 21
13823.43213633324
 31
0.0
  0
POLYLINE
  5
380
  8
画層2
 66
     1
 10
0.0
 20
0.0
 30
0.0
1001
ACAD
1000
ASC_BOUNDS
1002
{
1070
    19
1005
382
1005
382
1002
}
  0
VERTEX
  5
1BC8
  8
画層2
 10
9476.129317746632
 20
13943.43213633336
 30
0.0
  0
VERTEX
  5
1BC9
  8
画層2
 10
9476.129317746632
 20
13743.43213633324
 30
0.0
  0
VERTEX
  5
1BCA
  8
画層2
 10
9501.129317746632
 20
13743.43213633324
 30
0.0
  0
VERTEX
  5
1BCB
  8
画層2
 10
9501.129317746632
 20
12243.43213633324
 30
0.0
  0
VERTEX
  5
1BCC
  8
画層2
 10
9951.129317746632
 20
12243.43213633324
 30
0.0
  0
VERTEX
  5
1BCD
  8
画層2
 10
9951.129317746632
 20
13743.43213633324
 30
0.0
  0
VERTEX
  5
1BCE
  8
画層2
 10
9976.129317746632
 20
13743.43213633324
 30
0.0
  0
VERTEX
  5
1BCF
  8
画層2
 10
9976.129317746632
 20
13943.43213633336
 30
0.0
  0
SEQEND
  5
1C6D
  8
画層2
  0
LINE
  5
381
  8
画層2
 10
9951.129317746632
 20
12343.43213633324
 30
0.0
 11
9501.129317746632
 21
12343.43213633324
 31
0.0
1001
ACAD
1000
ASC_BOUNDS
1002
{
1070
    19
1005
382
1005
382
1002
}
  0
INSERT
  5
382
  8
ﾊｯﾁﾝｸﾞ
  2
*X29
 10
0.0
 20
0.0
 30
0.0
1001
ACAD
1000
HATCH
1002
{
1070
    19
1000
PLAST
1040
2000.0
1040
0.7853981633974483
1000
ASC_BOUNDS
1070
     2
1070
     2
1070
     4
1005
380
1005
345
1005
336
1005
381
1070
     2
1070
     4
1005
345
1005
380
1005
381
1005
336
1000
ASC_SEEDPOINT
1011
9847.035261639528
1021
13776.62293919809
1031
0.0
1021
13776.62293919809
1031
0.0
1000
R14_HATCH_DATA
1000
382
1011
1.0
1021
0.0
1031
0.0
1021
0.0
1031
0.0
1011
0.0
1021
1.0
1031
0.0
1021
1.0
1031
0.0
1011
0.0
1021
0.0
1031
1.0
1021
0.0
1031
1.0
1040
0.0
1010
0.0
1020
0.0
1030
1.0
1020
0.0
1030
1.0
1000
PLAST
1070
     0
1070
     1
1071
        2
1071
        7
1070
     0
1070
     1
1071
        6
1040
9951.12931774663
1040
13743.43213633324
1040
9976.129317746634
1040
13743.43213633324
1040
9976.129317746632
1040
13943.43213633336
1040
9726.12931774663
1040
13943.43213633335
1040
9726.129317746632
1040
12343.43213633324
1040
9951.12931774663
1040
12343.43213633324
1071
        4
1005
380
1005
345
1005
336
1005
381
1071
        7
1070
     0
1070
     1
1071
        6
1040
9726.129317746632
1040
13943.43213633336
1040
9476.129317746632
1040
13943.43213633335
1040
9476.129317746632
1040
13743.43213633324
1040
9501.12931774663
1040
13743.43213633324
1040
9501.12931774663
1040
12343.43213633324
1040
9726.129317746632
1040
12343.43213633324
1071
        4
1005
345
1005
380
1005
381
1005
336
1070
     0
1070
     1
1040
0.7853981633974483
1040
2000.0
1070
     0
1070
     3
1040
0.7853981633974483
1040
-508753.6378203377
1040
-239776.3772111279
1040
-353.5533905932737
1040
353.5533905932738
1070
     0
1040
0.7853981633974483
1040
-508797.8319941619
1040
-239732.1830373037
1040
-353.5533905932737
1040
353.5533905932738
1070
     0
1040
0.7853981633974483
1040
-508842.026167986
1040
-239687.9888634795
1040
-353.5533905932737
1040
353.5533905932738
1070
     0
1040
6.70607057176634
1071
        2
1040
9847.035261639528
1040
13776.62293919809
1040
0.0
1040
9645.697762310174
1040
13709.56137157911
1040
0.0
1002
}
  0
INSERT
  5
383
  8
ﾊｯﾁﾝｸﾞ
  6
CONTINUOUS
  2
SAI450
 10
19726.12931774663
 20
12343.43213633324
 30
0.0
  0
TEXT
  5
385
  8
寸法
  6
CONTINUOUS
 10
22548.3232978926
 20
9487.793637324923
 30
0.0
 40
300.0
  1
10,000
 41
0.75
  7
1_100
 11
22548.3232978926
 21
9487.793637324923
 31
0.0
 73
     1
  0
LINE
  5
386
  8
画層2-1
  6
CONTINUOUS
 10
19630.77931774677
 20
13793.43213633336
 30
0.0
 11
19821.47931774673
 21
13793.43213633336
 31
0.0
  0
LINE
  5
387
  8
画層1
  6
CONTINUOUS
 10
19701.12931774663
 20
16888.43213633335
 30
0.0
 11
19701.12931774663
 21
16938.43213633335
 31
0.0
  0
CIRCLE
  5
388
  8
画層1
  6
CONTINUOUS
 10
19846.47931774673
 20
16913.43213633335
 30
0.0
 40
10.9509940156
  0
LINE
  5
389
  8
画層1
  6
CONTINUOUS
 10
19751.12931774663
 20
16888.43213633335
 30
0.0
 11
19751.12931774663
 21
16938.43213633335
 31
0.0
  0
LINE
  5
38A
  8
画層1
  6
CONTINUOUS
 10
19871.47931774673
 20
16888.43213633335
 30
0.0
 11
19871.47931774673
 21
16938.43213633335
 31
0.0
  0
LINE
  5
38B
  8
画層1
  6
CONTINUOUS
 10
19580.77931774677
 20
16938.43213633335
 30
0.0
 11
19580.77931774677
 21
16888.43213633335
 31
0.0
  0
CIRCLE
  5
38C
  8
画層1
  6
CONTINUOUS
 10
19605.77931774677
 20
16913.43213633335
 30
0.0
 40
10.9509940156
  0
LINE
  5
38D
  8
画層1
  6
CONTINUOUS
 10
19580.77931774677
 20
16888.43213633335
 30
0.0
 11
19871.47931774673
 21
16888.43213633335
 31
0.0
  0
LINE
  5
38E
  8
画層1
  6
CONTINUOUS
 10
19871.47931774673
 20
16938.43213633335
 30
0.0
 11
19580.77931774677
 21
16938.43213633335
 31
0.0
  0
POLYLINE
  5
38F
  8
画層1-1
 66
     1
 10
0.0
 20
0.0
 30
0.0
 70
     1
  0
VERTEX
  5
1BE0
  8
画層1-1
 10
19962.19590502572
 20
14061.95760905223
 30
0.0
  0
VERTEX
  5
1BE1
  8
画層1-1
 10
20116.12960786409
 20
14155.25506402225
 30
0.0
  0
VERTEX
  5
1BE2
  8
画層1-1
 10
20136.86223571482
 20
14121.04748967969
 30
0.0
  0
VERTEX
  5
1BE3
  8
画層1-1
 10
19982.92853287644
 20
14027.75003470962
 30
0.0
  0
SEQEND
  5
1C6E
  8
画層1-1
  0
LINE
  5
390
  8
画層1
  6
CONTINUOUS
 10
19701.12931774663
 20
13943.43213633336
 30
0.0
 11
19701.12931774663
 21
13993.43213633336
 31
0.0
  0
CIRCLE
  5
391
  8
画層1
  6
CONTINUOUS
 10
19846.47931774673
 20
13968.43213633336
 30
0.0
 40
10.9509940156
  0
LINE
  5
392
  8
画層1
  6
CONTINUOUS
 10
19751.12931774663
 20
13943.43213633336
 30
0.0
 11
19751.12931774663
 21
13993.43213633336
 31
0.0
  0
CIRCLE
  5
393
  8
画層1
  6
CONTINUOUS
 10
19605.77931774677
 20
13968.43213633336
 30
0.0
 40
10.9509940156
  0
LINE
  5
394
  8
画層2-1
  6
CONTINUOUS
 10
19630.77931774677
 20
14043.43213633336
 30
0.0
 11
19821.47931774673
 21
14043.43213633336
 31
0.0
  0
POLYLINE
  5
395
  8
画層1-1
 66
     1
 10
0.0
 20
0.0
 30
0.0
 70
     1
  0
VERTEX
  5
1BE4
  8
画層1-1
 10
19489.29337838282
 20
14060.9810661277
 30
0.0
  0
VERTEX
  5
1BE5
  8
画層1-1
 10
19335.35967554422
 20
14154.27852109777
 30
0.0
  0
VERTEX
  5
1BE6
  8
画層1-1
 10
19314.62704769349
 20
14120.07094675516
 30
0.0
  0
VERTEX
  5
1BE7
  8
画層1-1
 10
19468.56075053187
 20
14026.77349178509
 30
0.0
  0
SEQEND
  5
1C6F
  8
画層1-1
  0
POLYLINE
  5
396
  8
画層1
  6
CONTINUOUS
 66
     1
 10
0.0
 20
0.0
 30
0.0
 70
     1
  0
VERTEX
  5
1BE8
  8
画層1
  6
CONTINUOUS
 10
19580.77931774677
 20
13993.43213633336
 30
0.0
  0
VERTEX
  5
1BE9
  8
画層1
  6
CONTINUOUS
 10
19871.47931774673
 20
13993.43213633336
 30
0.0
  0
VERTEX
  5
1BEA
  8
画層1
  6
CONTINUOUS
 10
19871.47931774673
 20
13943.43213633336
 30
0.0
  0
VERTEX
  5
1BEB
  8
画層1
  6
CONTINUOUS
 10
19580.77931774677
 20
13943.43213633336
 30
0.0
  0
SEQEND
  5
1C70
  8
画層1
  6
CONTINUOUS
  0
LINE
  5
397
  8
ﾊｯﾁﾝｸﾞ
  6
CONTINUOUS
 10
19420.27361753084
 20
13943.43213633324
 30
0.0
 11
19476.12931774663
 21
13887.57643611768
 31
0.0
  0
LINE
  5
398
  8
ﾊｯﾁﾝｸﾞ
  6
CONTINUOUS
 10
19341.07765803756
 20
13943.43213633336
 30
0.0
 11
19461.07765803849
 21
13823.43213633324
 31
0.0
  0
LINE
  5
399
  8
ﾊｯﾁﾝｸﾞ
  6
CONTINUOUS
 10
19261.8816985445
 20
13943.43213633336
 30
0.0
 11
19381.8816985452
 21
13823.43213633324
 31
0.0
  0
LINE
  5
39A
  8
ﾊｯﾁﾝｸﾞ
  6
CONTINUOUS
 10
19353.55196007168
 20
13851.76187480629
 30
0.0
 11
19325.2222215991
 21
13823.43213633324
 31
0.0
  0
LINE
  5
39B
  8
ﾊｯﾁﾝｸﾞ
  6
CONTINUOUS
 10
19313.95398032516
 20
13891.35985455282
 30
0.0
 11
19246.02626210581
 21
13823.43213633336
 31
0.0
  0
LINE
  5
39C
  8
ﾊｯﾁﾝｸﾞ
  6
CONTINUOUS
 10
19274.35600057886
 20
13930.95783429923
 30
0.0
 11
19166.83030261299
 21
13823.43213633336
 31
0.0
  0
LINE
  5
39D
  8
ﾊｯﾁﾝｸﾞ
  6
CONTINUOUS
 10
19115.96408159253
 20
13851.76187480629
 30
0.0
 11
19087.63434311971
 21
13823.43213633324
 31
0.0
  0
LINE
  5
39E
  8
ﾊｯﾁﾝｸﾞ
  6
CONTINUOUS
 10
19076.366101846
 20
13891.35985455282
 30
0.0
 11
19008.43838362665
 21
13823.43213633336
 31
0.0
  0
LINE
  5
39F
  8
ﾊｯﾁﾝｸﾞ
  6
CONTINUOUS
 10
19182.68573905145
 20
13943.43213633347
 30
0.0
 11
19234.75802083234
 21
13891.35985455282
 31
0.0
  0
LINE
  5
3A0
  8
ﾊｯﾁﾝｸﾞ
  6
CONTINUOUS
 10
19103.4897795584
 20
13943.43213633336
 30
0.0
 11
19195.16004108581
 21
13851.76187480629
 31
0.0
  0
LINE
  5
3A1
  8
ﾊｯﾁﾝｸﾞ
  6
CONTINUOUS
 10
19024.29382006535
 20
13943.43213633336
 30
0.0
 11
19144.29382006628
 21
13823.43213633336
 31
0.0
  0
LINE
  5
3A2
  8
ﾊｯﾁﾝｸﾞ
  6
CONTINUOUS
 10
19036.76812209947
 20
13930.95783429923
 30
0.0
 11
18983.00527311665
 21
13877.19498531629
 31
0.0
  0
LINE
  5
3A3
  8
ﾊｯﾁﾝｸﾞ
  6
CONTINUOUS
 10
20415.49051339379
 20
13930.95783429923
 30
0.0
 11
20469.25336237684
 21
13877.19498531629
 31
0.0
  0
LINE
  5
3A4
  8
ﾊｯﾁﾝｸﾞ
  6
CONTINUOUS
 10
20427.96481542815
 20
13943.43213633336
 30
0.0
 11
20307.96481542722
 21
13823.43213633336
 31
0.0
  0
LINE
  5
3A5
  8
ﾊｯﾁﾝｸﾞ
  6
CONTINUOUS
 10
20348.7688559351
 20
13943.43213633336
 30
0.0
 11
20257.09859440745
 21
13851.76187480629
 31
0.0
  0
LINE
  5
3A6
  8
ﾊｯﾁﾝｸﾞ
  6
CONTINUOUS
 10
20269.57289644181
 20
13943.43213633347
 30
0.0
 11
20217.50061466093
 21
13891.35985455282
 31
0.0
  0
LINE
  5
3A7
  8
ﾊｯﾁﾝｸﾞ
  6
CONTINUOUS
 10
20375.89253364726
 20
13891.35985455282
 30
0.0
 11
20443.82025186684
 21
13823.43213633336
 31
0.0
  0
LINE
  5
3A8
  8
ﾊｯﾁﾝｸﾞ
  6
CONTINUOUS
 10
20336.29455390097
 20
13851.76187480629
 30
0.0
 11
20364.62429237356
 21
13823.43213633324
 31
0.0
  0
LINE
  5
3A9
  8
ﾊｯﾁﾝｸﾞ
  6
CONTINUOUS
 10
20177.90263491463
 20
13930.95783429923
 30
0.0
 11
20285.42833288051
 21
13823.43213633336
 31
0.0
  0
LINE
  5
3AA
  8
ﾊｯﾁﾝｸﾞ
  6
CONTINUOUS
 10
20138.30465516811
 20
13891.35985455282
 30
0.0
 11
20206.23237338745
 21
13823.43213633336
 31
0.0
  0
LINE
  5
3AB
  8
ﾊｯﾁﾝｸﾞ
  6
CONTINUOUS
 10
20098.70667542158
 20
13851.76187480629
 30
0.0
 11
20127.0364138944
 21
13823.43213633324
 31
0.0
  0
LINE
  5
3AC
  8
ﾊｯﾁﾝｸﾞ
  6
CONTINUOUS
 10
20190.37693694876
 20
13943.43213633336
 30
0.0
 11
20070.37693694806
 21
13823.43213633324
 31
0.0
  0
LINE
  5
3AD
  8
ﾊｯﾁﾝｸﾞ
  6
CONTINUOUS
 10
20111.18097745571
 20
13943.43213633336
 30
0.0
 11
19991.18097745501
 21
13823.43213633324
 31
0.0
  0
LINE
  5
3AE
  8
ﾊｯﾁﾝｸﾞ
  6
CONTINUOUS
 10
20031.98501796266
 20
13943.43213633324
 30
0.0
 11
19976.12931774663
 21
13887.57643611768
 31
0.0
  0
POLYLINE
  5
3AF
  8
画層2
 66
     1
 10
0.0
 20
0.0
 30
0.0
1001
ACAD
1000
ASC_BOUNDS
1002
{
1070
    19
1005
3B1
1005
3B1
1002
}
  0
VERTEX
  5
1BEC
  8
画層2
 10
19476.12931774663
 20
13943.43213633324
 30
0.0
  0
VERTEX
  5
1BED
  8
画層2
 10
19476.12931774663
 20
13743.43213633324
 30
0.0
  0
VERTEX
  5
1BEE
  8
画層2
 10
19501.12931774663
 20
13743.43213633324
 30
0.0
  0
VERTEX
  5
1BEF
  8
画層2
 10
19501.12931774663
 20
12243.43213633324
 30
0.0
  0
VERTEX
  5
1BF0
  8
画層2
 10
19951.12931774663
 20
12243.43213633324
 30
0.0
  0
VERTEX
  5
1BF1
  8
画層2
 10
19951.12931774663
 20
13743.43213633324
 30
0.0
  0
VERTEX
  5
1BF2
  8
画層2
 10
19976.12931774663
 20
13743.43213633324
 30
0.0
  0
VERTEX
  5
1BF3
  8
画層2
 10
19976.12931774663
 20
13943.43213633324
 30
0.0
  0
SEQEND
  5
1C71
  8
画層2
  0
LINE
  5
3B0
  8
画層2
 10
19951.12931774663
 20
12343.43213633324
 30
0.0
 11
19501.12931774663
 21
12343.43213633324
 31
0.0
1001
ACAD
1000
ASC_BOUNDS
1002
{
1070
    19
1005
3B1
1005
3B1
1002
}
  0
INSERT
  5
3B1
  8
ﾊｯﾁﾝｸﾞ
  2
*X30
 10
0.0
 20
0.0
 30
0.0
1001
ACAD
1000
HATCH
1002
{
1070
    19
1000
PLAST
1040
2000.0
1040
0.7853981633974483
1000
ASC_BOUNDS
1070
     2
1070
     2
1070
     4
1005
3AF
1005
345
1005
333
1005
3B0
1070
     2
1070
     4
1005
345
1005
3AF
1005
3B0
1005
333
1000
ASC_SEEDPOINT
1011
19790.03249844969
1021
13323.53776349155
1031
0.0
1021
13323.53776349155
1031
0.0
1000
R14_HATCH_DATA
1000
3B1
1011
1.0
1021
0.0
1031
0.0
1021
0.0
1031
0.0
1011
0.0
1021
1.0
1031
0.0
1021
1.0
1031
0.0
1011
0.0
1021
0.0
1031
1.0
1021
0.0
1031
1.0
1040
0.0
1010
0.0
1020
0.0
1030
1.0
1020
0.0
1030
1.0
1000
PLAST
1070
     0
1070
     1
1071
        2
1071
        7
1070
     0
1070
     1
1071
        6
1040
19726.12931774663
1040
12343.43213633324
1040
19951.12931774663
1040
12343.43213633324
1040
19951.12931774663
1040
13743.43213633324
1040
19976.12931774664
1040
13743.43213633324
1040
19976.12931774663
1040
13943.43213633336
1040
19726.12931774663
1040
13943.43213633336
1071
        4
1005
3AF
1005
345
1005
333
1005
3B0
1071
        7
1070
     0
1070
     1
1071
        6
1040
19726.12931774663
1040
13943.43213633335
1040
19476.12931774664
1040
13943.43213633335
1040
19476.12931774663
1040
13743.43213633324
1040
19501.12931774663
1040
13743.43213633324
1040
19501.12931774663
1040
12343.43213633324
1040
19726.12931774663
1040
12343.43213633324
1071
        4
1005
345
1005
3AF
1005
3B0
1005
333
1070
     0
1070
     1
1040
0.7853981633974483
1040
2000.0
1070
     0
1070
     3
1040
0.7853981633974483
1040
-508753.6378203377
1040
-239776.3772111279
1040
-353.5533905932737
1040
353.5533905932738
1070
     0
1040
0.7853981633974483
1040
-508797.8319941619
1040
-239732.1830373037
1040
-353.5533905932737
1040
353.5533905932738
1070
     0
1040
0.7853981633974483
1040
-508842.026167986
1040
-239687.9888634795
1040
-353.5533905932737
1040
353.5533905932738
1070
     0
1040
12.17632855597887
1071
        2
1040
19790.03249844969
1040
13323.53776349155
1040
0.0
1040
19643.80359356026
1040
13287.00920732324
1040
0.0
1002
}
  0
POLYLINE
  5
3B2
  8
寸法引出
  6
CONTINUOUS
 66
     1
 10
0.0
 20
0.0
 30
0.0
  0
VERTEX
  5
1C05
  8
寸法引出
  6
CONTINUOUS
 10
14002.81335927387
 20
13968.43213633335
 30
0.0
  0
VERTEX
  5
1C06
  8
寸法引出
  6
CONTINUOUS
 10
14247.00563676133
 20
14549.40474147336
 30
0.0
  0
VERTEX
  5
1C07
  8
寸法引出
  6
CONTINUOUS
 10
17467.00563676133
 20
14549.40474147336
 30
0.0
  0
SEQEND
  5
1C72
  8
寸法引出
  6
CONTINUOUS
  0
TEXT
  5
3B3
  8
寸法文字
  6
CONTINUOUS
 10
14369.50563676133
 20
14649.40474147336
 30
0.0
 40
300.0
  1
メッセンワイヤー22m㎡
 41
0.75
  7
1_100
  0
LINE
  5
3B4
  8
寸法引出
  6
CONTINUOUS
 10
13581.71498662891
 20
16913.43213633337
 30
0.0
 11
14247.00563676133
 21
14549.40474147336
 31
0.0
  0
POLYLINE
  5
3B5
  8
寸法引出
  6
CONTINUOUS
 66
     1
 10
0.0
 20
0.0
 30
0.0
  0
VERTEX
  5
1C08
  8
寸法引出
  6
CONTINUOUS
 10
19378.32745845373
 20
14083.10483834326
 30
0.0
  0
VERTEX
  5
1C09
  8
寸法引出
  6
CONTINUOUS
 10
18848.47610504659
 20
13064.13101218983
 30
0.0
  0
VERTEX
  5
1C0A
  8
寸法引出
  6
CONTINUOUS
 10
15795.08324790374
 20
13064.13101218983
 30
0.0
  0
SEQEND
  5
1C73
  8
寸法引出
  6
CONTINUOUS
  0
TEXT
  5
3B6
  8
寸法文字
  6
CONTINUOUS
 10
15761.33324790374
 20
13264.13101218983
 30
0.0
 40
300.0
  1
タ-ンバックル12mm
 41
0.75
  7
1_100
  0
POLYLINE
  5
3B7
  8
寸法引出
  6
CONTINUOUS
 66
     1
 10
0.0
 20
0.0
 30
0.0
  0
VERTEX
  5
1C0B
  8
寸法引出
  6
CONTINUOUS
 10
19607.34201468331
 20
16888.43213633335
 30
0.0
  0
VERTEX
  5
1C0C
  8
寸法引出
  6
CONTINUOUS
 10
19240.49705451461
 20
16157.20060864084
 30
0.0
  0
VERTEX
  5
1C0D
  8
寸法引出
  6
CONTINUOUS
 10
17797.99705451461
 20
16157.20060864084
 30
0.0
  0
SEQEND
  5
1C74
  8
寸法引出
  6
CONTINUOUS
  0
TEXT
  5
3B8
  8
寸法文字
  6
CONTINUOUS
 10
17790.49705451461
 20
16257.20060864084
 30
0.0
 40
300.0
  1
バンド金具
 41
0.75
  7
1_100
  0
TEXT
  5
3B9
  8
寸法文字
  6
CONTINUOUS
 10
16836.48488220772
 20
17467.38794713611
 30
0.0
 40
300.0
  1
筋違メッセンワイヤー38m㎡
 41
0.75
  7
1_100
  0
POLYLINE
  5
3BA
  8
寸法引出
  6
CONTINUOUS
 66
     1
 10
0.0
 20
0.0
 30
0.0
  0
VERTEX
  5
1C0E
  8
寸法引出
  6
CONTINUOUS
 10
15720.61525962632
 20
16303.28066039514
 30
0.0
  0
VERTEX
  5
1C0F
  8
寸法引出
  6
CONTINUOUS
 10
16676.48488220772
 20
17367.38794713611
 30
0.0
  0
VERTEX
  5
1C10
  8
寸法引出
  6
CONTINUOUS
 10
20473.98488220772
 20
17367.38794713611
 30
0.0
  0
SEQEND
  5
1C75
  8
寸法引出
  6
CONTINUOUS
  0
TEXT
  5
3BB
  8
寸法文字
  6
CONTINUOUS
 10
12993.78852340453
 20
18950.99922083543
 30
0.0
 40
300.0
  1
エコネット365T/56本×40mm目
 41
0.75
  7
1_100
  0
POLYLINE
  5
3BC
  8
寸法引出
  6
CONTINUOUS
 66
     1
 10
0.0
 20
0.0
 30
0.0
  0
VERTEX
  5
1C11
  8
寸法引出
  6
CONTINUOUS
 10
12192.79598441361
 20
17410.0988030001
 30
0.0
  0
VERTEX
  5
1C12
  8
寸法引出
  6
CONTINUOUS
 10
12848.78852340453
 20
18750.99922083543
 30
0.0
  0
VERTEX
  5
1C13
  8
寸法引出
  6
CONTINUOUS
 10
17613.78852340453
 20
18750.99922083543
 30
0.0
  0
SEQEND
  5
1C76
  8
寸法引出
  6
CONTINUOUS
  0
LINE
  5
3BD
  8
画層1-1
  6
CONTINUOUS
 10
26126.12931774663
 20
17774.45610833952
 30
0.0
 11
19846.47931774673
 21
13968.43213633336
 31
0.0
  0
LINE
  5
3BE
  8
寸法引出
  6
CONTINUOUS
 10
16676.48488220772
 20
17367.38794713611
 30
0.0
 11
16187.74382523368
 21
17779.31163961852
 31
0.0
  0
POLYLINE
  5
3BF
  8
画層1-1
  6
CONTINUOUS
 66
     1
 10
0.0
 20
0.0
 30
0.0
 70
     1
  0
VERTEX
  5
1C14
  8
画層1-1
  6
CONTINUOUS
 10
9931.479317746725
 20
19890.58213633332
 30
0.0
  0
VERTEX
  5
1C15
  8
画層1-1
  6
CONTINUOUS
 10
19520.77931774677
 20
19890.58213633332
 30
0.0
  0
VERTEX
  5
1C16
  8
画層1-1
  6
CONTINUOUS
 10
19520.77931774677
 20
19776.28213633333
 30
0.0
  0
VERTEX
  5
1C17
  8
画層1-1
  6
CONTINUOUS
 10
9931.479317746725
 20
19776.28213633333
 30
0.0
  0
SEQEND
  5
1C77
  8
画層1-1
  6
CONTINUOUS
  0
LINE
  5
3C0
  8
画層1
  6
CONTINUOUS
 10
26126.12931774663
 20
19883.43213633335
 30
0.0
 11
9726.129317746632
 21
19883.43213633335
 31
0.0
  0
POLYLINE
  5
3C1
  8
寸法引出
  6
CONTINUOUS
 66
     1
 10
0.0
 20
0.0
 30
0.0
  0
VERTEX
  5
1C18
  8
寸法引出
  6
CONTINUOUS
 10
9726.129317746632
 20
19943.43213633335
 30
0.0
  0
VERTEX
  5
1C19
  8
寸法引出
  6
CONTINUOUS
 10
8497.936561480765
 20
20914.38300818867
 30
0.0
  0
VERTEX
  5
1C1A
  8
寸法引出
  6
CONTINUOUS
 10
5454.186561480765
 20
20914.38300818867
 30
0.0
  0
SEQEND
  5
1C78
  8
寸法引出
  6
CONTINUOUS
  0
TEXT
  5
3C2
  8
寸法文字
  6
CONTINUOUS
 10
5454.186561480765
 20
21014.38300818867
 30
0.0
 40
300.0
  1
上部ネット下り防止付き
 41
0.75
  7
1_100
  0
LINE
  5
3C3
  8
画層1-1
  6
CONTINUOUS
 10
9931.479317746725
 20
19833.43213633335
 30
0.0
 11
9871.479317746725
 21
19833.43213633335
 31
0.0
  0
LINE
  5
3C4
  8
画層1
  6
CONTINUOUS
 10
9871.479317746725
 20
19808.43213633335
 30
0.0
 11
9871.479317746725
 21
19858.43213633335
 31
0.0
  0
LINE
  5
3C5
  8
画層1
  6
CONTINUOUS
 10
9701.129317746632
 20
19808.43213633335
 30
0.0
 11
9701.129317746632
 21
19858.43213633335
 31
0.0
  0
LINE
  5
3C6
  8
画層1
  6
CONTINUOUS
 10
9751.129317746632
 20
19808.43213633335
 30
0.0
 11
9751.129317746632
 21
19858.43213633335
 31
0.0
  0
LINE
  5
3C7
  8
画層1
  6
CONTINUOUS
 10
9580.779317746772
 20
19858.43213633335
 30
0.0
 11
9580.779317746772
 21
19808.43213633335
 31
0.0
  0
CIRCLE
  5
3C8
  8
画層1
  6
CONTINUOUS
 10
9605.779317746772
 20
19833.43213633335
 30
0.0
 40
10.9509940156
  0
CIRCLE
  5
3C9
  8
画層1
  6
CONTINUOUS
 10
9846.479317746725
 20
19833.43213633335
 30
0.0
 40
10.9509940156
  0
LINE
  5
3CA
  8
画層1
  6
CONTINUOUS
 10
9580.779317746772
 20
19808.43213633335
 30
0.0
 11
9871.479317746725
 21
19808.43213633335
 31
0.0
  0
LINE
  5
3CB
  8
画層1
  6
CONTINUOUS
 10
9871.479317746725
 20
19858.43213633335
 30
0.0
 11
9580.779317746772
 21
19858.43213633335
 31
0.0
  0
POLYLINE
  5
3CC
  8
画層1
 66
     1
 10
0.0
 20
0.0
 30
0.0
 70
     1
  0
VERTEX
  5
1C1B
  8
画層1
 10
9956.929317746679
 20
19903.20841567205
 30
0.0
  0
VERTEX
  5
1C1C
  8
画層1
 10
10111.47931774673
 20
19903.20841567205
 30
0.0
  0
VERTEX
  5
1C1D
  8
画層1
 10
10111.47931774673
 20
19863.20841567205
 30
0.0
  0
VERTEX
  5
1C1E
  8
画層1
 10
9956.929317746679
 20
19863.20841567205
 30
0.0
  0
SEQEND
  5
1C79
  8
画層1
  0
LINE
  5
3CD
  8
画層1
  6
CONTINUOUS
 10
9871.479317746725
 20
19858.43213633335
 30
0.0
 11
9871.479317746725
 21
19908.43213633335
 31
0.0
  0
LINE
  5
3CE
  8
画層1
  6
CONTINUOUS
 10
9630.779317746772
 20
19923.43213633335
 30
0.0
 11
9821.479317746725
 21
19923.43213633335
 31
0.0
  0
LINE
  5
3CF
  8
画層1
  6
CONTINUOUS
 10
9630.779317746772
 20
19943.43213633335
 30
0.0
 11
9821.479317746725
 21
19943.43213633335
 31
0.0
  0
CIRCLE
  5
3D0
  8
画層1
  6
CONTINUOUS
 10
9605.779317746772
 20
19883.43213633335
 30
0.0
 40
10.9509940156
  0
LINE
  5
3D1
  8
画層1
  6
CONTINUOUS
 10
9580.779317746772
 20
19908.43213633335
 30
0.0
 11
9580.779317746772
 21
19858.43213633335
 31
0.0
  0
LINE
  5
3D2
  8
画層1
  6
CONTINUOUS
 10
9751.129317746632
 20
19858.43213633335
 30
0.0
 11
9751.129317746632
 21
19908.43213633335
 31
0.0
  0
LINE
  5
3D3
  8
画層1
  6
CONTINUOUS
 10
9701.129317746632
 20
19858.43213633335
 30
0.0
 11
9701.129317746632
 21
19908.43213633335
 31
0.0
  0
DIMENSION
  5
3D4
  8
寸法
  6
CONTINUOUS
  2
*D14
 10
9821.479317746725
 20
20543.43213633335
 30
0.0
 11
9726.129317746749
 21
20843.43213633335
 31
0.0
 70
    32
  1
φ<>
  3
1_100
 13
9630.779317746772
 23
19943.43213633335
 33
0.0
 14
9821.479317746725
 24
19943.43213633335
 34
0.0
  0
LINE
  5
3D5
  8
画層1
  6
CONTINUOUS
 10
9871.479317746725
 20
19908.43213633335
 30
0.0
 11
9580.779317746772
 21
19908.43213633335
 31
0.0
  0
LINE
  5
3D6
  8
画層1
  6
CONTINUOUS
 10
9580.779317746772
 20
19858.43213633335
 30
0.0
 11
9871.479317746725
 21
19858.43213633335
 31
0.0
  0
CIRCLE
  5
3D7
  8
画層1
  6
CONTINUOUS
 10
9846.479317746725
 20
19883.43213633335
 30
0.0
 40
10.9509940156
  0
LINE
  5
3D8
  8
画層1-1
  6
CONTINUOUS
 10
19520.77931774677
 20
19833.43213633335
 30
0.0
 11
19580.77931774677
 21
19833.43213633335
 31
0.0
  0
LINE
  5
3D9
  8
画層1
  6
CONTINUOUS
 10
19871.47931774673
 20
19858.43213633335
 30
0.0
 11
19580.77931774677
 21
19858.43213633335
 31
0.0
  0
LINE
  5
3DA
  8
画層1
  6
CONTINUOUS
 10
19580.77931774677
 20
19808.43213633335
 30
0.0
 11
19871.47931774673
 21
19808.43213633335
 31
0.0
  0
CIRCLE
  5
3DB
  8
画層1
  6
CONTINUOUS
 10
19605.77931774677
 20
19833.43213633335
 30
0.0
 40
10.9509940156
  0
LINE
  5
3DC
  8
画層1
  6
CONTINUOUS
 10
19580.77931774677
 20
19858.43213633335
 30
0.0
 11
19580.77931774677
 21
19808.43213633335
 31
0.0
  0
LINE
  5
3DD
  8
画層1
  6
CONTINUOUS
 10
19871.47931774673
 20
19808.43213633335
 30
0.0
 11
19871.47931774673
 21
19858.43213633335
 31
0.0
  0
LINE
  5
3DE
  8
画層1
  6
CONTINUOUS
 10
19751.12931774663
 20
19808.43213633335
 30
0.0
 11
19751.12931774663
 21
19858.43213633335
 31
0.0
  0
CIRCLE
  5
3DF
  8
画層1
  6
CONTINUOUS
 10
19846.47931774673
 20
19833.43213633335
 30
0.0
 40
10.9509940156
  0
LINE
  5
3E0
  8
画層1
  6
CONTINUOUS
 10
19701.12931774663
 20
19808.43213633335
 30
0.0
 11
19701.12931774663
 21
19858.43213633335
 31
0.0
  0
LINE
  5
3E1
  8
画層1
  6
CONTINUOUS
 10
19701.12931774663
 20
19858.43213633335
 30
0.0
 11
19701.12931774663
 21
19908.43213633335
 31
0.0
  0
CIRCLE
  5
3E2
  8
画層1
  6
CONTINUOUS
 10
19846.47931774673
 20
19883.43213633335
 30
0.0
 40
10.9509940156
  0
LINE
  5
3E3
  8
画層1
  6
CONTINUOUS
 10
19751.12931774663
 20
19858.43213633335
 30
0.0
 11
19751.12931774663
 21
19908.43213633335
 31
0.0
  0
LINE
  5
3E4
  8
画層1
  6
CONTINUOUS
 10
19871.47931774673
 20
19858.43213633335
 30
0.0
 11
19871.47931774673
 21
19908.43213633335
 31
0.0
  0
LINE
  5
3E5
  8
画層1
  6
CONTINUOUS
 10
19580.77931774677
 20
19908.43213633335
 30
0.0
 11
19580.77931774677
 21
19858.43213633335
 31
0.0
  0
CIRCLE
  5
3E6
  8
画層1
  6
CONTINUOUS
 10
19605.77931774677
 20
19883.43213633335
 30
0.0
 40
10.9509940156
  0
LINE
  5
3E7
  8
画層1
  6
CONTINUOUS
 10
19871.47931774673
 20
19908.43213633335
 30
0.0
 11
19580.77931774677
 21
19908.43213633335
 31
0.0
  0
LINE
  5
3E8
  8
画層1
  6
CONTINUOUS
 10
19630.77931774677
 20
19943.43213633335
 30
0.0
 11
19821.47931774673
 21
19943.43213633335
 31
0.0
  0
LINE
  5
3E9
  8
画層1
  6
CONTINUOUS
 10
19630.77931774677
 20
19923.43213633335
 30
0.0
 11
19821.47931774673
 21
19923.43213633335
 31
0.0
  0
LINE
  5
3EA
  8
画層1
  6
CONTINUOUS
 10
19580.77931774677
 20
19858.43213633335
 30
0.0
 11
19871.47931774673
 21
19858.43213633335
 31
0.0
  0
TEXT
  5
3EB
  8
寸法文字
  6
CONTINUOUS
 10
13474.93208706861
 20
21041.95745568959
 30
0.0
 40
300.0
  1
（STK-400鋼管）
 41
0.75
  7
1_100
  0
POLYLINE
  5
3EC
  8
寸法引出
  6
CONTINUOUS
 66
     1
 10
0.0
 20
0.0
 30
0.0
  0
VERTEX
  5
1C1F
  8
寸法引出
  6
CONTINUOUS
 10
12418.55909529901
 20
19823.18773123649
 30
0.0
  0
VERTEX
  5
1C20
  8
寸法引出
  6
CONTINUOUS
 10
13322.21678088363
 20
21535.78515752287
 30
0.0
  0
VERTEX
  5
1C21
  8
寸法引出
  6
CONTINUOUS
 10
16654.71678088363
 20
21535.78515752287
 30
0.0
  0
SEQEND
  5
1C7A
  8
寸法引出
  6
CONTINUOUS
  0
INSERT
  5
3ED
  8
寸法文字
  6
CONTINUOUS
  2
*X31
 10
0.0
 20
0.0
 30
0.0
  0
POLYLINE
  5
3EE
  8
寸法引出
  6
CONTINUOUS
 66
     1
 10
0.0
 20
0.0
 30
0.0
  0
VERTEX
  5
1C25
  8
寸法引出
  6
CONTINUOUS
 10
17213.04462927756
 20
19883.43213633335
 30
0.0
  0
VERTEX
  5
1C26
  8
寸法引出
  6
CONTINUOUS
 10
17815.02080375971
 20
21201.67801621409
 30
0.0
  0
VERTEX
  5
1C27
  8
寸法引出
  6
CONTINUOUS
 10
21035.02080375971
 20
21201.67801621409
 30
0.0
  0
SEQEND
  5
1C7B
  8
寸法引出
  6
CONTINUOUS
  0
TEXT
  5
3EF
  8
寸法文字
  6
CONTINUOUS
 10
17937.52080375971
 20
21301.67801621409
 30
0.0
 40
300.0
  1
メッセンワイヤー38m㎡
 41
0.75
  7
1_100
  0
DIMENSION
  5
3F0
  8
寸法
  6
CONTINUOUS
  2
*D15
 10
34326.12931774664
 20
19943.43213633417
 30
0.0
 11
34060.71225874745
 21
20246.95749171385
 31
0.0
 70
   160
  3
1_100
 13
33226.12931774664
 23
19883.43213633417
 33
0.0
 14
33226.12931774664
 24
19943.43213633417
 34
0.0
 50
90.0
  0
POLYLINE
  5
3F1
  8
寸法引出
  6
CONTINUOUS
 66
     1
 10
0.0
 20
0.0
 30
0.0
  0
VERTEX
  5
1C28
  8
寸法引出
  6
CONTINUOUS
 10
31796.02931774654
 20
19481.73576305328
 30
0.0
  0
VERTEX
  5
1C29
  8
寸法引出
  6
CONTINUOUS
 10
33269.11852373336
 20
21405.79758362029
 30
0.0
  0
VERTEX
  5
1C2A
  8
寸法引出
  6
CONTINUOUS
 10
38128.40423801908
 20
21405.79758362029
 30
0.0
  0
SEQEND
  5
1C7C
  8
寸法引出
  6
CONTINUOUS
  0
TEXT
  5
3F2
  8
寸法字
  6
CONTINUOUS
 10
33429.11852373336
 20
21505.79758362029
 30
0.0
 40
300.0
  1
主柱KSポールφ190.7厚さ3.5mm
 41
0.75
  7
1_100
  0
LINE
  5
3F3
  8
画層1
  6
CONTINUOUS
 10
31821.47931774649
 20
12343.43213633371
 30
0.0
 11
31821.47931774649
 21
19943.4321363337
 31
0.0
  0
LINE
  5
3F4
  8
画層1
  6
CONTINUOUS
 10
31630.77931774654
 20
19943.4321363337
 30
0.0
 11
31630.77931774654
 21
12343.43213633371
 31
0.0
  0
LINE
  5
3F5
  8
通り芯
  6
DASHDOT
 10
31726.12931774663
 20
12100.96466454076
 30
0.0
 11
31726.12931774663
 21
20003.89479603681
 31
0.0
1001
ACAD
1000
ASC_BOUNDS
1002
{
1070
    19
1005
430
1005
430
1002
}
  0
DIMENSION
  5
3F6
  8
寸法
  6
CONTINUOUS
  2
*D16
 10
34326.12931774664
 20
19883.43213633417
 30
0.0
 11
34047.5578891752
 21
18398.43213633417
 31
0.0
 70
    32
  3
1_100
 13
33266.12931774664
 23
16913.43213633417
 33
0.0
 14
33226.12931774664
 24
19883.43213633417
 34
0.0
 50
90.0
  0
LINE
  5
3F7
  8
画層1
  6
CONTINUOUS
 10
31726.12931774663
 20
19923.43213633417
 30
0.0
 11
31726.12931774663
 21
13968.43213633417
 31
0.0
  0
LINE
  5
3F8
  8
画層1-1
  6
DASHED
 10
31605.77931774654
 20
19883.4321363337
 30
0.0
 11
31605.77931774654
 21
13968.43213633417
 31
0.0
  0
DIMENSION
  5
3F9
  8
寸法
  6
CONTINUOUS
  2
*D17
 10
35326.12931774664
 20
13943.43213633417
 30
0.0
 11
35047.55788917521
 21
16943.43213633417
 31
0.0
 70
    32
  3
1_100
 13
33226.12931774664
 23
19943.43213633417
 33
0.0
 14
33226.12931774664
 24
13943.43213633417
 34
0.0
 50
90.0
  0
INSERT
  5
3FA
  8
ﾊｯﾁﾝｸﾞ
  6
CONTINUOUS
  2
SAI450
 10
31726.12931774663
 20
12343.43213633336
 30
0.0
  0
DIMENSION
  5
3FB
  8
寸法
  6
CONTINUOUS
  2
*D18
 10
34326.12931774664
 20
13943.43213633417
 30
0.0
 11
34545.62540637692
 21
13586.53534986432
 31
0.0
 70
   160
  3
1_100
 13
33226.12931774664
 23
13743.43213633417
 33
0.0
 14
33226.12931774664
 24
13943.43213633417
 34
0.0
 50
90.0
  0
DIMENSION
  5
3FC
  8
寸法
  6
CONTINUOUS
  2
*D19
 10
35326.12931774664
 20
12343.43213633417
 30
0.0
 11
35047.55788917521
 21
13143.43213633418
 31
0.0
 70
    32
  3
1_100
 13
33226.12931774664
 23
13943.43213633417
 33
0.0
 14
33226.12931774664
 24
12343.43213633417
 34
0.0
 50
90.0
  0
DIMENSION
  5
3FD
  8
寸法
  6
CONTINUOUS
  2
*D20
 10
34326.12931774664
 20
13743.43213633417
 30
0.0
 11
34047.55788917521
 21
13043.43213633418
 31
0.0
 70
    32
  3
1_100
 13
33226.12931774664
 23
12343.43213633417
 33
0.0
 14
33226.12931774664
 24
13743.43213633417
 34
0.0
 50
90.0
  0
DIMENSION
  5
3FE
  8
寸法
  6
CONTINUOUS
  2
*D21
 10
34326.12931774664
 20
12343.43213633417
 30
0.0
 11
34084.84665065319
 21
11863.68003003373
 31
0.0
 70
   160
  3
1_100
 13
33226.12931774664
 23
12243.43213633417
 33
0.0
 14
33226.12931774664
 24
12343.43213633417
 34
0.0
 50
90.0
  0
DIMENSION
  5
3FF
  8
寸法
  6
CONTINUOUS
  2
*D22
 10
34326.12931774664
 20
16913.43213633417
 30
0.0
 11
34047.5578891752
 21
15428.43213633418
 31
0.0
 70
    32
  3
1_100
 13
33226.12931774664
 23
13943.43213633417
 33
0.0
 14
33266.12931774664
 24
16913.43213633417
 34
0.0
 50
90.0
  0
LINE
  5
400
  8
画層2-1
  6
CONTINUOUS
 10
31630.77931774654
 20
13793.43213633371
 30
0.0
 11
31821.47931774649
 21
13793.43213633371
 31
0.0
  0
DIMENSION
  5
401
  8
寸法
  6
CONTINUOUS
  2
*D23
 10
31951.12931774663
 20
11643.43213633371
 30
0.0
 11
30926.60258397147
 21
11817.48757481585
 31
0.0
 70
   160
  1
φ<>
  3
1_100
 13
31501.12931774663
 23
12243.43213633371
 33
0.0
 14
31951.12931774663
 24
12243.43213633371
 34
0.0
  0
DIMENSION
  5
402
  8
寸法
  6
CONTINUOUS
  2
*D24
 10
31976.12931774663
 20
11243.43213633324
 30
0.0
 11
31726.12931774663
 21
10993.43213633324
 31
0.0
 70
    32
  1
□<>
  3
1_100
 13
31476.12931774663
 23
12243.43213633371
 33
0.0
 14
31976.12931774663
 24
12243.43213633365
 34
0.0
1001
ACAD
1000
DSTYLE
1002
{
1070
    77
1070
     2
1070
   174
1070
     1
1002
}
  0
LINE
  5
403
  8
画層1
  6
CONTINUOUS
 10
31580.77931774654
 20
16913.43213633417
 30
0.0
 11
31630.77931774654
 21
16913.43213633417
 31
0.0
  0
LINE
  5
404
  8
画層1
  6
CONTINUOUS
 10
31580.77931774654
 20
16938.4321363337
 30
0.0
 11
31580.77931774654
 21
16888.4321363337
 31
0.0
  0
LINE
  5
405
  8
画層1
  6
CONTINUOUS
 10
31701.12931774663
 20
16938.4321363337
 30
0.0
 11
31630.77931774654
 21
16938.4321363337
 31
0.0
  0
LINE
  5
406
  8
画層1
  6
CONTINUOUS
 10
31630.77931774654
 20
16888.4321363337
 30
0.0
 11
31701.12931774663
 21
16888.4321363337
 31
0.0
  0
LINE
  5
407
  8
画層1
  6
CONTINUOUS
 10
31751.12931774663
 20
16888.4321363337
 30
0.0
 11
31821.47931774649
 21
16888.4321363337
 31
0.0
  0
LINE
  5
408
  8
画層1
  6
CONTINUOUS
 10
31821.47931774649
 20
16938.4321363337
 30
0.0
 11
31751.12931774663
 21
16938.4321363337
 31
0.0
  0
LINE
  5
409
  8
画層1
  6
CONTINUOUS
 10
31701.12931774663
 20
16888.4321363337
 30
0.0
 11
31701.12931774663
 21
16938.4321363337
 31
0.0
  0
LINE
  5
40A
  8
画層1
  6
CONTINUOUS
 10
31751.12931774663
 20
16888.4321363337
 30
0.0
 11
31751.12931774663
 21
16938.4321363337
 31
0.0
  0
LINE
  5
40B
  8
画層1
  6
CONTINUOUS
 10
31676.12931774663
 20
16913.43213633417
 30
0.0
 11
31776.12931774663
 21
16913.43213633417
 31
0.0
  0
POLYLINE
  5
40C
  8
画層1
 66
     1
 10
0.0
 20
0.0
 30
0.0
 70
     1
  0
VERTEX
  5
1C2B
  8
画層1
 10
31707.24817928755
 20
14323.43213633371
 30
0.0
  0
VERTEX
  5
1C2C
  8
画層1
 10
31747.24817928755
 20
14323.43213633371
 30
0.0
  0
VERTEX
  5
1C2D
  8
画層1
 10
31747.24817928755
 20
14143.43213633371
 30
0.0
  0
VERTEX
  5
1C2E
  8
画層1
 10
31707.24817928755
 20
14143.43213633371
 30
0.0
  0
SEQEND
  5
1C7D
  8
画層1
  0
LINE
  5
40D
  8
画層1
  6
CONTINUOUS
 10
31580.77931774654
 20
13968.43213633417
 30
0.0
 11
31630.77931774654
 21
13968.43213633417
 31
0.0
  0
LINE
  5
40E
  8
画層1
  6
CONTINUOUS
 10
31580.77931774654
 20
13993.43213633371
 30
0.0
 11
31580.77931774654
 21
13943.43213633371
 31
0.0
  0
LINE
  5
40F
  8
画層1
  6
CONTINUOUS
 10
31701.12931774663
 20
13943.43213633371
 30
0.0
 11
31630.77931774654
 21
13943.43213633371
 31
0.0
  0
LINE
  5
410
  8
画層1
  6
CONTINUOUS
 10
31701.12931774663
 20
13993.43213633371
 30
0.0
 11
31630.77931774654
 21
13993.43213633371
 31
0.0
  0
LINE
  5
411
  8
画層2-1
  6
CONTINUOUS
 10
31630.77931774654
 20
14043.43213633371
 30
0.0
 11
31821.47931774649
 21
14043.43213633371
 31
0.0
  0
LINE
  5
412
  8
画層1
  6
CONTINUOUS
 10
31821.47931774649
 20
13943.43213633371
 30
0.0
 11
31751.12931774663
 21
13943.43213633371
 31
0.0
  0
LINE
  5
413
  8
画層1
  6
CONTINUOUS
 10
31821.47931774649
 20
13993.43213633371
 30
0.0
 11
31751.12931774663
 21
13993.43213633371
 31
0.0
  0
LINE
  5
414
  8
画層1
  6
CONTINUOUS
 10
31701.12931774663
 20
13943.43213633371
 30
0.0
 11
31701.12931774663
 21
13993.43213633371
 31
0.0
  0
LINE
  5
415
  8
画層1
  6
CONTINUOUS
 10
31751.12931774663
 20
13943.43213633371
 30
0.0
 11
31751.12931774663
 21
13993.43213633371
 31
0.0
  0
LINE
  5
416
  8
画層1
  6
CONTINUOUS
 10
31676.12931774663
 20
13968.43213633417
 30
0.0
 11
31776.12931774663
 21
13968.43213633417
 31
0.0
  0
TEXT
  5
417
  8
寸法
  6
CONTINUOUS
 10
30534.72752268835
 20
14023.4321363333
 30
0.0
 40
300.0
  1
▽GL
 41
0.75
  7
1_100
 11
30534.72752268835
 21
14023.4321363333
 31
0.0
 73
     1
  0
LINE
  5
418
  8
ﾊｯﾁﾝｸﾞ
  6
CONTINUOUS
 10
31420.27361753084
 20
13943.43213633411
 30
0.0
 11
31476.12931774663
 21
13887.57643611856
 31
0.0
  0
LINE
  5
419
  8
ﾊｯﾁﾝｸﾞ
  6
CONTINUOUS
 10
31341.07765803756
 20
13943.43213633423
 30
0.0
 11
31461.07765803826
 21
13823.43213633411
 31
0.0
  0
LINE
  5
41A
  8
ﾊｯﾁﾝｸﾞ
  6
CONTINUOUS
 10
31261.8816985445
 20
13943.43213633423
 30
0.0
 11
31381.8816985452
 21
13823.43213633411
 31
0.0
  0
LINE
  5
41B
  8
ﾊｯﾁﾝｸﾞ
  6
CONTINUOUS
 10
31353.55196007168
 20
13851.76187480717
 30
0.0
 11
31325.2222215991
 21
13823.43213633411
 31
0.0
  0
LINE
  5
41C
  8
ﾊｯﾁﾝｸﾞ
  6
CONTINUOUS
 10
31313.95398032516
 20
13891.35985455364
 30
0.0
 11
31246.02626210581
 21
13823.43213633417
 31
0.0
  0
LINE
  5
41D
  8
ﾊｯﾁﾝｸﾞ
  6
CONTINUOUS
 10
31274.35600057863
 20
13930.95783430004
 30
0.0
 11
31166.83030261299
 21
13823.43213633417
 31
0.0
  0
LINE
  5
41E
  8
ﾊｯﾁﾝｸﾞ
  6
CONTINUOUS
 10
31115.96408159253
 20
13851.76187480717
 30
0.0
 11
31087.63434311971
 21
13823.43213633411
 31
0.0
  0
LINE
  5
41F
  8
ﾊｯﾁﾝｸﾞ
  6
CONTINUOUS
 10
31076.366101846
 20
13891.35985455364
 30
0.0
 11
31008.43838362642
 21
13823.43213633417
 31
0.0
  0
LINE
  5
420
  8
ﾊｯﾁﾝｸﾞ
  6
CONTINUOUS
 10
31182.68573905145
 20
13943.43213633429
 30
0.0
 11
31234.75802083234
 21
13891.35985455364
 31
0.0
  0
LINE
  5
421
  8
ﾊｯﾁﾝｸﾞ
  6
CONTINUOUS
 10
31103.48977955817
 20
13943.43213633417
 30
0.0
 11
31195.16004108581
 21
13851.76187480711
 31
0.0
  0
LINE
  5
422
  8
ﾊｯﾁﾝｸﾞ
  6
CONTINUOUS
 10
31024.29382006512
 20
13943.43213633417
 30
0.0
 11
31144.29382006605
 21
13823.43213633417
 31
0.0
  0
LINE
  5
423
  8
ﾊｯﾁﾝｸﾞ
  6
CONTINUOUS
 10
31036.76812209947
 20
13930.95783430004
 30
0.0
 11
30983.00527311642
 21
13877.19498531711
 31
0.0
  0
LINE
  5
424
  8
ﾊｯﾁﾝｸﾞ
  6
CONTINUOUS
 10
32098.70667542158
 20
13851.76187480717
 30
0.0
 11
32127.03641389417
 21
13823.43213633411
 31
0.0
  0
LINE
  5
425
  8
ﾊｯﾁﾝｸﾞ
  6
CONTINUOUS
 10
32190.37693694876
 20
13943.43213633423
 30
0.0
 11
32070.37693694806
 21
13823.43213633411
 31
0.0
  0
LINE
  5
426
  8
ﾊｯﾁﾝｸﾞ
  6
CONTINUOUS
 10
32031.98501796242
 20
13943.43213633411
 30
0.0
 11
31976.12931774663
 21
13887.57643611856
 31
0.0
  0
LINE
  5
427
  8
ﾊｯﾁﾝｸﾞ
  6
CONTINUOUS
 10
32111.18097745571
 20
13943.43213633423
 30
0.0
 11
31991.18097745501
 21
13823.43213633411
 31
0.0
  0
LINE
  5
428
  8
ﾊｯﾁﾝｸﾞ
  6
CONTINUOUS
 10
32427.96481542815
 20
13943.43213633417
 30
0.0
 11
32307.96481542722
 21
13823.43213633417
 31
0.0
  0
LINE
  5
429
  8
ﾊｯﾁﾝｸﾞ
  6
CONTINUOUS
 10
32348.7688559351
 20
13943.43213633417
 30
0.0
 11
32257.09859440745
 21
13851.76187480717
 31
0.0
  0
LINE
  5
42A
  8
ﾊｯﾁﾝｸﾞ
  6
CONTINUOUS
 10
32269.57289644181
 20
13943.43213633429
 30
0.0
 11
32217.50061466093
 21
13891.35985455364
 31
0.0
  0
LINE
  5
42B
  8
ﾊｯﾁﾝｸﾞ
  6
CONTINUOUS
 10
32336.29455390074
 20
13851.76187480717
 30
0.0
 11
32364.62429237356
 21
13823.43213633411
 31
0.0
  0
LINE
  5
42C
  8
ﾊｯﾁﾝｸﾞ
  6
CONTINUOUS
 10
32177.90263491463
 20
13930.95783430004
 30
0.0
 11
32285.42833288027
 21
13823.43213633417
 31
0.0
  0
LINE
  5
42D
  8
ﾊｯﾁﾝｸﾞ
  6
CONTINUOUS
 10
32138.30465516811
 20
13891.35985455364
 30
0.0
 11
32206.23237338745
 21
13823.43213633417
 31
0.0
  0
POLYLINE
  5
42E
  8
画層2
 66
     1
 10
0.0
 20
0.0
 30
0.0
1001
ACAD
1000
ASC_BOUNDS
1002
{
1070
    19
1005
430
1005
430
1002
}
  0
VERTEX
  5
1C2F
  8
画層2
 10
31476.12931774663
 20
13943.43213633341
 30
0.0
  0
VERTEX
  5
1C30
  8
画層2
 10
31476.12931774663
 20
13743.43213633336
 30
0.0
  0
VERTEX
  5
1C31
  8
画層2
 10
31501.12931774663
 20
13743.43213633336
 30
0.0
  0
VERTEX
  5
1C32
  8
画層2
 10
31501.12931774663
 20
12243.43213633336
 30
0.0
  0
VERTEX
  5
1C33
  8
画層2
 10
31951.12931774663
 20
12243.43213633336
 30
0.0
  0
VERTEX
  5
1C34
  8
画層2
 10
31951.12931774663
 20
13743.43213633336
 30
0.0
  0
VERTEX
  5
1C35
  8
画層2
 10
31976.12931774663
 20
13743.43213633336
 30
0.0
  0
VERTEX
  5
1C36
  8
画層2
 10
31976.12931774663
 20
13943.43213633341
 30
0.0
  0
SEQEND
  5
1C7E
  8
画層2
  0
LINE
  5
42F
  8
画層2
 10
31951.12931774663
 20
12343.43213633336
 30
0.0
 11
31501.12931774663
 21
12343.43213633336
 31
0.0
1001
ACAD
1000
ASC_BOUNDS
1002
{
1070
    19
1005
430
1005
430
1002
}
  0
INSERT
  5
430
  8
ﾊｯﾁﾝｸﾞ
  2
*X32
 10
0.0
 20
0.0
 30
0.0
1001
ACAD
1000
HATCH
1002
{
1070
    19
1000
PLAST
1040
2000.0
1040
0.7853981633974483
1000
ASC_BOUNDS
1070
     2
1070
     2
1070
     4
1005
42E
1005
431
1005
3F5
1005
42F
1070
     2
1070
     4
1005
431
1005
42E
1005
42F
1005
3F5
1000
ASC_SEEDPOINT
1011
31788.89018984665
1021
13127.76390293291
1031
0.0
1021
13127.76390293291
1031
0.0
1000
R14_HATCH_DATA
1000
430
1011
1.0
1021
0.0
1031
0.0
1021
0.0
1031
0.0
1011
0.0
1021
1.0
1031
0.0
1021
1.0
1031
0.0
1011
0.0
1021
0.0
1031
1.0
1021
0.0
1031
1.0
1040
0.0
1010
0.0
1020
0.0
1030
1.0
1020
0.0
1030
1.0
1000
PLAST
1070
     0
1070
     1
1071
        2
1071
        7
1070
     0
1070
     1
1071
        6
1040
31726.12931774663
1040
12343.43213633336
1040
31951.12931774663
1040
12343.43213633336
1040
31951.12931774663
1040
13743.43213633336
1040
31976.12931774663
1040
13743.43213633336
1040
31976.12931774663
1040
13943.43213633417
1040
31726.12931774663
1040
13943.43213633417
1071
        4
1005
42E
1005
431
1005
3F5
1005
42F
1071
        7
1070
     0
1070
     1
1071
        6
1040
31726.12931774663
1040
13943.43213633417
1040
31476.12931774663
1040
13943.43213633417
1040
31476.12931774664
1040
13743.43213633336
1040
31501.12931774663
1040
13743.43213633336
1040
31501.12931774663
1040
12343.43213633336
1040
31726.12931774663
1040
12343.43213633336
1071
        4
1005
431
1005
42E
1005
42F
1005
3F5
1070
     0
1070
     1
1040
0.7853981633974483
1040
2000.0
1070
     0
1070
     3
1040
0.7853981633974483
1040
-508753.6378203377
1040
-239876.3772111279
1040
-353.5533905932737
1040
353.5533905932738
1070
     0
1040
0.7853981633974483
1040
-508797.8319941619
1040
-239832.1830373037
1040
-353.5533905932737
1040
353.5533905932738
1070
     0
1040
0.7853981633974483
1040
-508842.026167986
1040
-239787.9888634795
1040
-353.5533905932737
1040
353.5533905932738
1070
     0
1040
13.02566984594292
1071
        2
1040
31788.89018984665
1040
13127.76390293291
1040
0.0
1040
31619.42549856719
1040
13310.12356517445
1040
0.0
1002
}
  0
LINE
  5
431
  8
画層2
  6
CONTINUOUS
 10
30668.00914955246
 20
13943.43213633417
 30
0.0
 11
32676.37124332147
 21
13943.43213633417
 31
0.0
1001
ACAD
1000
ASC_BOUNDS
1002
{
1070
    19
1005
430
1005
430
1002
}
  0
LINE
  5
432
  8
ﾊｯﾁﾝｸﾞ
  6
CONTINUOUS
 10
32415.49051339379
 20
13930.95783430004
 30
0.0
 11
32469.25336237684
 21
13877.19498531711
 31
0.0
  0
LINE
  5
433
  8
ﾊｯﾁﾝｸﾞ
  6
CONTINUOUS
 10
32375.89253364726
 20
13891.35985455364
 30
0.0
 11
32443.82025186684
 21
13823.43213633417
 31
0.0
  0
TEXT
  5
434
  8
寸法文字
  6
CONTINUOUS
 10
33322.89607208099
 20
20952.27844640593
 30
0.0
 40
300.0
  1
（溶融亜鉛メッキ450g/㎡）
 41
0.75
  7
1_100
  0
LINE
  5
435
  8
画層1
  6
CONTINUOUS
 10
31580.77931774654
 20
19883.43213633417
 30
0.0
 11
31630.77931774654
 21
19883.43213633417
 31
0.0
  0
LINE
  5
436
  8
画層1
  6
CONTINUOUS
 10
31580.77931774654
 20
19908.4321363337
 30
0.0
 11
31580.77931774654
 21
19858.4321363337
 31
0.0
  0
LINE
  5
437
  8
画層1
  6
CONTINUOUS
 10
31701.12931774663
 20
19858.4321363337
 30
0.0
 11
31701.12931774663
 21
19908.4321363337
 31
0.0
  0
LINE
  5
438
  8
画層1
  6
CONTINUOUS
 10
31751.12931774663
 20
19858.4321363337
 30
0.0
 11
31751.12931774663
 21
19908.4321363337
 31
0.0
  0
LINE
  5
439
  8
画層1
  6
CONTINUOUS
 10
31630.77931774654
 20
19858.4321363337
 30
0.0
 11
31701.12931774663
 21
19858.4321363337
 31
0.0
  0
LINE
  5
43A
  8
画層1
  6
CONTINUOUS
 10
31751.12931774663
 20
19858.4321363337
 30
0.0
 11
31821.47931774649
 21
19858.4321363337
 31
0.0
  0
LINE
  5
43B
  8
画層1
  6
CONTINUOUS
 10
31630.77931774654
 20
19923.4321363337
 30
0.0
 11
31821.47931774649
 21
19923.4321363337
 31
0.0
  0
LINE
  5
43C
  8
画層1
  6
CONTINUOUS
 10
31630.77931774654
 20
19943.4321363337
 30
0.0
 11
31821.47931774649
 21
19943.4321363337
 31
0.0
  0
LINE
  5
43D
  8
画層1
  6
CONTINUOUS
 10
31701.12931774663
 20
19908.4321363337
 30
0.0
 11
31630.77931774654
 21
19908.4321363337
 31
0.0
  0
LINE
  5
43E
  8
画層1
  6
CONTINUOUS
 10
31821.47931774649
 20
19908.4321363337
 30
0.0
 11
31751.12931774663
 21
19908.4321363337
 31
0.0
  0
LINE
  5
43F
  8
画層1
  6
CONTINUOUS
 10
31676.12931774663
 20
19883.43213633417
 30
0.0
 11
31776.12931774663
 21
19883.43213633417
 31
0.0
  0
DIMENSION
  5
440
  8
寸法
  6
CONTINUOUS
  2
*D25
 10
31821.47931774649
 20
20543.43213633335
 30
0.0
 11
31726.12931774652
 21
20843.43213633335
 31
0.0
 70
    32
  1
φ<>
  3
1_100
 13
31630.77931774654
 23
19943.43213633376
 33
0.0
 14
31821.47931774649
 24
19943.43213633376
 34
0.0
  0
LINE
  5
441
  8
画層1
  6
CONTINUOUS
 10
19630.77931774677
 20
17367.38794713611
 30
0.0
 11
19630.77931774677
 21
12343.43213633336
 31
0.0
  0
LINE
  5
442
  8
通り芯
  6
DASHDOT
 10
19726.12931774663
 20
17914.05461380278
 30
0.0
 11
19726.12931774663
 21
20003.89479603599
 31
0.0
  0
LINE
  5
443
  8
画層1
  6
CONTINUOUS
 10
19821.47931774673
 20
17914.05461380278
 30
0.0
 11
19821.47931774673
 21
19943.43213633335
 31
0.0
  0
TEXT
  5
444
  8
DEFPOINTS
 10
1533.830453477222
 20
618.6542603906103
 30
0.0
 40
300.0
  1
1/100
 41
0.75
  7
1_100
 11
1533.830453477222
 21
618.6542603906103
 31
0.0
 73
     1
  0
TEXT
  5
445
  8
DEFPOINTS
 10
3256.202952576689
 20
618.8735078820293
 30
0.0
 40
300.0
  1
KS1-H06
 41
0.75
  7
1_100
 11
3256.202952576689
 21
618.8735078820293
 31
0.0
 73
     1
  0
POLYLINE
  5
446
  8
寸法
 66
     1
 10
0.0
 20
0.0
 30
0.0
1001
ACAD
1000
DSTYLE
1002
{
1070
    41
1040
3.0
1070
   341
1005
0
1002
}
  0
VERTEX
  5
1C47
  8
寸法
 10
26136.16913294643
 20
9343.432137572481
 30
0.0
  0
VERTEX
  5
1C48
  8
寸法
 10
19726.12931774663
 20
9343.432137572481
 30
0.0
  0
SEQEND
  5
1C7F
  8
寸法
  0
POLYLINE
  5
447
  8
寸法
  6
CONTINUOUS
 66
     1
 10
0.0
 20
0.0
 30
0.0
  0
VERTEX
  5
1C49
  8
寸法
  6
CONTINUOUS
 10
25836.16913294643
 20
9423.816894572483
 30
0.0
  0
VERTEX
  5
1C4A
  8
寸法
  6
CONTINUOUS
 10
26136.16913294643
 20
9343.432137572481
 30
0.0
  0
VERTEX
  5
1C4B
  8
寸法
  6
CONTINUOUS
 10
25836.16913294643
 20
9263.047380572481
 30
0.0
  0
SEQEND
  5
1C80
  8
寸法
  6
CONTINUOUS
  0
TEXT
  5
1458
  8
画層3
 10
39480.29608536918
 20
1510.098804239545
 30
0.0
 40
300.0
  1
4
 41
0.75
  7
1_100
 72
     1
 11
39592.79608536918
 21
1510.098804239545
 31
0.0
 73
     1
  0
TEXT
  5
145C
  8
画層1
 10
10983.6773257197
 20
1956.101077071265
 30
0.0
 40
299.9999999998908
  1
Ⅲ
 41
0.75
  7
STYLE1
  0
TEXT
  5
145D
  8
画層1
 10
3692.796085366688
 20
7760.098804246835
 30
0.0
 40
399.9999999998545
  1
仕様について
 41
0.75
  7
1_100
 11
3692.796085366688
 21
7760.098804246835
 31
0.0
 73
     1
  0
TEXT
  5
145E
  8
画層1
 10
3692.796085366688
 20
4860.098804247912
 30
0.0
 40
399.9999999998545
  1
提出書類
 41
0.75
  7
1_100
  0
TEXT
  5
145F
  8
画層1
 10
3692.796085366688
 20
2960.098804248603
 30
0.0
 40
399.9999999998545
  1
設計条件
 41
0.75
  7
1_100
  0
TEXT
  5
1460
  8
画層1
 10
7163.674613250776
 20
2179.457147762737
 30
0.0
 40
129.9999999999527
  1
2
 41
0.75
  7
1_100
  0
TEXT
  5
1461
  8
画層1
 10
4192.796085366492
 20
1960.098804248953
 30
0.0
 40
299.9999999998909
  1
・速度圧　q=0.6EVo （N/㎡）　
 41
0.75
  7
1_100
  0
TEXT
  5
1462
  8
画層1
 10
4192.796085366492
 20
2460.098804248785
 30
0.0
 40
299.9999999998909
  1
・設計荷重。建築基準法・同施工令（平成12年6月）に基づく風圧力に依る、基準風速。
 41
0.75
  7
1_100
  0
TEXT
  5
1463
  8
画層1
 10
8726.503393070569
 20
1960.098804248953
 30
0.0
 40
299.9999999998909
  1
・地表面粗度区分　　　・基礎　普通土質 [B] を選定
 41
0.75
  7
1_100
  0
TEXT
  5
1466
  8
画層1
 10
4192.796085366492
 20
5760.098804247563
 30
0.0
 40
299.9999999998909
  1
・ネット仕様はエコネット（糸径φ1.9・引張強さ1760N）以上とする
 41
0.75
  7
1_100
  0
TEXT
  5
1467
  8
画層1
 10
4192.796085366506
 20
7260.098804247017
 30
0.0
 40
299.9999999998909
  1
・主柱．端末ポール．バンド金具．ボルトは溶融亜鉛メッキ仕上げとする
 41
0.75
  7
1_100
  0
TEXT
  5
1468
  8
画層1
 10
4192.796085366492
 20
6760.098804247199
 30
0.0
 40
299.9999999998909
  1
・主柱ポール基礎部（ＧＬ）はＦＲＰカバーとする
 41
0.75
  7
1_100
  0
TEXT
  5
1469
  8
画層1
 10
4192.796085366506
 20
6260.098804247381
 30
0.0
 40
299.9999999998909
  1
・上部（補強ポール・ネット）下り防止金具付きとする
 41
0.75
  7
1_100
  0
TEXT
  5
1588
  8
寸法文字
  6
CONTINUOUS
 10
13001.50382958951
 20
18308.7986656671
 30
0.0
 40
300.0
  1
（引張強さ1760（Ｎ）以上）
 41
0.75
  7
1_100
  0
TEXT
  5
1744
  8
画層1
 10
4265.984929703511
 20
4285.555356236139
 30
0.0
 40
300.0
  1
・【施工前】構造計算書・材料承認願い・管理基準値を提出し承認後施工のこと。
 41
0.75
  7
1_100
  0
TEXT
  5
1745
  8
画層1
 10
4265.984929703511
 20
3819.532604324516
 30
0.0
 40
300.0
  1
・【完成後】検査証明書・メンテナンス保証書を提出のこと。
 41
0.75
  7
1_100
  0
POLYLINE
  5
1749
  8
寸法引出
  6
CONTINUOUS
 66
     1
 10
0.0
 20
0.0
 30
0.0
  0
VERTEX
  5
1C4C
  8
寸法引出
  6
CONTINUOUS
 10
19951.12931774663
 20
12993.43213633324
 30
0.0
  0
VERTEX
  5
1C4D
  8
寸法引出
  6
CONTINUOUS
 10
20548.5515975751
 20
12223.78239012603
 30
0.0
  0
VERTEX
  5
1C4E
  8
寸法引出
  6
CONTINUOUS
 10
23059.8015975751
 20
12223.78239012603
 30
0.0
  0
SEQEND
  5
1C81
  8
寸法引出
  6
CONTINUOUS
  0
TEXT
  5
174A
  8
寸法文字
  6
CONTINUOUS
 10
20689.8015975751
 20
12323.78239012603
 30
0.0
 40
300.0
  1
スパイラルダクト管
 41
0.75
  7
1_100
  0
TEXT
  5
174B
  8
寸法文字
  6
CONTINUOUS
 10
20583.36408879918
 20
11758.28988460923
 30
0.0
 40
300.0
  1
（φ450×1,500）
 41
0.75
  7
1_100
  0
LINE
  5
1829
  8
画層1
  6
CONTINUOUS
 10
16366.03621876742
 20
25030.92578870548
 30
0.0
 11
25019.55595197099
 21
25030.92578870548
 31
0.0
  0
LINE
  5
182A
  8
画層1
  6
CONTINUOUS
 10
16366.03621876742
 20
25090.92578870176
 30
0.0
 11
25019.55595197099
 21
25090.92578870176
 31
0.0
  0
TEXT
  5
182B
  8
画層1
  6
CONTINUOUS
 10
18702.1219280649
 20
24514.72533256617
 30
0.0
 40
350.0
  1
(溶融亜鉛メッキ仕上げ)
 41
0.8
  7
ＭＳ_Ｐ明朝
 72
     1
 11
20692.79608536827
 21
24443.93881571224
 31
0.0
 73
     1
  0
TEXT
  5
182D
  8
画層1
  6
CONTINUOUS
 10
16835.49271458269
 20
25242.04938420737
 30
0.0
 40
500.0
  1
防球ネット　KS-Ⅰ型　Ｈ＝6,000
 41
0.8
  7
ＭＳ_Ｐ明朝
 72
     1
 11
20692.79608536921
 21
25140.92578870176
 31
0.0
 73
     1
1001
IJCAD_JWWIMPORT_APPID
1002
{
1000
CDataMojiHeightWidthSpace
1010
5000.0
1020
3750.0
1030
0.0
1020
3750.0
1030
0.0
1002
}
  0
TEXT
  5
18E2
  8
寸法文字
  6
CONTINUOUS
 10
10636.40453273297
 20
12854.62327876904
 30
0.0
 40
300.0
  1
コンクリート
 41
0.75
  7
1_100
  0
POLYLINE
  5
18E3
  8
寸法引出
  6
CONTINUOUS
 66
     1
 10
0.0
 20
0.0
 30
0.0
  0
VERTEX
  5
1C4F
  8
寸法引出
  6
CONTINUOUS
 10
9925.198231520473
 20
13418.51598599825
 30
0.0
  0
VERTEX
  5
1C50
  8
寸法引出
  6
CONTINUOUS
 10
10510.15453273297
 20
12754.62327876904
 30
0.0
  0
VERTEX
  5
1C51
  8
寸法引出
  6
CONTINUOUS
 10
12136.40453273297
 20
12754.62327876904
 30
0.0
  0
SEQEND
  5
1C82
  8
寸法引出
  6
CONTINUOUS
  0
TEXT
  5
18E4
  8
寸法文字
  6
CONTINUOUS
 10
10625.41932241097
 20
11752.32071030093
 30
0.0
 40
300.0
  1
床決め砕石
 41
0.75
  7
1_100
  0
POLYLINE
  5
18E5
  8
寸法引出
  6
CONTINUOUS
 66
     1
 10
0.0
 20
0.0
 30
0.0
  0
VERTEX
  5
1C52
  8
寸法引出
  6
CONTINUOUS
 10
9951.129317746632
 20
12287.0021980589
 30
0.0
  0
VERTEX
  5
1C53
  8
寸法引出
  6
CONTINUOUS
 10
10465.41932241097
 20
11652.32071030093
 30
0.0
  0
VERTEX
  5
1C54
  8
寸法引出
  6
CONTINUOUS
 10
11915.41932241097
 20
11652.32071030093
 30
0.0
  0
SEQEND
  5
1C83
  8
寸法引出
  6
CONTINUOUS
  0
TEXT
  5
18E6
  8
寸法文字
  6
CONTINUOUS
 10
10490.06839492365
 20
12333.11498201425
 30
0.0
 40
300.0
  1
（21-15-20）
 41
0.75
  7
1_100
  0
TEXT
  5
18E7
  8
寸法文字
  6
CONTINUOUS
 10
10497.40485243634
 20
11228.32943108752
 30
0.0
 40
300.0
  1
（RC-40）
 41
0.75
  7
1_100
  0
VIEWPORT
  5
665
 67
     1
  8
0
 10
133.3499908447266
 20
101.5999970436096
 30
0.0
 40
492.3034279597864
 41
228.4221935424805
 68
     1
 69
     1
1001
ACAD
1000
MVIEW
1002
{
1070
    16
1010
0.0
1020
0.0
1030
0.0
1020
0.0
1030
0.0
1010
0.0
1020
0.0
1030
1.0
1020
0.0
1030
1.0
1040
0.0
1040
228.4221935424805
1040
133.3499908447266
1040
101.5999970436096
1040
50.0
1040
0.0
1040
0.0
1070
     0
1070
  1000
1070
     0
1070
     1
1070
     0
1070
     0
1070
     0
1070
     0
1040
0.0
1040
0.0
1040
0.0
1040
10.0
1040
10.0
1040
10.0
1040
10.0
1070
     0
1002
{
1002
}
1002
}
  0
VIEWPORT
  5
667
 67
     1
  8
0
 10
133.3499939441681
 20
101.5999939441681
 30
0.0
 40
213.3599903106689
 41
162.5599903106689
 68
     2
 69
     2
1001
ACAD
1000
MVIEW
1002
{
1070
    16
1010
0.0
1020
0.0
1030
0.0
1020
0.0
1030
0.0
1010
0.0
1020
0.0
1030
1.0
1020
0.0
1030
1.0
1040
0.0
1040
30060.9767902379
1040
20692.82596583308
1040
13589.38498981961
1040
50.0
1040
0.0
1040
0.0
1070
     0
1070
  1000
1070
     0
1070
     3
1070
     0
1070
     0
1070
     0
1070
     0
1040
0.0
1040
0.0
1040
0.0
1040
10.0
1040
10.0
1040
10.0
1040
10.0
1070
     0
1002
{
1002
}
1002
}
  0
ENDSEC
  0
EOF
